osu file format v14

[General]
AudioFilename: asdf.mp3
AudioLeadIn: 0
PreviewTime: 43477
Countdown: 0
SampleSet: Soft
StackLeniency: 1
Mode: 0
LetterboxInBreaks: 0
WidescreenStoryboard: 1

[Editor]
Bookmarks: 13665,41415,48165,55517,66017,69017,76517,78017,102017,103517,127665
DistanceSpacing: 1.5
BeatDivisor: 4
GridSize: 4
TimelineZoom: 1.7

[Metadata]
Title:Myosotis
TitleUnicode:Myosotis
Artist:M2U & NICODE feat. Guriri & Lucy
ArtistUnicode:M2U & NICODE feat. Guriri & Lucy
Creator:Irreversible
Version:1
Source:
Tags:
BeatmapID:717925
BeatmapSetID:322948

[Difficulty]
HPDrainRate:6.7
CircleSize:4.5
OverallDifficulty:8.1
ApproachRate:9
SliderMultiplier:1.63999990463257
SliderTickRate:2

[Events]
//Background and Video events
0,0,"BG.jpg",0,0
//Break Periods
2,78029,102917
//Storyboard Layer 0 (Background)
//Storyboard Layer 1 (Fail)
//Storyboard Layer 2 (Pass)
//Storyboard Layer 3 (Foreground)
Sprite,Foreground,Centre,"Fonts/I1.png",320,240 R,0,25517,,0.16 C,0,25517,,167,37,118 F,0,25517,25767,0,0.75 S,0,25517,27767,0.55 MX,0,25517,27767,280.9833,276.2903 MY,0,25517,27767,294.5683,324.1989 F,0,27517,27767,0.75,0
Sprite,Foreground,Centre,"Fonts/r.png",320,240 R,0,25517,,0.16 C,0,25517,,167,37,118 F,0,25517,25767,0,0.75 S,0,25517,27767,0.55 MX,0,25517,27767,299.358,294.6649 MY,0,25517,27767,297.4785,327.1092 F,0,27517,27767,0.75,0
Sprite,Foreground,Centre,"Fonts/r.png",320,240 R,0,25517,,0.16 C,0,25517,,167,37,118 F,0,25517,25767,0,0.75 S,0,25517,27767,0.55 MX,0,25517,27767,319.0772,314.3842 MY,0,25517,27767,300.6017,330.2324 F,0,27517,27767,0.75,0
Sprite,Foreground,Centre,"Fonts/e.png",320,240 R,0,25517,,0.16 C,0,25517,,167,37,118 F,0,25517,25767,0,0.75 S,0,25517,27767,0.55 MX,0,25517,27767,338.3482,333.6552 MY,0,25517,27767,303.654,333.2846 F,0,27517,27767,0.75,0
Sprite,Foreground,Centre,"Fonts/v.png",320,240 R,0,25517,,0.16 C,0,25517,,167,37,118 F,0,25517,25767,0,0.75 S,0,25517,27767,0.55 MX,0,25517,27767,358.9637,354.2707 MY,0,25517,27767,306.9192,336.5498 F,0,27517,27767,0.75,0
Sprite,Foreground,Centre,"Fonts/e.png",320,240 R,0,25517,,0.16 C,0,25517,,167,37,118 F,0,25517,25767,0,0.75 S,0,25517,27767,0.55 MX,0,25517,27767,379.5793,374.8862 MY,0,25517,27767,310.1843,339.815 F,0,27517,27767,0.75,0
Sprite,Foreground,Centre,"Fonts/r.png",320,240 R,0,25517,,0.16 C,0,25517,,167,37,118 F,0,25517,25767,0,0.75 S,0,25517,27767,0.55 MX,0,25517,27767,398.8503,394.1573 MY,0,25517,27767,313.2366,342.8672 F,0,27517,27767,0.75,0
Sprite,Foreground,Centre,"Fonts/s.png",320,240 R,0,25517,,0.16 C,0,25517,,167,37,118 F,0,25517,25767,0,0.75 S,0,25517,27767,0.55 MX,0,25517,27767,417.6732,412.9801 MY,0,25517,27767,316.2178,345.8485 F,0,27517,27767,0.75,0
Sprite,Foreground,Centre,"Fonts/i.png",320,240 R,0,25517,,0.16 C,0,25517,,167,37,118 F,0,25517,25767,0,0.75 S,0,25517,27767,0.55 MX,0,25517,27767,431.5663,426.8732 MY,0,25517,27767,318.4183,348.0489 F,0,27517,27767,0.75,0
Sprite,Foreground,Centre,"Fonts/b.png",320,240 R,0,25517,,0.16 C,0,25517,,167,37,118 F,0,25517,25767,0,0.75 S,0,25517,27767,0.55 MX,0,25517,27767,447.252,442.5589 MY,0,25517,27767,320.9026,350.5333 F,0,27517,27767,0.75,0
Sprite,Foreground,Centre,"Fonts/l.png",320,240 R,0,25517,,0.16 C,0,25517,,167,37,118 F,0,25517,25767,0,0.75 S,0,25517,27767,0.55 MX,0,25517,27767,463.3859,458.6928 MY,0,25517,27767,323.458,353.0887 F,0,27517,27767,0.75,0
Sprite,Foreground,Centre,"Fonts/e.png",320,240 R,0,25517,,0.16 C,0,25517,,167,37,118 F,0,25517,25767,0,0.75 S,0,25517,27767,0.55 MX,0,25517,27767,478.1753,473.4822 MY,0,25517,27767,325.8004,355.4311 F,0,27517,27767,0.75,0
Sprite,Foreground,Centre,"Fonts/I1.png",320,240 R,0,25517,,0.16 C,0,25517,,167,87,168 P,0,25517,,A F,0,25517,26017,0,0.75 S,0,25517,27767,0.55 MX,0,25517,27767,280.9833,276.2903 MY,0,25517,27767,294.5683,324.1989 F,0,27517,27767,0.75,0
Sprite,Foreground,Centre,"Fonts/r.png",320,240 R,0,25517,,0.16 C,0,25517,,167,87,168 P,0,25517,,A S,0,25517,27767,0.55 MX,0,25517,27767,299.358,294.6649 MY,0,25517,27767,297.4785,327.1092 F,0,25567,26067,0,0.75 F,0,27517,27767,0.75,0
Sprite,Foreground,Centre,"Fonts/r.png",320,240 R,0,25517,,0.16 C,0,25517,,167,87,168 P,0,25517,,A S,0,25517,27767,0.55 MX,0,25517,27767,319.0772,314.3842 MY,0,25517,27767,300.6017,330.2324 F,0,25617,26117,0,0.75 F,0,27517,27767,0.75,0
Sprite,Foreground,Centre,"Fonts/e.png",320,240 R,0,25517,,0.16 C,0,25517,,167,87,168 P,0,25517,,A S,0,25517,27767,0.55 MX,0,25517,27767,338.3482,333.6552 MY,0,25517,27767,303.654,333.2846 F,0,25667,26167,0,0.75 F,0,27517,27767,0.75,0
Sprite,Foreground,Centre,"Fonts/v.png",320,240 R,0,25517,,0.16 C,0,25517,,167,87,168 P,0,25517,,A S,0,25517,27767,0.55 MX,0,25517,27767,358.9637,354.2707 MY,0,25517,27767,306.9192,336.5498 F,0,25717,26217,0,0.75 F,0,27517,27767,0.75,0
Sprite,Foreground,Centre,"Fonts/e.png",320,240 R,0,25517,,0.16 C,0,25517,,167,87,168 P,0,25517,,A S,0,25517,27767,0.55 MX,0,25517,27767,379.5793,374.8862 MY,0,25517,27767,310.1843,339.815 F,0,25767,26267,0,0.75 F,0,27517,27767,0.75,0
Sprite,Foreground,Centre,"Fonts/r.png",320,240 R,0,25517,,0.16 C,0,25517,,167,87,168 P,0,25517,,A S,0,25517,27767,0.55 MX,0,25517,27767,398.8503,394.1573 MY,0,25517,27767,313.2366,342.8672 F,0,25817,26317,0,0.75 F,0,27517,27767,0.75,0
Sprite,Foreground,Centre,"Fonts/s.png",320,240 R,0,25517,,0.16 C,0,25517,,167,87,168 P,0,25517,,A S,0,25517,27767,0.55 MX,0,25517,27767,417.6732,412.9801 MY,0,25517,27767,316.2178,345.8485 F,0,25867,26367,0,0.75 F,0,27517,27767,0.75,0
Sprite,Foreground,Centre,"Fonts/i.png",320,240 R,0,25517,,0.16 C,0,25517,,167,87,168 P,0,25517,,A S,0,25517,27767,0.55 MX,0,25517,27767,431.5663,426.8732 MY,0,25517,27767,318.4183,348.0489 F,0,25917,26417,0,0.75 F,0,27517,27767,0.75,0
Sprite,Foreground,Centre,"Fonts/b.png",320,240 R,0,25517,,0.16 C,0,25517,,167,87,168 P,0,25517,,A S,0,25517,27767,0.55 MX,0,25517,27767,447.252,442.5589 MY,0,25517,27767,320.9026,350.5333 F,0,25967,26467,0,0.75 F,0,27517,27767,0.75,0
Sprite,Foreground,Centre,"Fonts/l.png",320,240 R,0,25517,,0.16 C,0,25517,,167,87,168 P,0,25517,,A S,0,25517,27767,0.55 MX,0,25517,27767,463.3859,458.6928 MY,0,25517,27767,323.458,353.0887 F,0,26017,26517,0,0.75 F,0,27517,27767,0.75,0
Sprite,Foreground,Centre,"Fonts/e.png",320,240 R,0,25517,,0.16 C,0,25517,,167,87,168 P,0,25517,,A S,0,25517,27767,0.55 MX,0,25517,27767,478.1753,473.4822 MY,0,25517,27767,325.8004,355.4311 F,0,26067,26567,0,0.75 F,0,27517,27767,0.75,0
Sprite,Foreground,BottomCentre,"SB/g.png",320,240 F,0,78767,,0.65 R,0,78767,,3.141593 C,0,78767,,135,111,223 V,0,78767,,427,0.25 P,0,78767,,A MX,0,78767,78813,320 MY,0,78767,78813,344,313 MX,0,78813,78860,320 MY,0,78813,78860,313,307 MX,0,78860,79001,320 MY,0,78860,79001,307,398 MX,0,79001,79048,320 MY,0,79001,79048,398,407 F,0,79048,,0 MX,0,79048,79142,320 MY,0,79048,79142,407,420 F,0,79142,,0.65 MX,0,79142,79188,320 MY,0,79142,79188,420,360 F,0,79188,,0.65 MX,0,79188,79329,320 MY,0,79188,79329,360,272 MX,0,79329,79423,320 MY,0,79329,79423,272,248 F,0,79423,,0.65 MX,0,79423,79517,320 MY,0,79423,79517,248,188 F,0,79517,,0.65 MX,0,79517,79610,320 MY,0,79517,79610,188,104 MX,0,79610,79704,320 MY,0,79610,79704,104,76 MX,0,79704,79892,320 MY,0,79704,79892,76,192 F,0,79892,,0 MX,0,79892,80079,320 MY,0,79892,80079,192,177 MX,0,80079,80173,320 MY,0,80079,80173,177,168 F,0,80173,,0 MX,0,80173,80267,320 MY,0,80173,80267,168,227 F,0,80267,,0.65 MX,0,80267,80454,320 MY,0,80267,80454,227,108 MX,0,80454,80548,320 MY,0,80454,80548,108,176 F,0,80548,,0 MX,0,80548,80642,320 MY,0,80548,80642,176,324 F,0,80642,,0.65 MX,0,80642,80829,320 MY,0,80642,80829,324,397 MX,0,80829,80923,320 MY,0,80829,80923,397,367 F,0,80923,,0 MX,0,80923,81017,320 MY,0,80923,81017,367,359 F,0,81017,,0 MX,0,81017,81298,320 MY,0,81017,81298,359,367 F,0,81298,,0 MX,0,81298,81392,320 MY,0,81298,81392,367,274 F,0,81392,,0.65 MX,0,81392,81438,320 MY,0,81392,81438,274,237 MX,0,81438,81485,320 MY,0,81438,81485,237,198 MX,0,81485,81532,320 MY,0,81485,81532,198,167 MX,0,81532,81579,320 MY,0,81532,81579,167,155 MX,0,81579,81626,320 MY,0,81579,81626,155,166 MX,0,81626,81673,320 MY,0,81626,81673,166,196 F,0,81673,,0.65 MX,0,81673,81767,320 MY,0,81673,81767,196,228 MX,0,81767,81954,320 MY,0,81767,81954,228,116 F,0,81954,,0 MX,0,81954,82048,320 MY,0,81954,82048,116,119 F,0,82048,,0 MX,0,82048,82142,320 MY,0,82048,82142,119,204 F,0,82142,,0 MX,0,82142,82235,320 MY,0,82142,82235,204,200 F,0,82235,,0.65 MX,0,82235,82329,320 MY,0,82235,82329,200,248 MX,0,82329,82517,320 MY,0,82329,82517,248,392 MX,0,82517,82610,320 MY,0,82517,82610,392 MX,0,82610,82704,320 MY,0,82610,82704,392 MX,0,82704,82892,320 MY,0,82704,82892,392,328 MX,0,82892,83079,320 MY,0,82892,83079,328,218 MX,0,83079,83173,320 MY,0,83079,83173,218 MX,0,83173,83267,320 MY,0,83173,83267,218 F,0,83267,,0 MX,0,83267,83313,320 MY,0,83267,83313,218,220 MX,0,83313,83454,320 MY,0,83313,83454,220,203 F,0,83454,,0 MX,0,83454,83548,320 MY,0,83454,83548,203,248 F,0,83548,,0 MX,0,83548,83642,320 MY,0,83548,83642,248,253 MX,0,83642,83735,320 MY,0,83642,83735,253,195 F,0,83735,,0.65 MX,0,83735,83829,320 MY,0,83735,83829,195,96 MX,0,83829,84017,320 MY,0,83829,84017,96,246 F,0,84017,,0.65 MX,0,84017,84204,320 MY,0,84017,84204,246,185 F,0,84204,,0 MX,0,84204,84298,320 MY,0,84204,84298,185,272 F,0,84298,,0 MX,0,84298,84392,320 MY,0,84298,84392,272,328 MX,0,84392,84485,320 MY,0,84392,84485,328,307 F,0,84485,,0 MX,0,84485,84579,320 MY,0,84485,84579,307 F,0,84579,,0.65 MX,0,84579,84673,320 MY,0,84579,84673,307,387 F,0,84673,,0.65 MX,0,84673,84767,320 MY,0,84673,84767,387,428 MX,0,84767,84860,320 MY,0,84767,84860,428,424 MX,0,84860,84954,320 MY,0,84860,84954,424,392 F,0,84954,,0.65 MX,0,84954,85048,320 MY,0,84954,85048,392,323 F,0,85048,,0 MX,0,85048,85142,320 MY,0,85048,85142,323,392 F,0,85142,,0 MX,0,85142,85235,320 MY,0,85142,85235,392,400 MX,0,85235,85329,320 MY,0,85235,85329,400,347 F,0,85329,,0 MX,0,85329,85423,320 MY,0,85329,85423,347,298 F,0,85423,,0.65 MX,0,85423,85470,320 MY,0,85423,85470,298,314 MX,0,85470,85610,320 MY,0,85470,85610,314,210 F,0,85610,,0 MX,0,85610,85704,320 MY,0,85610,85704,210,104 F,0,85704,,0.65 MX,0,85704,85798,320 MY,0,85704,85798,104,173 F,0,85798,,0 MX,0,85798,85892,320 MY,0,85798,85892,173,248 F,0,85892,,0 MX,0,85892,85985,320 MY,0,85892,85985,248,211 MX,0,85985,86079,320 MY,0,85985,86079,211,203 F,0,86079,,0.65 MX,0,86079,86173,320 MY,0,86079,86173,203,212 MX,0,86173,86267,320 MY,0,86173,86267,212,268 F,0,86267,,0.65 MX,0,86267,86313,320 MY,0,86267,86313,268,296 MX,0,86313,86360,320 MY,0,86313,86360,296,321 F,0,86360,,0 MX,0,86360,86454,320 MY,0,86360,86454,321,408 F,0,86454,,0.65 MX,0,86454,86501,320 MY,0,86454,86501,408,379 MX,0,86501,86548,320 MY,0,86501,86548,379,353 F,0,86548,,0 MX,0,86548,86642,320 MY,0,86548,86642,353,392 F,0,86642,,0 MX,0,86642,86923,320 MY,0,86642,86923,392,402 F,0,86923,,0 MX,0,86923,87017,320 MY,0,86923,87017,402,324 F,0,87017,,0 MX,0,87017,87157,320 MY,0,87017,87157,324,338 MX,0,87157,87235,320 MY,0,87157,87235,338,303 MX,0,87235,87298,320 MY,0,87235,87298,303,331 F,0,87298,,0 MX,0,87298,87392,320 MY,0,87298,87392,331,260 F,0,87392,,0.65 MX,0,87392,87485,320 MY,0,87392,87485,260,206 MX,0,87485,87579,320 MY,0,87485,87579,206,150 F,0,87579,,0.65 MX,0,87579,87673,320 MY,0,87579,87673,150,124 MX,0,87673,87767,320 MY,0,87673,87767,124,120 MX,0,87767,87954,320 MY,0,87767,87954,120,240 F,0,87954,,0 MX,0,87954,88142,320 MY,0,87954,88142,240,250 MX,0,88142,88235,320 MY,0,88142,88235,250,235 F,0,88235,,0 MX,0,88235,88329,320 MY,0,88235,88329,235,148 F,0,88329,,0.65 MX,0,88329,88376,320 MY,0,88329,88376,148,108 F,0,88376,,0.65 MX,0,88376,88517,320 MY,0,88376,88517,108,340 MX,0,88517,88704,320 MY,0,88517,88704,340,264 F,0,88704,,0 MX,0,88704,88798,320 MY,0,88704,88798,264,278 MX,0,88798,88985,320 MY,0,88798,88985,278,268 F,0,88985,,0.65 MX,0,88985,89079,320 MY,0,88985,89079,268,148 MX,0,89079,89267,320 MY,0,89079,89267,148,432 MX,0,89267,89454,320 MY,0,89267,89454,432,254 MX,0,89454,89642,320 MY,0,89454,89642,254,283 F,0,89642,,0 MX,0,89642,89735,320 MY,0,89642,89735,283,249 MX,0,89735,89829,320 MY,0,89735,89829,249,254 F,0,89829,,0 MX,0,89829,90017,320 MY,0,89829,90017,254,104 F,0,90017,,0 MX,0,90017,90157,320 MY,0,90017,90157,104,88 MX,0,90157,90298,320 MY,0,90157,90298,88,89 F,0,90298,,0 MX,0,90298,90392,320 MY,0,90298,90392,89,132 F,0,90392,,0 MX,0,90392,90532,320 MY,0,90392,90532,132,130 MX,0,90532,90673,320 MY,0,90532,90673,130,145 F,0,90673,,0.65 MX,0,90673,90767,320 MY,0,90673,90767,145,336 MX,0,90767,90860,320 MY,0,90767,90860,336,296 F,0,90860,,0 MX,0,90860,90954,320 MY,0,90860,90954,296,287 F,0,90954,,0.65 MX,0,90954,91142,320 MY,0,90954,91142,287,408 MX,0,91142,91235,320 MY,0,91142,91235,408,420 MX,0,91235,91329,320 MY,0,91235,91329,420,404 MX,0,91329,91423,320 MY,0,91329,91423,404,364 F,0,91423,,0.65 MX,0,91423,91517,320 MY,0,91423,91517,364,304 F,0,91517,,0.65 MX,0,91517,91610,320 MY,0,91517,91610,304,216 MX,0,91610,91704,320 MY,0,91610,91704,216,192 F,0,91704,,0.65 MX,0,91704,91798,320 MY,0,91704,91798,192,132 F,0,91798,,0.65 MX,0,91798,91892,320 MY,0,91798,91892,132,64 MX,0,91892,92079,320 MY,0,91892,92079,64,208 MX,0,92079,92172,320 MY,0,92079,92172,208,201 MX,0,92172,92266,320 MY,0,92172,92266,201,195 MX,0,92266,92360,320 MY,0,92266,92360,195,188 MX,0,92360,92454,320 MY,0,92360,92454,188,183 MX,0,92454,92547,320 MY,0,92454,92547,183,212 MX,0,92547,92642,320 MY,0,92547,92642,212,248 F,0,92642,,0.65 MX,0,92642,92923,320 MY,0,92642,92923,248,365 F,0,92923,,0 MX,0,92923,93017,320 MY,0,92923,93017,365,412 F,0,93017,,0 MX,0,93017,93157,320 MY,0,93017,93157,412,421 MX,0,93157,93298,320 MY,0,93157,93298,421,416 F,0,93298,,0.65 MX,0,93298,93392,320 MY,0,93298,93392,416,360 MX,0,93392,93579,320 MY,0,93392,93579,360,183 MX,0,93579,93767,320 MY,0,93579,93767,183,128 MX,0,93767,93860,320 MY,0,93767,93860,128,164 MX,0,93860,93954,320 MY,0,93860,93954,164,176 MX,0,93954,94048,320 MY,0,93954,94048,176,157 MX,0,94048,94142,320 MY,0,94048,94142,157,120 F,0,94142,,0.65 MX,0,94142,94235,320 MY,0,94142,94235,120,201 F,0,94235,,0 MX,0,94235,94329,320 MY,0,94235,94329,201,392 F,0,94329,,0.65 MX,0,94329,94423,320 MY,0,94329,94423,392,310 F,0,94423,,0.65 MX,0,94423,94517,320 MY,0,94423,94517,310,284 MX,0,94517,94610,320 MY,0,94517,94610,284,296 MX,0,94610,94704,320 MY,0,94610,94704,296,284 F,0,94704,,0.65 MX,0,94704,94751,320 MY,0,94704,94751,284,252 MX,0,94751,94798,320 MY,0,94751,94798,252,212 F,0,94798,,0.65 MX,0,94798,94892,320 MY,0,94798,94892,212,80 MX,0,94892,95080,320 MY,0,94892,95080,80,304 MX,0,95080,95173,320 MY,0,95080,95173,304,322 MX,0,95173,95267,320 MY,0,95173,95267,322,304 F,0,95267,,0.65 MX,0,95267,95360,320 MY,0,95267,95360,304,238 MX,0,95360,95454,320 MY,0,95360,95454,238,159 F,0,95454,,0 MX,0,95454,95548,320 MY,0,95454,95548,159 F,0,95548,,0.65 MX,0,95548,95642,320 MY,0,95548,95642,159,237 MX,0,95642,95735,320 MY,0,95642,95735,237,304 F,0,95735,,0.65 MX,0,95735,95829,320 MY,0,95735,95829,304,416 MX,0,95829,96017,320 MY,0,95829,96017,416,252 F,0,96017,,0 MX,0,96017,96204,320 MY,0,96017,96204,252,266 F,0,96204,,0 MX,0,96204,96298,320 MY,0,96204,96298,266,172 F,0,96298,,0 MX,0,96298,96345,320 MY,0,96298,96345,172 MX,0,96345,96485,320 MY,0,96345,96485,172,177 F,0,96485,,0 MX,0,96485,96579,320 MY,0,96485,96579,177,252 F,0,96579,,0.65 MX,0,96579,96673,320 MY,0,96579,96673,252,324 F,0,96673,,0.65 MX,0,96673,96767,320 MY,0,96673,96767,324,380 MX,0,96767,96860,320 MY,0,96767,96860,380,384 MX,0,96860,96954,320 MY,0,96860,96954,384,388 F,0,96954,,0 MX,0,96954,97142,320 MY,0,96954,97142,388,438 F,0,97142,,0.65 MX,0,97142,97235,320 MY,0,97142,97235,438,428 MX,0,97235,97329,320 MY,0,97235,97329,428,404 MX,0,97329,97423,320 MY,0,97329,97423,404,376 F,0,97423,,0.65 MX,0,97423,97517,320 MY,0,97423,97517,376,321 MX,0,97517,97610,320 MY,0,97517,97610,321,264 F,0,97610,,0.65 MX,0,97610,97704,320 MY,0,97610,97704,264,232 MX,0,97704,97797,320 MY,0,97704,97797,232,319 MX,0,97797,97891,320 MY,0,97797,97891,319,264 MX,0,97891,98079,320 MY,0,97891,98079,264,92 MX,0,98079,98172,320 MY,0,98079,98172,92,119 MX,0,98172,98266,320 MY,0,98172,98266,119,136 MX,0,98266,98360,320 MY,0,98266,98360,136,143 MX,0,98360,98454,320 MY,0,98360,98454,143,137 MX,0,98454,98547,320 MY,0,98454,98547,137,121 MX,0,98547,98642,320 MY,0,98547,98642,121,95 F,0,98642,,0.65 MX,0,98642,98829,320 MY,0,98642,98829,95,176 MX,0,98829,99017,320 MY,0,98829,99017,176,95 F,0,99017,,0.65 MX,0,99017,99204,320 MY,0,99017,99204,95,248 MX,0,99204,99392,320 MY,0,99204,99392,248,388 F,0,99392,,0 MX,0,99392,99438,320 MY,0,99392,99438,388,387 MX,0,99438,99485,320 MY,0,99438,99485,387,402 F,0,99485,,0 MX,0,99485,99579,320 MY,0,99485,99579,402,421 F,0,99579,,0 MX,0,99579,99626,320 MY,0,99579,99626,421,422 MX,0,99626,99673,320 MY,0,99626,99673,422,406 F,0,99673,,0.65 MX,0,99673,99767,320 MY,0,99673,99767,406,420 MX,0,99767,99954,320 MY,0,99767,99954,420,248 F,0,99954,,0.65 MX,0,99954,100048,320 MY,0,99954,100048,248,186 F,0,100048,,0.65 MX,0,100048,100142,320 MY,0,100048,100142,186,96 MX,0,100142,100235,320 MY,0,100142,100235,96,83 MX,0,100235,100329,320 MY,0,100235,100329,83,145 MX,0,100329,100423,320 MY,0,100329,100423,145,168 MX,0,100423,100517,320 MY,0,100423,100517,168,192 MX,0,100517,100704,320 MY,0,100517,100704,192,332 F,0,100704,,0.65 MX,0,100704,101079,320 MY,0,100704,101079,332,212 F,0,101079,,0.65 MX,0,101079,101173,320 MY,0,101079,101173,212,216 MX,0,101173,101267,320 MY,0,101173,101267,216 F,0,101267,,0 MX,0,101267,101454,320 MY,0,101267,101454,216,228 MX,0,101454,101642,320 MY,0,101454,101642,228,282 MX,0,101642,101829,320 MY,0,101642,101829,282,278 MX,0,101829,102017,320 MY,0,101829,102017,278,247 F,0,102017,,0.65 MX,0,102017,102767,320 MY,0,102017,102767,247 MX,0,102767,102860,320 MY,0,102767,102860,247,277 MX,0,102860,102954,320 MY,0,102860,102954,277,308 MX,0,102954,103048,320 MY,0,102954,103048,308,338
Sprite,Foreground,BottomCentre,"SB/g.png",320,240 F,0,78767,,0.65 C,0,78767,,135,111,223 V,0,78767,,427,0.25 P,0,78767,,A MX,0,78767,78813,320 MY,0,78767,78813,344,313 MX,0,78813,78860,320 MY,0,78813,78860,313,307 MX,0,78860,79001,320 MY,0,78860,79001,307,398 MX,0,79001,79048,320 MY,0,79001,79048,398,407 F,0,79048,,0 MX,0,79048,79142,320 MY,0,79048,79142,407,420 F,0,79142,,0.65 MX,0,79142,79188,320 MY,0,79142,79188,420,360 F,0,79188,,0.65 MX,0,79188,79329,320 MY,0,79188,79329,360,272 MX,0,79329,79423,320 MY,0,79329,79423,272,248 F,0,79423,,0.65 MX,0,79423,79517,320 MY,0,79423,79517,248,188 F,0,79517,,0.65 MX,0,79517,79610,320 MY,0,79517,79610,188,104 MX,0,79610,79704,320 MY,0,79610,79704,104,76 MX,0,79704,79892,320 MY,0,79704,79892,76,192 F,0,79892,,0 MX,0,79892,80079,320 MY,0,79892,80079,192,177 MX,0,80079,80173,320 MY,0,80079,80173,177,168 F,0,80173,,0 MX,0,80173,80267,320 MY,0,80173,80267,168,227 F,0,80267,,0.65 MX,0,80267,80454,320 MY,0,80267,80454,227,108 MX,0,80454,80548,320 MY,0,80454,80548,108,176 F,0,80548,,0 MX,0,80548,80642,320 MY,0,80548,80642,176,324 F,0,80642,,0.65 MX,0,80642,80829,320 MY,0,80642,80829,324,397 MX,0,80829,80923,320 MY,0,80829,80923,397,367 F,0,80923,,0 MX,0,80923,81017,320 MY,0,80923,81017,367,359 F,0,81017,,0 MX,0,81017,81298,320 MY,0,81017,81298,359,367 F,0,81298,,0 MX,0,81298,81392,320 MY,0,81298,81392,367,274 F,0,81392,,0.65 MX,0,81392,81438,320 MY,0,81392,81438,274,237 MX,0,81438,81485,320 MY,0,81438,81485,237,198 MX,0,81485,81532,320 MY,0,81485,81532,198,167 MX,0,81532,81579,320 MY,0,81532,81579,167,155 MX,0,81579,81626,320 MY,0,81579,81626,155,166 MX,0,81626,81673,320 MY,0,81626,81673,166,196 F,0,81673,,0.65 MX,0,81673,81767,320 MY,0,81673,81767,196,228 MX,0,81767,81954,320 MY,0,81767,81954,228,116 F,0,81954,,0 MX,0,81954,82048,320 MY,0,81954,82048,116,119 F,0,82048,,0 MX,0,82048,82142,320 MY,0,82048,82142,119,204 F,0,82142,,0 MX,0,82142,82235,320 MY,0,82142,82235,204,200 F,0,82235,,0.65 MX,0,82235,82329,320 MY,0,82235,82329,200,248 MX,0,82329,82517,320 MY,0,82329,82517,248,392 MX,0,82517,82610,320 MY,0,82517,82610,392 MX,0,82610,82704,320 MY,0,82610,82704,392 MX,0,82704,82892,320 MY,0,82704,82892,392,328 MX,0,82892,83079,320 MY,0,82892,83079,328,218 MX,0,83079,83173,320 MY,0,83079,83173,218 MX,0,83173,83267,320 MY,0,83173,83267,218 F,0,83267,,0 MX,0,83267,83313,320 MY,0,83267,83313,218,220 MX,0,83313,83454,320 MY,0,83313,83454,220,203 F,0,83454,,0 MX,0,83454,83548,320 MY,0,83454,83548,203,248 F,0,83548,,0 MX,0,83548,83642,320 MY,0,83548,83642,248,253 MX,0,83642,83735,320 MY,0,83642,83735,253,195 F,0,83735,,0.65 MX,0,83735,83829,320 MY,0,83735,83829,195,96 MX,0,83829,84017,320 MY,0,83829,84017,96,246 F,0,84017,,0.65 MX,0,84017,84204,320 MY,0,84017,84204,246,185 F,0,84204,,0 MX,0,84204,84298,320 MY,0,84204,84298,185,272 F,0,84298,,0 MX,0,84298,84392,320 MY,0,84298,84392,272,328 MX,0,84392,84485,320 MY,0,84392,84485,328,307 F,0,84485,,0 MX,0,84485,84579,320 MY,0,84485,84579,307 F,0,84579,,0.65 MX,0,84579,84673,320 MY,0,84579,84673,307,387 F,0,84673,,0.65 MX,0,84673,84767,320 MY,0,84673,84767,387,428 MX,0,84767,84860,320 MY,0,84767,84860,428,424 MX,0,84860,84954,320 MY,0,84860,84954,424,392 F,0,84954,,0.65 MX,0,84954,85048,320 MY,0,84954,85048,392,323 F,0,85048,,0 MX,0,85048,85142,320 MY,0,85048,85142,323,392 F,0,85142,,0 MX,0,85142,85235,320 MY,0,85142,85235,392,400 MX,0,85235,85329,320 MY,0,85235,85329,400,347 F,0,85329,,0 MX,0,85329,85423,320 MY,0,85329,85423,347,298 F,0,85423,,0.65 MX,0,85423,85470,320 MY,0,85423,85470,298,314 MX,0,85470,85610,320 MY,0,85470,85610,314,210 F,0,85610,,0 MX,0,85610,85704,320 MY,0,85610,85704,210,104 F,0,85704,,0.65 MX,0,85704,85798,320 MY,0,85704,85798,104,173 F,0,85798,,0 MX,0,85798,85892,320 MY,0,85798,85892,173,248 F,0,85892,,0 MX,0,85892,85985,320 MY,0,85892,85985,248,211 MX,0,85985,86079,320 MY,0,85985,86079,211,203 F,0,86079,,0.65 MX,0,86079,86173,320 MY,0,86079,86173,203,212 MX,0,86173,86267,320 MY,0,86173,86267,212,268 F,0,86267,,0.65 MX,0,86267,86313,320 MY,0,86267,86313,268,296 MX,0,86313,86360,320 MY,0,86313,86360,296,321 F,0,86360,,0 MX,0,86360,86454,320 MY,0,86360,86454,321,408 F,0,86454,,0.65 MX,0,86454,86501,320 MY,0,86454,86501,408,379 MX,0,86501,86548,320 MY,0,86501,86548,379,353 F,0,86548,,0 MX,0,86548,86642,320 MY,0,86548,86642,353,392 F,0,86642,,0 MX,0,86642,86923,320 MY,0,86642,86923,392,402 F,0,86923,,0 MX,0,86923,87017,320 MY,0,86923,87017,402,324 F,0,87017,,0 MX,0,87017,87157,320 MY,0,87017,87157,324,338 MX,0,87157,87235,320 MY,0,87157,87235,338,303 MX,0,87235,87298,320 MY,0,87235,87298,303,331 F,0,87298,,0 MX,0,87298,87392,320 MY,0,87298,87392,331,260 F,0,87392,,0.65 MX,0,87392,87485,320 MY,0,87392,87485,260,206 MX,0,87485,87579,320 MY,0,87485,87579,206,150 F,0,87579,,0.65 MX,0,87579,87673,320 MY,0,87579,87673,150,124 MX,0,87673,87767,320 MY,0,87673,87767,124,120 MX,0,87767,87954,320 MY,0,87767,87954,120,240 F,0,87954,,0 MX,0,87954,88142,320 MY,0,87954,88142,240,250 MX,0,88142,88235,320 MY,0,88142,88235,250,235 F,0,88235,,0 MX,0,88235,88329,320 MY,0,88235,88329,235,148 F,0,88329,,0.65 MX,0,88329,88376,320 MY,0,88329,88376,148,108 F,0,88376,,0.65 MX,0,88376,88517,320 MY,0,88376,88517,108,340 MX,0,88517,88704,320 MY,0,88517,88704,340,264 F,0,88704,,0 MX,0,88704,88798,320 MY,0,88704,88798,264,278 MX,0,88798,88985,320 MY,0,88798,88985,278,268 F,0,88985,,0.65 MX,0,88985,89079,320 MY,0,88985,89079,268,148 MX,0,89079,89267,320 MY,0,89079,89267,148,432 MX,0,89267,89454,320 MY,0,89267,89454,432,254 MX,0,89454,89642,320 MY,0,89454,89642,254,283 F,0,89642,,0 MX,0,89642,89735,320 MY,0,89642,89735,283,249 MX,0,89735,89829,320 MY,0,89735,89829,249,254 F,0,89829,,0 MX,0,89829,90017,320 MY,0,89829,90017,254,104 F,0,90017,,0 MX,0,90017,90157,320 MY,0,90017,90157,104,88 MX,0,90157,90298,320 MY,0,90157,90298,88,89 F,0,90298,,0 MX,0,90298,90392,320 MY,0,90298,90392,89,132 F,0,90392,,0 MX,0,90392,90532,320 MY,0,90392,90532,132,130 MX,0,90532,90673,320 MY,0,90532,90673,130,145 F,0,90673,,0.65 MX,0,90673,90767,320 MY,0,90673,90767,145,336 MX,0,90767,90860,320 MY,0,90767,90860,336,296 F,0,90860,,0 MX,0,90860,90954,320 MY,0,90860,90954,296,287 F,0,90954,,0.65 MX,0,90954,91142,320 MY,0,90954,91142,287,408 MX,0,91142,91235,320 MY,0,91142,91235,408,420 MX,0,91235,91329,320 MY,0,91235,91329,420,404 MX,0,91329,91423,320 MY,0,91329,91423,404,364 F,0,91423,,0.65 MX,0,91423,91517,320 MY,0,91423,91517,364,304 F,0,91517,,0.65 MX,0,91517,91610,320 MY,0,91517,91610,304,216 MX,0,91610,91704,320 MY,0,91610,91704,216,192 F,0,91704,,0.65 MX,0,91704,91798,320 MY,0,91704,91798,192,132 F,0,91798,,0.65 MX,0,91798,91892,320 MY,0,91798,91892,132,64 MX,0,91892,92079,320 MY,0,91892,92079,64,208 MX,0,92079,92172,320 MY,0,92079,92172,208,201 MX,0,92172,92266,320 MY,0,92172,92266,201,195 MX,0,92266,92360,320 MY,0,92266,92360,195,188 MX,0,92360,92454,320 MY,0,92360,92454,188,183 MX,0,92454,92547,320 MY,0,92454,92547,183,212 MX,0,92547,92642,320 MY,0,92547,92642,212,248 F,0,92642,,0.65 MX,0,92642,92923,320 MY,0,92642,92923,248,365 F,0,92923,,0 MX,0,92923,93017,320 MY,0,92923,93017,365,412 F,0,93017,,0 MX,0,93017,93157,320 MY,0,93017,93157,412,421 MX,0,93157,93298,320 MY,0,93157,93298,421,416 F,0,93298,,0.65 MX,0,93298,93392,320 MY,0,93298,93392,416,360 MX,0,93392,93579,320 MY,0,93392,93579,360,183 MX,0,93579,93767,320 MY,0,93579,93767,183,128 MX,0,93767,93860,320 MY,0,93767,93860,128,164 MX,0,93860,93954,320 MY,0,93860,93954,164,176 MX,0,93954,94048,320 MY,0,93954,94048,176,157 MX,0,94048,94142,320 MY,0,94048,94142,157,120 F,0,94142,,0.65 MX,0,94142,94235,320 MY,0,94142,94235,120,201 F,0,94235,,0 MX,0,94235,94329,320 MY,0,94235,94329,201,392 F,0,94329,,0.65 MX,0,94329,94423,320 MY,0,94329,94423,392,310 F,0,94423,,0.65 MX,0,94423,94517,320 MY,0,94423,94517,310,284 MX,0,94517,94610,320 MY,0,94517,94610,284,296 MX,0,94610,94704,320 MY,0,94610,94704,296,284 F,0,94704,,0.65 MX,0,94704,94751,320 MY,0,94704,94751,284,252 MX,0,94751,94798,320 MY,0,94751,94798,252,212 F,0,94798,,0.65 MX,0,94798,94892,320 MY,0,94798,94892,212,80 MX,0,94892,95080,320 MY,0,94892,95080,80,304 MX,0,95080,95173,320 MY,0,95080,95173,304,322 MX,0,95173,95267,320 MY,0,95173,95267,322,304 F,0,95267,,0.65 MX,0,95267,95360,320 MY,0,95267,95360,304,238 MX,0,95360,95454,320 MY,0,95360,95454,238,159 F,0,95454,,0 MX,0,95454,95548,320 MY,0,95454,95548,159 F,0,95548,,0.65 MX,0,95548,95642,320 MY,0,95548,95642,159,237 MX,0,95642,95735,320 MY,0,95642,95735,237,304 F,0,95735,,0.65 MX,0,95735,95829,320 MY,0,95735,95829,304,416 MX,0,95829,96017,320 MY,0,95829,96017,416,252 F,0,96017,,0 MX,0,96017,96204,320 MY,0,96017,96204,252,266 F,0,96204,,0 MX,0,96204,96298,320 MY,0,96204,96298,266,172 F,0,96298,,0 MX,0,96298,96345,320 MY,0,96298,96345,172 MX,0,96345,96485,320 MY,0,96345,96485,172,177 F,0,96485,,0 MX,0,96485,96579,320 MY,0,96485,96579,177,252 F,0,96579,,0.65 MX,0,96579,96673,320 MY,0,96579,96673,252,324 F,0,96673,,0.65 MX,0,96673,96767,320 MY,0,96673,96767,324,380 MX,0,96767,96860,320 MY,0,96767,96860,380,384 MX,0,96860,96954,320 MY,0,96860,96954,384,388 F,0,96954,,0 MX,0,96954,97142,320 MY,0,96954,97142,388,438 F,0,97142,,0.65 MX,0,97142,97235,320 MY,0,97142,97235,438,428 MX,0,97235,97329,320 MY,0,97235,97329,428,404 MX,0,97329,97423,320 MY,0,97329,97423,404,376 F,0,97423,,0.65 MX,0,97423,97517,320 MY,0,97423,97517,376,321 MX,0,97517,97610,320 MY,0,97517,97610,321,264 F,0,97610,,0.65 MX,0,97610,97704,320 MY,0,97610,97704,264,232 MX,0,97704,97797,320 MY,0,97704,97797,232,319 MX,0,97797,97891,320 MY,0,97797,97891,319,264 MX,0,97891,98079,320 MY,0,97891,98079,264,92 MX,0,98079,98172,320 MY,0,98079,98172,92,119 MX,0,98172,98266,320 MY,0,98172,98266,119,136 MX,0,98266,98360,320 MY,0,98266,98360,136,143 MX,0,98360,98454,320 MY,0,98360,98454,143,137 MX,0,98454,98547,320 MY,0,98454,98547,137,121 MX,0,98547,98642,320 MY,0,98547,98642,121,95 F,0,98642,,0.65 MX,0,98642,98829,320 MY,0,98642,98829,95,176 MX,0,98829,99017,320 MY,0,98829,99017,176,95 F,0,99017,,0.65 MX,0,99017,99204,320 MY,0,99017,99204,95,248 MX,0,99204,99392,320 MY,0,99204,99392,248,388 F,0,99392,,0 MX,0,99392,99438,320 MY,0,99392,99438,388,387 MX,0,99438,99485,320 MY,0,99438,99485,387,402 F,0,99485,,0 MX,0,99485,99579,320 MY,0,99485,99579,402,421 F,0,99579,,0 MX,0,99579,99626,320 MY,0,99579,99626,421,422 MX,0,99626,99673,320 MY,0,99626,99673,422,406 F,0,99673,,0.65 MX,0,99673,99767,320 MY,0,99673,99767,406,420 MX,0,99767,99954,320 MY,0,99767,99954,420,248 F,0,99954,,0.65 MX,0,99954,100048,320 MY,0,99954,100048,248,186 F,0,100048,,0.65 MX,0,100048,100142,320 MY,0,100048,100142,186,96 MX,0,100142,100235,320 MY,0,100142,100235,96,83 MX,0,100235,100329,320 MY,0,100235,100329,83,145 MX,0,100329,100423,320 MY,0,100329,100423,145,168 MX,0,100423,100517,320 MY,0,100423,100517,168,192 MX,0,100517,100704,320 MY,0,100517,100704,192,332 F,0,100704,,0.65 MX,0,100704,101079,320 MY,0,100704,101079,332,212 F,0,101079,,0.65 MX,0,101079,101173,320 MY,0,101079,101173,212,216 MX,0,101173,101267,320 MY,0,101173,101267,216 F,0,101267,,0 MX,0,101267,101454,320 MY,0,101267,101454,216,228 MX,0,101454,101642,320 MY,0,101454,101642,228,282 MX,0,101642,101829,320 MY,0,101642,101829,282,278 MX,0,101829,102017,320 MY,0,101829,102017,278,247 F,0,102017,,0.65 MX,0,102017,102767,320 MY,0,102017,102767,247 MX,0,102767,102860,320 MY,0,102767,102860,247,277 MX,0,102860,102954,320 MY,0,102860,102954,277,308 MX,0,102954,103048,320 MY,0,102954,103048,308,338
Sprite,Foreground,BottomCentre,"SB/g.png",320,240 F,0,78767,,0 R,0,78767,,1.5708 C,0,78767,,135,111,223 V,0,78767,,240,0.25 P,0,78767,,A MX,0,78767,78813,276,292 MY,0,78767,78813,240 MX,0,78813,78860,292,325 MY,0,78813,78860,240 MX,0,78860,79001,325,371 MY,0,78860,79001,240 MX,0,79001,79048,371,404 MY,0,79001,79048,240 F,0,79048,,0 MX,0,79048,79142,404,540 MY,0,79048,79142,240 F,0,79142,,0 MX,0,79142,79188,540,554 MY,0,79142,79188,240 F,0,79188,,0.65 MX,0,79188,79329,554,516 MY,0,79188,79329,240 MX,0,79329,79423,516,512 MY,0,79329,79423,240 F,0,79423,,0 MX,0,79423,79517,512,526 MY,0,79423,79517,240 F,0,79517,,0.65 MX,0,79517,79610,526,488 MY,0,79517,79610,240 MX,0,79610,79704,488,496 MY,0,79610,79704,240 MX,0,79704,79892,496,264 MY,0,79704,79892,240 F,0,79892,,0.65 MX,0,79892,80079,264,117 MY,0,79892,80079,240 MX,0,80079,80173,117,188 MY,0,80079,80173,240 F,0,80173,,0 MX,0,80173,80267,188,396 MY,0,80173,80267,240 F,0,80267,,0 MX,0,80267,80454,396,483 MY,0,80267,80454,240 MX,0,80454,80548,483,462 MY,0,80454,80548,240 F,0,80548,,0 MX,0,80548,80642,462,299 MY,0,80548,80642,240 F,0,80642,,0 MX,0,80642,80829,299,332 MY,0,80642,80829,240 MX,0,80829,80923,332,303 MY,0,80829,80923,240 F,0,80923,,0 MX,0,80923,81017,303,211 MY,0,80923,81017,240 F,0,81017,,0.65 MX,0,81017,81298,211,303 MY,0,81017,81298,240 F,0,81298,,0 MX,0,81298,81392,303,452 MY,0,81298,81392,240 F,0,81392,,0 MX,0,81392,81438,452,468 MY,0,81392,81438,240 MX,0,81438,81485,468,462 MY,0,81438,81485,240 MX,0,81485,81532,462,435 MY,0,81485,81532,240 MX,0,81532,81579,435,396 MY,0,81532,81579,240 MX,0,81579,81626,396,358 MY,0,81579,81626,240 MX,0,81626,81673,358,330 MY,0,81626,81673,240 F,0,81673,,0.65 MX,0,81673,81767,330,396 MY,0,81673,81767,240 MX,0,81767,81954,396,204 MY,0,81767,81954,240 F,0,81954,,0.65 MX,0,81954,82048,204,130 MY,0,81954,82048,240 F,0,82048,,0 MX,0,82048,82142,130,92 MY,0,82048,82142,240 F,0,82142,,0.65 MX,0,82142,82235,92,165 MY,0,82142,82235,240 F,0,82235,,0.65 MX,0,82235,82329,165,236 MY,0,82235,82329,240 MX,0,82329,82517,236,136 MY,0,82329,82517,240 MX,0,82517,82610,136 MY,0,82517,82610,240 MX,0,82610,82704,136 MY,0,82610,82704,240 MX,0,82704,82892,136,404 MY,0,82704,82892,240 MX,0,82892,83079,404,168 MY,0,82892,83079,240 MX,0,83079,83173,168 MY,0,83079,83173,240 MX,0,83173,83267,168 MY,0,83173,83267,240 F,0,83267,,0.65 MX,0,83267,83313,168,189 MY,0,83267,83313,240 MX,0,83313,83454,189,92 MY,0,83313,83454,240 F,0,83454,,0 MX,0,83454,83548,92,236 MY,0,83454,83548,240 F,0,83548,,0.65 MX,0,83548,83642,236,307 MY,0,83548,83642,240 MX,0,83642,83735,307,347 MY,0,83642,83735,240 F,0,83735,,0.65 MX,0,83735,83829,347,320 MY,0,83735,83829,240 MX,0,83829,84017,320,497 MY,0,83829,84017,240 F,0,84017,,0 MX,0,84017,84204,497,509 MY,0,84017,84204,240 F,0,84204,,0 MX,0,84204,84298,509,572 MY,0,84204,84298,240 F,0,84298,,0.65 MX,0,84298,84392,572,514 MY,0,84298,84392,240 MX,0,84392,84485,514,439 MY,0,84392,84485,240 F,0,84485,,0 MX,0,84485,84579,439 MY,0,84485,84579,240 F,0,84579,,0 MX,0,84579,84673,439,453 MY,0,84579,84673,240 F,0,84673,,0.65 MX,0,84673,84767,453,376 MY,0,84673,84767,240 MX,0,84767,84860,376,328 MY,0,84767,84860,240 MX,0,84860,84954,328,296 MY,0,84860,84954,240 F,0,84954,,0 MX,0,84954,85048,296,285 MY,0,84954,85048,240 F,0,85048,,0 MX,0,85048,85142,285,176 MY,0,85048,85142,240 F,0,85142,,0.65 MX,0,85142,85235,176,109 MY,0,85142,85235,240 MX,0,85235,85329,109,65 MY,0,85235,85329,240 F,0,85329,,0 MX,0,85329,85423,65,148 MY,0,85329,85423,240 F,0,85423,,0 MX,0,85423,85470,148,138 MY,0,85423,85470,240 MX,0,85470,85610,138,123 MY,0,85470,85610,240 F,0,85610,,0 MX,0,85610,85704,123,200 MY,0,85610,85704,240 F,0,85704,,0 MX,0,85704,85798,200,209 MY,0,85704,85798,240 F,0,85798,,0 MX,0,85798,85892,209,320 MY,0,85798,85892,240 F,0,85892,,0.65 MX,0,85892,85985,320,363 MY,0,85892,85985,240 MX,0,85985,86079,363,418 MY,0,85985,86079,240 F,0,86079,,0.65 MX,0,86079,86173,418,496 MY,0,86079,86173,240 MX,0,86173,86267,496,552 MY,0,86173,86267,240 F,0,86267,,0 MX,0,86267,86313,552 MY,0,86267,86313,240 MX,0,86313,86360,552,538 MY,0,86313,86360,240 F,0,86360,,0 MX,0,86360,86454,538,472 MY,0,86360,86454,240 F,0,86454,,0 MX,0,86454,86501,472,471 MY,0,86454,86501,240 MX,0,86501,86548,471,459 MY,0,86501,86548,240 F,0,86548,,0 MX,0,86548,86642,459,348 MY,0,86548,86642,240 F,0,86642,,0.65 MX,0,86642,86923,348,256 MY,0,86642,86923,240 F,0,86923,,0 MX,0,86923,87017,256,292 MY,0,86923,87017,240 F,0,87017,,0.65 MX,0,87017,87157,292,189 MY,0,87017,87157,240 MX,0,87157,87235,189,187 MY,0,87157,87235,240 MX,0,87235,87298,187,151 MY,0,87235,87298,240 F,0,87298,,0 MX,0,87298,87392,151,120 MY,0,87298,87392,240 F,0,87392,,0 MX,0,87392,87485,120,94 MY,0,87392,87485,240 MX,0,87485,87579,94,113 MY,0,87485,87579,240 F,0,87579,,0.65 MX,0,87579,87673,113,144 MY,0,87579,87673,240 MX,0,87673,87767,144,188 MY,0,87673,87767,240 MX,0,87767,87954,188,320 MY,0,87767,87954,240 F,0,87954,,0.65 MX,0,87954,88142,320,401 MY,0,87954,88142,240 MX,0,88142,88235,401,439 MY,0,88142,88235,240 F,0,88235,,0 MX,0,88235,88329,439,488 MY,0,88235,88329,240 F,0,88329,,0 MX,0,88329,88376,488,499 MY,0,88329,88376,240 F,0,88376,,0.65 MX,0,88376,88517,499,576 MY,0,88376,88517,240 MX,0,88517,88704,576,444 MY,0,88517,88704,240 F,0,88704,,0.65 MX,0,88704,88798,444,405 MY,0,88704,88798,240 MX,0,88798,88985,405,324 MY,0,88798,88985,240 F,0,88985,,0.65 MX,0,88985,89079,324,488 MY,0,88985,89079,240 MX,0,89079,89267,488,312 MY,0,89079,89267,240 MX,0,89267,89454,312,101 MY,0,89267,89454,240 MX,0,89454,89642,101,202 MY,0,89454,89642,240 F,0,89642,,0.65 MX,0,89642,89735,202,157 MY,0,89642,89735,240 MX,0,89735,89829,157,101 MY,0,89735,89829,240 F,0,89829,,0 MX,0,89829,90017,101,200 MY,0,89829,90017,240 F,0,90017,,0.65 MX,0,90017,90157,200,226 MY,0,90017,90157,240 MX,0,90157,90298,226,256 MY,0,90157,90298,240 F,0,90298,,0 MX,0,90298,90392,256,379 MY,0,90298,90392,240 F,0,90392,,0.65 MX,0,90392,90532,379,409 MY,0,90392,90532,240 MX,0,90532,90673,409,435 MY,0,90532,90673,240 F,0,90673,,0.65 MX,0,90673,90767,435,424 MY,0,90673,90767,240 MX,0,90767,90860,424,468 MY,0,90767,90860,240 F,0,90860,,0.65 MX,0,90860,90954,468,407 MY,0,90860,90954,240 F,0,90954,,0.65 MX,0,90954,91142,407,232 MY,0,90954,91142,240 MX,0,91142,91235,232,184 MY,0,91142,91235,240 MX,0,91235,91329,184,136 MY,0,91235,91329,240 MX,0,91329,91423,136,120 MY,0,91329,91423,240 F,0,91423,,0 MX,0,91423,91517,120,134 MY,0,91423,91517,240 F,0,91517,,0.65 MX,0,91517,91610,134,104 MY,0,91517,91610,240 MX,0,91610,91704,104,108 MY,0,91610,91704,240 F,0,91704,,0 MX,0,91704,91798,108,93 MY,0,91704,91798,240 F,0,91798,,0.65 MX,0,91798,91892,93,168 MY,0,91798,91892,240 MX,0,91892,92079,168,332 MY,0,91892,92079,240 MX,0,92079,92172,332,370 MY,0,92079,92172,240 MX,0,92172,92266,370,410 MY,0,92172,92266,240 MX,0,92266,92360,410,450 MY,0,92266,92360,240 MX,0,92360,92454,450,486 MY,0,92360,92454,240 MX,0,92454,92547,486,520 MY,0,92454,92547,240 MX,0,92547,92642,520,548 MY,0,92547,92642,240 F,0,92642,,0 MX,0,92642,92923,548,511 MY,0,92642,92923,240 F,0,92923,,0 MX,0,92923,93017,511,440 MY,0,92923,93017,240 F,0,93017,,0.65 MX,0,93017,93157,440,410 MY,0,93017,93157,240 MX,0,93157,93298,410,380 MY,0,93157,93298,240 F,0,93298,,0.65 MX,0,93298,93392,380,320 MY,0,93298,93392,240 MX,0,93392,93579,320,486 MY,0,93392,93579,240 MX,0,93579,93767,486,250 MY,0,93579,93767,240 MX,0,93767,93860,250,218 MY,0,93767,93860,240 MX,0,93860,93954,218,171 MY,0,93860,93954,240 MX,0,93954,94048,171,126 MY,0,93954,94048,240 MX,0,94048,94142,126,100 MY,0,94048,94142,240 F,0,94142,,0 MX,0,94142,94235,100,107 MY,0,94142,94235,240 F,0,94235,,0 MX,0,94235,94329,107,144 MY,0,94235,94329,240 F,0,94329,,0 MX,0,94329,94423,144,150 MY,0,94329,94423,240 F,0,94423,,0.65 MX,0,94423,94517,150,272 MY,0,94423,94517,240 MX,0,94517,94610,272,320 MY,0,94517,94610,240 MX,0,94610,94704,320,368 MY,0,94610,94704,240 F,0,94704,,0 MX,0,94704,94751,368,394 MY,0,94704,94751,240 MX,0,94751,94798,394,398 MY,0,94751,94798,240 F,0,94798,,0.65 MX,0,94798,94892,398,320 MY,0,94798,94892,240 MX,0,94892,95080,320,252 MY,0,94892,95080,240 MX,0,95080,95173,252,321 MY,0,95080,95173,240 MX,0,95173,95267,321,389 MY,0,95173,95267,240 F,0,95267,,0 MX,0,95267,95360,389,432 MY,0,95267,95360,240 MX,0,95360,95454,432,415 MY,0,95360,95454,240 F,0,95454,,0 MX,0,95454,95548,415,224 MY,0,95454,95548,240 F,0,95548,,0 MX,0,95548,95642,224,205 MY,0,95548,95642,240 MX,0,95642,95735,205,252 MY,0,95642,95735,240 F,0,95735,,0.65 MX,0,95735,95829,252,316 MY,0,95735,95829,240 MX,0,95829,96017,316,560 MY,0,95829,96017,240 F,0,96017,,0.65 MX,0,96017,96204,560,521 MY,0,96017,96204,240 F,0,96204,,0 MX,0,96204,96298,521,408 MY,0,96204,96298,240 F,0,96298,,0.65 MX,0,96298,96345,408,403 MY,0,96298,96345,240 MX,0,96345,96485,403,517 MY,0,96345,96485,240 F,0,96485,,0 MX,0,96485,96579,517,560 MY,0,96485,96579,240 F,0,96579,,0 MX,0,96579,96673,560,537 MY,0,96579,96673,240 F,0,96673,,0.65 MX,0,96673,96767,537,448 MY,0,96673,96767,240 MX,0,96767,96860,448,464 MY,0,96767,96860,240 MX,0,96860,96954,464,480 MY,0,96860,96954,240 F,0,96954,,0.65 MX,0,96954,97142,480,324 MY,0,96954,97142,240 F,0,97142,,0.65 MX,0,97142,97235,324,248 MY,0,97142,97235,240 MX,0,97235,97329,248,172 MY,0,97235,97329,240 MX,0,97329,97423,172,96 MY,0,97329,97423,240 F,0,97423,,0 MX,0,97423,97517,96,72 MY,0,97423,97517,240 MX,0,97517,97610,72,91 MY,0,97517,97610,240 F,0,97610,,0.65 MX,0,97610,97704,91,176 MY,0,97610,97704,240 MX,0,97704,97797,176,164 MY,0,97704,97797,240 MX,0,97797,97891,164,92 MY,0,97797,97891,240 MX,0,97891,98079,92,144 MY,0,97891,98079,240 MX,0,98079,98172,144,200 MY,0,98079,98172,240 MX,0,98172,98266,200,260 MY,0,98172,98266,240 MX,0,98266,98360,260,322 MY,0,98266,98360,240 MX,0,98360,98454,322,385 MY,0,98360,98454,240 MX,0,98454,98547,385,445 MY,0,98454,98547,240 MX,0,98547,98642,445,502 MY,0,98547,98642,240 F,0,98642,,0 MX,0,98642,98829,502,510 MY,0,98642,98829,240 MX,0,98829,99017,510,502 MY,0,98829,99017,240 F,0,99017,,0.65 MX,0,99017,99204,502,576 MY,0,99017,99204,240 MX,0,99204,99392,576,512 MY,0,99204,99392,240 F,0,99392,,0.65 MX,0,99392,99438,512,481 MY,0,99392,99438,240 MX,0,99438,99485,481,454 MY,0,99438,99485,240 F,0,99485,,0 MX,0,99485,99579,454,334 MY,0,99485,99579,240 F,0,99579,,0.65 MX,0,99579,99626,334,302 MY,0,99579,99626,240 MX,0,99626,99673,302,276 MY,0,99626,99673,240 F,0,99673,,0.65 MX,0,99673,99767,276,168 MY,0,99673,99767,240 MX,0,99767,99954,168,92 MY,0,99767,99954,240 F,0,99954,,0 MX,0,99954,100048,92,99 MY,0,99954,100048,240 F,0,100048,,0.65 MX,0,100048,100142,99,184 MY,0,100048,100142,240 MX,0,100142,100235,184,265 MY,0,100142,100235,240 MX,0,100235,100329,265,320 MY,0,100235,100329,240 MX,0,100329,100423,320,312 MY,0,100329,100423,240 MX,0,100423,100517,312,304 MY,0,100423,100517,240 MX,0,100517,100704,304,328 MY,0,100517,100704,240 F,0,100704,,0 MX,0,100704,101079,328,297 MY,0,100704,101079,240 F,0,101079,,0.65 MX,0,101079,101173,297,304 MY,0,101079,101173,240 MX,0,101173,101267,304 MY,0,101173,101267,240 F,0,101267,,0.65 MX,0,101267,101454,304,261 MY,0,101267,101454,240 MX,0,101454,101642,261,205 MY,0,101454,101642,240 MX,0,101642,101829,205,144 MY,0,101642,101829,240 MX,0,101829,102017,144,91 MY,0,101829,102017,240 F,0,102017,,0.65 MX,0,102017,102767,91 MY,0,102017,102767,240 MX,0,102767,102860,91,93 MY,0,102767,102860,240 MX,0,102860,102954,93,96 MY,0,102860,102954,240 MX,0,102954,103048,96,99 MY,0,102954,103048,240
Sprite,Foreground,BottomCentre,"SB/g.png",320,240 F,0,78767,,0 R,0,78767,,-1.5708 C,0,78767,,135,111,223 V,0,78767,,240,0.25 P,0,78767,,A MX,0,78767,78813,276,292 MY,0,78767,78813,240 MX,0,78813,78860,292,325 MY,0,78813,78860,240 MX,0,78860,79001,325,371 MY,0,78860,79001,240 MX,0,79001,79048,371,404 MY,0,79001,79048,240 F,0,79048,,0 MX,0,79048,79142,404,540 MY,0,79048,79142,240 F,0,79142,,0 MX,0,79142,79188,540,554 MY,0,79142,79188,240 F,0,79188,,0.65 MX,0,79188,79329,554,516 MY,0,79188,79329,240 MX,0,79329,79423,516,512 MY,0,79329,79423,240 F,0,79423,,0 MX,0,79423,79517,512,526 MY,0,79423,79517,240 F,0,79517,,0.65 MX,0,79517,79610,526,488 MY,0,79517,79610,240 MX,0,79610,79704,488,496 MY,0,79610,79704,240 MX,0,79704,79892,496,264 MY,0,79704,79892,240 F,0,79892,,0.65 MX,0,79892,80079,264,117 MY,0,79892,80079,240 MX,0,80079,80173,117,188 MY,0,80079,80173,240 F,0,80173,,0 MX,0,80173,80267,188,396 MY,0,80173,80267,240 F,0,80267,,0 MX,0,80267,80454,396,483 MY,0,80267,80454,240 MX,0,80454,80548,483,462 MY,0,80454,80548,240 F,0,80548,,0 MX,0,80548,80642,462,299 MY,0,80548,80642,240 F,0,80642,,0 MX,0,80642,80829,299,332 MY,0,80642,80829,240 MX,0,80829,80923,332,303 MY,0,80829,80923,240 F,0,80923,,0 MX,0,80923,81017,303,211 MY,0,80923,81017,240 F,0,81017,,0.65 MX,0,81017,81298,211,303 MY,0,81017,81298,240 F,0,81298,,0 MX,0,81298,81392,303,452 MY,0,81298,81392,240 F,0,81392,,0 MX,0,81392,81438,452,468 MY,0,81392,81438,240 MX,0,81438,81485,468,462 MY,0,81438,81485,240 MX,0,81485,81532,462,435 MY,0,81485,81532,240 MX,0,81532,81579,435,396 MY,0,81532,81579,240 MX,0,81579,81626,396,358 MY,0,81579,81626,240 MX,0,81626,81673,358,330 MY,0,81626,81673,240 F,0,81673,,0.65 MX,0,81673,81767,330,396 MY,0,81673,81767,240 MX,0,81767,81954,396,204 MY,0,81767,81954,240 F,0,81954,,0.65 MX,0,81954,82048,204,130 MY,0,81954,82048,240 F,0,82048,,0 MX,0,82048,82142,130,92 MY,0,82048,82142,240 F,0,82142,,0.65 MX,0,82142,82235,92,165 MY,0,82142,82235,240 F,0,82235,,0.65 MX,0,82235,82329,165,236 MY,0,82235,82329,240 MX,0,82329,82517,236,136 MY,0,82329,82517,240 MX,0,82517,82610,136 MY,0,82517,82610,240 MX,0,82610,82704,136 MY,0,82610,82704,240 MX,0,82704,82892,136,404 MY,0,82704,82892,240 MX,0,82892,83079,404,168 MY,0,82892,83079,240 MX,0,83079,83173,168 MY,0,83079,83173,240 MX,0,83173,83267,168 MY,0,83173,83267,240 F,0,83267,,0.65 MX,0,83267,83313,168,189 MY,0,83267,83313,240 MX,0,83313,83454,189,92 MY,0,83313,83454,240 F,0,83454,,0 MX,0,83454,83548,92,236 MY,0,83454,83548,240 F,0,83548,,0.65 MX,0,83548,83642,236,307 MY,0,83548,83642,240 MX,0,83642,83735,307,347 MY,0,83642,83735,240 F,0,83735,,0.65 MX,0,83735,83829,347,320 MY,0,83735,83829,240 MX,0,83829,84017,320,497 MY,0,83829,84017,240 F,0,84017,,0 MX,0,84017,84204,497,509 MY,0,84017,84204,240 F,0,84204,,0 MX,0,84204,84298,509,572 MY,0,84204,84298,240 F,0,84298,,0.65 MX,0,84298,84392,572,514 MY,0,84298,84392,240 MX,0,84392,84485,514,439 MY,0,84392,84485,240 F,0,84485,,0 MX,0,84485,84579,439 MY,0,84485,84579,240 F,0,84579,,0 MX,0,84579,84673,439,453 MY,0,84579,84673,240 F,0,84673,,0.65 MX,0,84673,84767,453,376 MY,0,84673,84767,240 MX,0,84767,84860,376,328 MY,0,84767,84860,240 MX,0,84860,84954,328,296 MY,0,84860,84954,240 F,0,84954,,0 MX,0,84954,85048,296,285 MY,0,84954,85048,240 F,0,85048,,0 MX,0,85048,85142,285,176 MY,0,85048,85142,240 F,0,85142,,0.65 MX,0,85142,85235,176,109 MY,0,85142,85235,240 MX,0,85235,85329,109,65 MY,0,85235,85329,240 F,0,85329,,0 MX,0,85329,85423,65,148 MY,0,85329,85423,240 F,0,85423,,0 MX,0,85423,85470,148,138 MY,0,85423,85470,240 MX,0,85470,85610,138,123 MY,0,85470,85610,240 F,0,85610,,0 MX,0,85610,85704,123,200 MY,0,85610,85704,240 F,0,85704,,0 MX,0,85704,85798,200,209 MY,0,85704,85798,240 F,0,85798,,0 MX,0,85798,85892,209,320 MY,0,85798,85892,240 F,0,85892,,0.65 MX,0,85892,85985,320,363 MY,0,85892,85985,240 MX,0,85985,86079,363,418 MY,0,85985,86079,240 F,0,86079,,0.65 MX,0,86079,86173,418,496 MY,0,86079,86173,240 MX,0,86173,86267,496,552 MY,0,86173,86267,240 F,0,86267,,0 MX,0,86267,86313,552 MY,0,86267,86313,240 MX,0,86313,86360,552,538 MY,0,86313,86360,240 F,0,86360,,0 MX,0,86360,86454,538,472 MY,0,86360,86454,240 F,0,86454,,0 MX,0,86454,86501,472,471 MY,0,86454,86501,240 MX,0,86501,86548,471,459 MY,0,86501,86548,240 F,0,86548,,0 MX,0,86548,86642,459,348 MY,0,86548,86642,240 F,0,86642,,0.65 MX,0,86642,86923,348,256 MY,0,86642,86923,240 F,0,86923,,0 MX,0,86923,87017,256,292 MY,0,86923,87017,240 F,0,87017,,0.65 MX,0,87017,87157,292,189 MY,0,87017,87157,240 MX,0,87157,87235,189,187 MY,0,87157,87235,240 MX,0,87235,87298,187,151 MY,0,87235,87298,240 F,0,87298,,0 MX,0,87298,87392,151,120 MY,0,87298,87392,240 F,0,87392,,0 MX,0,87392,87485,120,94 MY,0,87392,87485,240 MX,0,87485,87579,94,113 MY,0,87485,87579,240 F,0,87579,,0.65 MX,0,87579,87673,113,144 MY,0,87579,87673,240 MX,0,87673,87767,144,188 MY,0,87673,87767,240 MX,0,87767,87954,188,320 MY,0,87767,87954,240 F,0,87954,,0.65 MX,0,87954,88142,320,401 MY,0,87954,88142,240 MX,0,88142,88235,401,439 MY,0,88142,88235,240 F,0,88235,,0 MX,0,88235,88329,439,488 MY,0,88235,88329,240 F,0,88329,,0 MX,0,88329,88376,488,499 MY,0,88329,88376,240 F,0,88376,,0.65 MX,0,88376,88517,499,576 MY,0,88376,88517,240 MX,0,88517,88704,576,444 MY,0,88517,88704,240 F,0,88704,,0.65 MX,0,88704,88798,444,405 MY,0,88704,88798,240 MX,0,88798,88985,405,324 MY,0,88798,88985,240 F,0,88985,,0.65 MX,0,88985,89079,324,488 MY,0,88985,89079,240 MX,0,89079,89267,488,312 MY,0,89079,89267,240 MX,0,89267,89454,312,101 MY,0,89267,89454,240 MX,0,89454,89642,101,202 MY,0,89454,89642,240 F,0,89642,,0.65 MX,0,89642,89735,202,157 MY,0,89642,89735,240 MX,0,89735,89829,157,101 MY,0,89735,89829,240 F,0,89829,,0 MX,0,89829,90017,101,200 MY,0,89829,90017,240 F,0,90017,,0.65 MX,0,90017,90157,200,226 MY,0,90017,90157,240 MX,0,90157,90298,226,256 MY,0,90157,90298,240 F,0,90298,,0 MX,0,90298,90392,256,379 MY,0,90298,90392,240 F,0,90392,,0.65 MX,0,90392,90532,379,409 MY,0,90392,90532,240 MX,0,90532,90673,409,435 MY,0,90532,90673,240 F,0,90673,,0.65 MX,0,90673,90767,435,424 MY,0,90673,90767,240 MX,0,90767,90860,424,468 MY,0,90767,90860,240 F,0,90860,,0.65 MX,0,90860,90954,468,407 MY,0,90860,90954,240 F,0,90954,,0.65 MX,0,90954,91142,407,232 MY,0,90954,91142,240 MX,0,91142,91235,232,184 MY,0,91142,91235,240 MX,0,91235,91329,184,136 MY,0,91235,91329,240 MX,0,91329,91423,136,120 MY,0,91329,91423,240 F,0,91423,,0 MX,0,91423,91517,120,134 MY,0,91423,91517,240 F,0,91517,,0.65 MX,0,91517,91610,134,104 MY,0,91517,91610,240 MX,0,91610,91704,104,108 MY,0,91610,91704,240 F,0,91704,,0 MX,0,91704,91798,108,93 MY,0,91704,91798,240 F,0,91798,,0.65 MX,0,91798,91892,93,168 MY,0,91798,91892,240 MX,0,91892,92079,168,332 MY,0,91892,92079,240 MX,0,92079,92172,332,370 MY,0,92079,92172,240 MX,0,92172,92266,370,410 MY,0,92172,92266,240 MX,0,92266,92360,410,450 MY,0,92266,92360,240 MX,0,92360,92454,450,486 MY,0,92360,92454,240 MX,0,92454,92547,486,520 MY,0,92454,92547,240 MX,0,92547,92642,520,548 MY,0,92547,92642,240 F,0,92642,,0 MX,0,92642,92923,548,511 MY,0,92642,92923,240 F,0,92923,,0 MX,0,92923,93017,511,440 MY,0,92923,93017,240 F,0,93017,,0.65 MX,0,93017,93157,440,410 MY,0,93017,93157,240 MX,0,93157,93298,410,380 MY,0,93157,93298,240 F,0,93298,,0.65 MX,0,93298,93392,380,320 MY,0,93298,93392,240 MX,0,93392,93579,320,486 MY,0,93392,93579,240 MX,0,93579,93767,486,250 MY,0,93579,93767,240 MX,0,93767,93860,250,218 MY,0,93767,93860,240 MX,0,93860,93954,218,171 MY,0,93860,93954,240 MX,0,93954,94048,171,126 MY,0,93954,94048,240 MX,0,94048,94142,126,100 MY,0,94048,94142,240 F,0,94142,,0 MX,0,94142,94235,100,107 MY,0,94142,94235,240 F,0,94235,,0 MX,0,94235,94329,107,144 MY,0,94235,94329,240 F,0,94329,,0 MX,0,94329,94423,144,150 MY,0,94329,94423,240 F,0,94423,,0.65 MX,0,94423,94517,150,272 MY,0,94423,94517,240 MX,0,94517,94610,272,320 MY,0,94517,94610,240 MX,0,94610,94704,320,368 MY,0,94610,94704,240 F,0,94704,,0 MX,0,94704,94751,368,394 MY,0,94704,94751,240 MX,0,94751,94798,394,398 MY,0,94751,94798,240 F,0,94798,,0.65 MX,0,94798,94892,398,320 MY,0,94798,94892,240 MX,0,94892,95080,320,252 MY,0,94892,95080,240 MX,0,95080,95173,252,321 MY,0,95080,95173,240 MX,0,95173,95267,321,389 MY,0,95173,95267,240 F,0,95267,,0 MX,0,95267,95360,389,432 MY,0,95267,95360,240 MX,0,95360,95454,432,415 MY,0,95360,95454,240 F,0,95454,,0 MX,0,95454,95548,415,224 MY,0,95454,95548,240 F,0,95548,,0 MX,0,95548,95642,224,205 MY,0,95548,95642,240 MX,0,95642,95735,205,252 MY,0,95642,95735,240 F,0,95735,,0.65 MX,0,95735,95829,252,316 MY,0,95735,95829,240 MX,0,95829,96017,316,560 MY,0,95829,96017,240 F,0,96017,,0.65 MX,0,96017,96204,560,521 MY,0,96017,96204,240 F,0,96204,,0 MX,0,96204,96298,521,408 MY,0,96204,96298,240 F,0,96298,,0.65 MX,0,96298,96345,408,403 MY,0,96298,96345,240 MX,0,96345,96485,403,517 MY,0,96345,96485,240 F,0,96485,,0 MX,0,96485,96579,517,560 MY,0,96485,96579,240 F,0,96579,,0 MX,0,96579,96673,560,537 MY,0,96579,96673,240 F,0,96673,,0.65 MX,0,96673,96767,537,448 MY,0,96673,96767,240 MX,0,96767,96860,448,464 MY,0,96767,96860,240 MX,0,96860,96954,464,480 MY,0,96860,96954,240 F,0,96954,,0.65 MX,0,96954,97142,480,324 MY,0,96954,97142,240 F,0,97142,,0.65 MX,0,97142,97235,324,248 MY,0,97142,97235,240 MX,0,97235,97329,248,172 MY,0,97235,97329,240 MX,0,97329,97423,172,96 MY,0,97329,97423,240 F,0,97423,,0 MX,0,97423,97517,96,72 MY,0,97423,97517,240 MX,0,97517,97610,72,91 MY,0,97517,97610,240 F,0,97610,,0.65 MX,0,97610,97704,91,176 MY,0,97610,97704,240 MX,0,97704,97797,176,164 MY,0,97704,97797,240 MX,0,97797,97891,164,92 MY,0,97797,97891,240 MX,0,97891,98079,92,144 MY,0,97891,98079,240 MX,0,98079,98172,144,200 MY,0,98079,98172,240 MX,0,98172,98266,200,260 MY,0,98172,98266,240 MX,0,98266,98360,260,322 MY,0,98266,98360,240 MX,0,98360,98454,322,385 MY,0,98360,98454,240 MX,0,98454,98547,385,445 MY,0,98454,98547,240 MX,0,98547,98642,445,502 MY,0,98547,98642,240 F,0,98642,,0 MX,0,98642,98829,502,510 MY,0,98642,98829,240 MX,0,98829,99017,510,502 MY,0,98829,99017,240 F,0,99017,,0.65 MX,0,99017,99204,502,576 MY,0,99017,99204,240 MX,0,99204,99392,576,512 MY,0,99204,99392,240 F,0,99392,,0.65 MX,0,99392,99438,512,481 MY,0,99392,99438,240 MX,0,99438,99485,481,454 MY,0,99438,99485,240 F,0,99485,,0 MX,0,99485,99579,454,334 MY,0,99485,99579,240 F,0,99579,,0.65 MX,0,99579,99626,334,302 MY,0,99579,99626,240 MX,0,99626,99673,302,276 MY,0,99626,99673,240 F,0,99673,,0.65 MX,0,99673,99767,276,168 MY,0,99673,99767,240 MX,0,99767,99954,168,92 MY,0,99767,99954,240 F,0,99954,,0 MX,0,99954,100048,92,99 MY,0,99954,100048,240 F,0,100048,,0.65 MX,0,100048,100142,99,184 MY,0,100048,100142,240 MX,0,100142,100235,184,265 MY,0,100142,100235,240 MX,0,100235,100329,265,320 MY,0,100235,100329,240 MX,0,100329,100423,320,312 MY,0,100329,100423,240 MX,0,100423,100517,312,304 MY,0,100423,100517,240 MX,0,100517,100704,304,328 MY,0,100517,100704,240 F,0,100704,,0 MX,0,100704,101079,328,297 MY,0,100704,101079,240 F,0,101079,,0.65 MX,0,101079,101173,297,304 MY,0,101079,101173,240 MX,0,101173,101267,304 MY,0,101173,101267,240 F,0,101267,,0.65 MX,0,101267,101454,304,261 MY,0,101267,101454,240 MX,0,101454,101642,261,205 MY,0,101454,101642,240 MX,0,101642,101829,205,144 MY,0,101642,101829,240 MX,0,101829,102017,144,91 MY,0,101829,102017,240 F,0,102017,,0.65 MX,0,102017,102767,91 MY,0,102017,102767,240 MX,0,102767,102860,91,93 MY,0,102767,102860,240 MX,0,102860,102954,93,96 MY,0,102860,102954,240 MX,0,102954,103048,96,99 MY,0,102954,103048,240
//Storyboard Sound Samples

[TimingPoints]
1517,375,4,2,66,75,1,0
1517,-200,4,2,66,75,0,0
18017,-200,4,2,66,75,0,0
19517,-111.111111111111,4,2,66,75,0,0
21767,-66.6666666666667,4,2,66,75,0,0
22142,-111.111111111111,4,2,66,75,0,0
32642,-111.111111111111,4,2,66,75,0,0
33017,-111.111111111111,4,2,66,75,0,0
36767,-111.111111111111,4,2,55,75,0,0
36813,-111.111111111111,4,2,66,5,0,0
36860,-111.111111111111,4,2,66,75,0,0
37892,-83.3333333333333,4,2,66,75,0,0
39017,-100,4,2,66,75,0,0
40517,-66.6666666666667,4,2,66,75,0,0
41642,-111.111111111111,4,2,66,75,0,0
43517,-100,4,2,66,75,0,0
51392,-66.6666666666667,4,2,66,75,0,0
52142,-100,4,2,66,75,0,0
52517,-100,4,2,66,75,0,0
63392,-66.6666666666667,4,2,66,75,0,0
66017,-100,4,2,66,75,0,0
75017,-200,4,2,66,75,0,0
103517,-100,4,2,66,75,0,0
117017,-166.666666666667,4,2,66,100,0,0

[Colours]
Combo1 : 255,72,72
Combo2 : 0,179,89
Combo3 : 212,212,212
Combo4 : 108,182,255
Combo5 : 197,146,231
Combo6 : 121,255,121

[HitObjects]
212,192,1517,38,0,B|116:160|92:52|92:52|-16:44|-16:44|4:60|4:60|28:124|28:124|16:152|16:152|40:192|40:192|8:252|44:296,1,573.999966621399,2|0,0:3|0:0,0:0:0:0:
300,192,4517,2,0,B|396:160|420:52|420:52|528:44|528:44|508:60|508:60|484:124|484:124|496:152|496:152|472:192|472:192|504:252|468:296,1,573.999966621399,2|0,0:3|0:0,0:0:0:0:
210,113,7517,6,0,P|10:155|212:192,1,573.999966621399,2|0,0:3|0:0,0:0:0:0:
301,113,10517,2,0,P|501:155|300:192,1,573.999966621399,2|0,0:3|0:0,0:0:0:0:
256,40,13517,69,2,0:0:0:0:
256,192,13610,12,0,18017,0:0:0:0:
40,344,19517,6,0,P|100:352|148:296,1,110.699990184403,4|0,1:0|0:0,0:0:0:0:
140,308,19892,2,0,L|116:180,1,110.699990184403,2|0,0:0|0:0,0:0:0:0:
144,96,20267,2,0,B|256:56|256:136|360:100,1,221.399980368806,8|2,1:3|0:0,0:0:0:0:
359,100,21017,70,0,P|449:93|392:23,1,221.399980368806,4|2,3:0|0:0,0:0:0:0:
392,22,21642,2,0,L|368:4,1,24.5999978187562,0|0,0:0|0:0,0:0:0:0:
392,22,21767,6,0,B|408:176,1,122.99999753952,8|0,1:3|0:0,0:0:0:0:
256,340,22142,1,4,1:2:0:0:
168,296,22329,1,0,0:0:0:0:
160,300,22423,1,0,0:0:0:0:
152,304,22517,6,0,L|60:292,1,73.7999934562686
24,232,22798,1,0,0:0:0:0:
6,199,22891,1,0,0:0:0:0:
6,163,22985,1,0,0:0:0:0:
23,131,23079,1,0,0:0:0:0:
53,110,23173,1,0,0:0:0:0:
90,107,23267,5,0,0:0:0:0:
109,129,23360,1,0,0:0:0:0:
134,144,23454,1,0,0:0:0:0:
163,151,23548,1,0,0:0:0:0:
192,148,23642,1,0,0:0:0:0:
219,135,23735,1,0,0:0:0:0:
240,116,23829,1,0,0:0:0:0:
254,90,23923,1,0,0:0:0:0:
256,64,24017,5,0,0:0:0:0:
306,58,24110,1,0,0:0:0:0:
358,53,24204,1,0,0:0:0:0:
409,47,24298,1,0,0:0:0:0:
461,41,24392,5,0,0:0:0:0:
482,43,24486,5,0,0:0:0:0:
486,63,24580,5,0,0:0:0:0:
467,72,24673,5,0,0:0:0:0:
455,60,24767,6,0,P|475:99|468:124,1,73.7999934562686
185,347,25142,2,0,P|171:303|183:280,1,73.7999934562686
184,280,25517,70,0,P|140:280|100:296,1,73.7999934562686,4|0,1:0|0:0,0:0:0:0:
96,300,25798,1,0,0:0:0:0:
84,312,25892,2,0,L|100:216,1,73.7999934562686,2|2,0:0|0:0,0:0:0:0:
384,88,26267,38,0,P|312:96|264:44,1,147.599986912537,8|2,1:3|0:0,0:0:0:0:
164,12,26829,1,2,0:0:0:0:
76,112,27017,2,0,L|-12:100,1,73.7999934562686,4|0,3:0|0:0,0:0:0:0:
144,192,27392,2,0,L|232:180,1,73.7999934562686,2|2,0:0|0:0,0:0:0:0:
332,232,27767,5,0,1:3:0:0:
168,356,27954,1,4,0:0:0:0:
308,316,28142,5,4,0:0:0:0:
144,192,28329,1,0,1:3:0:0:
352,56,28517,69,4,1:0:0:0:
404,286,28704,1,0,0:0:0:0:
393,300,28797,1,0,0:0:0:0:
379,312,28891,1,0,0:0:0:0:
362,320,28985,1,0,0:0:0:0:
344,323,29079,1,0,0:0:0:0:
326,322,29172,1,0,0:0:0:0:
308,316,29267,6,0,P|324:284|320:248,1,73.7999934562686
249,270,29548,1,0,0:0:0:0:
231,269,29641,1,0,0:0:0:0:
213,272,29735,1,0,0:0:0:0:
196,280,29829,1,0,0:0:0:0:
182,292,29923,1,0,0:0:0:0:
240,344,30017,5,4,1:0:0:0:
256,192,30110,12,2,32642,0:0:0:0:
48,320,33017,38,0,P|84:340|140:332,1,73.7999934562686,4|0,0:0|0:0,0:0:0:0:
196,264,33392,2,0,L|186:183,1,73.7999934562686
172,60,33767,53,2,0:0:0:0:
276,100,33954,1,0,0:0:0:0:
368,40,34142,1,2,0:0:0:0:
440,124,34329,1,2,0:0:0:0:
256,256,34517,38,0,L|164:244,1,73.7999934562686,2|0,0:0|0:0,0:0:0:0:
344,320,34892,2,0,L|436:308,1,73.7999934562686,2|0,0:0|0:0,0:0:0:0:
248,364,35267,21,2,0:0:0:0:
360,216,35454,1,2,0:0:0:0:
212,104,35642,1,2,0:0:0:0:
100,252,35829,1,2,0:0:0:0:
272,152,36017,86,0,P|287:118|286:82,1,73.7999934562686,2|0,0:0|0:0,0:0:0:0:
179,241,36392,2,0,P|167:207|141:182,1,73.7999934562686,2|0,0:0|0:0,0:0:0:0:
356,344,36767,70,0,L|379:339,1,18.4499983640671,2|0,0:0|0:0,0:0:0:0:
104,248,37142,69,2,0:0:0:0:
256,124,37329,1,2,0:0:0:0:
356,344,37517,2,0,P|362:280|383:234,1,110.699990184403
381,238,37892,2,0,L|372:128,1,98.3999912750248
371,128,38142,1,0,0:0:0:0:
370,116,38204,1,0,0:0:0:0:
369,104,38267,1,0,0:0:0:0:
72,40,38642,1,2,0:3:0:0:
256,311,39017,22,0,P|225:330|189:330,1,73.7999934562686,4|0,0:3|0:0,0:0:0:0:
92,356,39392,2,0,P|62:335|25:336,1,73.7999934562686
208,264,39767,53,0,1:0:0:0:
172,52,39954,1,0,0:0:0:0:
323,179,40142,1,4,0:3:0:0:
504,104,40329,1,0,0:0:0:0:
440,348,40517,6,0,P|392:280|320:332,1,184.49999630928,4|0,0:3|0:0,0:0:0:0:
321,325,40892,6,0,B|184:336|184:336|248:304,1,184.49999630928,6|0,0:0|0:0,0:0:0:0:
225,315,41267,70,0,B|216:260|261:232|261:232|240:232|240:232|258:200|236:160,1,184.49999630928,0|0,1:0|0:0,0:0:0:0:
177,201,41642,69,0,0:0:0:0:
392,180,41829,1,2,0:0:0:0:
177,201,42017,37,4,0:3:0:0:
72,344,42204,1,0,0:0:0:0:
68,156,42392,21,6,0:0:0:0:
208,316,42579,1,0,0:0:0:0:
344,200,42767,85,0,1:0:0:0:
440,344,42954,1,2,0:0:0:0:
304,316,43142,53,4,0:3:0:0:
304,316,43329,1,0,0:0:0:0:
496,192,43517,38,0,P|496:128|432:48,1,163.999990463257,4|2,1:0|0:0,0:0:0:0:
256,160,44079,1,2,0:0:0:0:
184,83,44267,2,0,P|255:47|325:85,1,163.999990463257,8|2,1:3|0:0,0:0:0:0:
256,160,44829,1,2,0:0:0:0:
74,50,45017,2,0,P|21:111|16:192,1,163.999990463257,6|2,3:0|0:0,0:0:0:0:
72,288,45579,1,2,0:0:0:0:
256,352,45767,6,0,L|356:344,1,81.9999952316285,8|0,1:3|0:0,0:0:0:0:
484,272,46142,2,0,L|384:264,1,81.9999952316285,2|2,0:0|0:0,0:0:0:0:
312,192,46517,69,6,3:0:0:0:
200,192,46704,1,0,0:0:0:0:
404,104,46892,21,2,0:0:0:0:
108,280,47079,1,2,0:0:0:0:
256,248,47267,53,8,1:3:0:0:
256,136,47454,1,0,0:0:0:0:
344,340,47642,21,2,0:0:0:0:
168,44,47829,1,2,0:0:0:0:
408,192,48016,53,6,3:0:0:0:
200,192,48204,1,0,0:0:0:0:
200,192,48298,1,0,0:0:0:0:
200,192,48392,1,0,0:0:0:0:
200,192,48485,1,0,0:0:0:0:
200,192,48579,1,0,0:0:0:0:
85,149,48767,6,0,L|33:169,1,40.9999976158143,2|2,0:1|0:1,0:0:0:0:
85,149,48954,1,2,0:0:0:0:
82,104,49047,1,2,0:1:0:0:
100,63,49141,1,2,0:1:0:0:
134,34,49235,1,0,0:0:0:0:
177,23,49329,1,2,0:0:0:0:
221,33,49422,1,2,0:0:0:0:
254,62,49517,70,0,P|362:30|428:144,1,245.999985694886,6|2,3:3|0:0,0:0:0:0:
356,348,50267,2,0,B|320:256|368:280|336:188,1,163.999990463257,8|2,1:3|0:0,0:0:0:0:
256,64,50829,1,2,0:0:0:0:
175,190,51017,22,0,B|146:247|196:247|158:307,1,122.999992847443,6|0,3:0|0:0,0:0:0:0:
157,307,51392,54,0,B|34:334|34:334|88:299,1,184.49999630928,2|0,0:0|0:0,0:0:0:0:
175,190,51767,22,0,B|297:217|297:217|243:182,1,184.49999630928,8|0,1:3|0:0,0:0:0:0:
80,120,52142,54,0,P|39:152|40:204,1,81.9999952316285,2|2,0:0|0:0,0:0:0:0:
256,360,52517,22,0,L|392:344,1,122.999992847443,6|0,3:0|0:0,0:0:0:0:
321,275,52892,54,0,L|444:260,1,122.999992847443,2|0,0:0|0:0,0:0:0:0:
216,232,53267,22,0,P|185:181|196:112,1,122.999992847443,10|0,1:3|0:0,0:0:0:0:
316,32,53642,2,0,P|346:82|336:152,1,122.999992847443,2|0,0:0|0:0,0:0:0:0:
144,284,54017,53,6,1:0:0:0:
144,284,54392,21,10,1:0:0:0:
72,188,54579,1,10,1:0:0:0:
140,44,54767,1,10,1:3:0:0:
72,188,54954,1,10,1:0:0:0:
72,188,55048,1,2,1:3:0:0:
72,188,55142,1,10,1:0:0:0:
140,44,55329,1,4,0:0:0:0:
440,188,55517,6,0,P|468:228|336:240,1,245.999985694886,4|2,1:2|0:0,0:0:0:0:
314,150,56267,2,0,P|334:105|411:214,1,245.999985694886,8|2,1:3|0:0,0:0:0:0:
342,273,57017,2,0,P|290:279|316:150,1,245.999985694886,6|2,3:0|0:0,0:0:0:0:
440,192,57767,1,8,1:3:0:0:
320,48,57954,1,0,0:0:0:0:
484,84,58142,2,0,L|396:92,1,81.9999952316285,2|2,0:3|0:0,0:0:0:0:
96,112,58517,70,0,L|184:120,1,81.9999952316285,6|2,3:0|0:0,0:0:0:0:
176,352,58892,2,0,L|184:264,1,81.9999952316285,2|2,3:0|0:0,0:0:0:0:
416,272,59267,2,0,L|334:264,1,81.9999952316285,6|2,3:0|0:0,0:0:0:0:
336,32,59642,2,0,L|328:113,1,81.9999952316285,2|2,3:0|0:0,0:0:0:0:
180,268,60017,2,0,L|98:260,1,81.9999952316285,6|2,3:0|0:0,0:0:0:0:
98,260,60298,1,4,0:3:0:0:
98,260,60391,1,0,0:0:0:0:
98,260,60485,1,0,0:0:0:0:
98,260,60579,1,6,3:0:0:0:
256,44,60767,69,8,1:3:0:0:
295,35,60860,1,0,0:0:0:0:
336,37,60954,1,2,0:1:0:0:
375,50,61048,1,2,0:1:0:0:
409,73,61141,1,4,0:2:0:0:
359,106,61235,1,0,0:0:0:0:
303,125,61329,1,2,0:0:0:0:
244,127,61423,1,2,0:0:0:0:
187,116,61516,5,6,1:3:0:0:
48,192,61704,1,0,0:0:0:0:
256,216,61892,1,0,0:0:0:0:
208,364,62079,1,4,0:3:0:0:
476,292,62267,69,8,1:3:0:0:
376,256,62454,1,4,0:3:0:0:
272,280,62642,1,2,0:0:0:0:
208,364,62829,1,4,0:3:0:0:
92,308,63017,2,0,P|52:324|10:316,1,81.9999952316285,6|0,1:3|0:0,0:0:0:0:
116,50,63392,22,0,P|192:34|172:122,1,184.49999630928,2|0,0:0|0:0,0:0:0:0:
186,115,63767,2,0,B|256:52|256:52|319:115,1,184.49999630928,8|0,1:3|0:0,0:0:0:0:
319,115,64142,2,0,P|311:35|389:49,1,184.49999630928,2|2,0:3|0:0,0:0:0:0:
440,144,64517,53,6,1:3:0:0:
368,352,64704,1,0,0:0:0:0:
192,296,64892,21,2,0:0:0:0:
356,232,65079,1,2,0:0:0:0:
244,116,65267,53,8,1:3:0:0:
136,96,65454,5,0,0:0:0:0:
33,136,65642,69,4,1:2:0:0:
0,212,65829,5,2,0:0:0:0:
244,116,66017,6,0,L|258:196,1,81.9999952316285,4|2,1:2|0:0,0:0:0:0:
206,376,66392,2,0,L|191:295,1,81.9999952316285,6|2,1:0|0:0,0:0:0:0:
372,276,66767,69,2,1:0:0:0:
440,180,66954,1,2,0:0:0:0:
372,276,67142,1,4,1:3:0:0:
488,104,67329,1,2,0:0:0:0:
296,28,67517,6,0,L|212:32,1,81.9999952316285,4|2,1:3|0:0,0:0:0:0:
44,112,67892,2,0,L|125:115,1,81.9999952316285,2|2,1:0|0:1,0:0:0:0:
176,280,68267,2,0,P|159:316|124:336,1,81.9999952316285,4|2,1:2|0:0,0:0:0:0:
388,336,68642,2,0,P|353:316|336:280,1,81.9999952316285,4|2,1:3|0:0,0:0:0:0:
352,152,69017,69,4,1:2:0:0:
148,192,69204,1,4,3:0:0:0:
364,192,69392,1,2,1:3:0:0:
48,248,69579,1,4,3:0:0:0:
436,264,69767,5,4,1:2:0:0:
332,112,69954,1,4,3:0:0:0:
363,340,70142,1,2,1:3:0:0:
296,88,70329,1,4,3:0:0:0:
204,297,70517,69,6,1:2:0:0:
187,315,70610,1,0,1:0:0:0:
167,328,70704,1,4,1:3:0:0:
143,335,70798,1,0,1:0:0:0:
119,335,70892,1,8,1:3:0:0:
95,327,70985,1,0,1:0:0:0:
75,314,71079,1,4,1:3:0:0:
60,295,71173,1,0,1:0:0:0:
50,272,71267,1,0,1:0:0:0:
48,248,71360,1,0,1:0:0:0:
52,224,71454,1,12,1:3:0:0:
64,202,71548,1,0,1:0:0:0:
83,183,71642,38,0,L|127:163,1,40.9999976158143,8|0,1:0|0:0,0:0:0:0:
256,32,72017,38,0,P|300:128|424:96,1,245.999985694886,4|2,1:0|0:0,0:0:0:0:
419,103,72767,2,0,L|396:196,1,81.9999952316285,8|2,1:3|0:0,0:0:0:0:
492,348,73142,2,0,L|472:268,1,81.9999952316285,2|2,0:0|0:0,0:0:0:0:
472,268,73517,6,0,P|428:316|372:308,1,122.999992847443,4|0,1:0|0:0,0:0:0:0:
256,323,73892,2,0,L|236:200,1,122.999992847443,2|0,0:0|0:0,0:0:0:0:
220,80,74267,2,0,L|200:201,1,122.999992847443,8|0,1:3|0:0,0:0:0:0:
112,278,74642,2,0,P|63:244|4:252,1,122.999992847443,4|0,0:0|0:0,0:0:0:0:
153,188,75017,38,0,B|160:136|212:116|212:116|204:64|204:64|252:64|276:32|276:32|304:60|304:60|288:128|348:176|348:176|344:220|300:244|300:244|344:296|308:360,1,614.999964237214,4|0,1:0|0:0,0:0:0:0:
256,372,103517,6,0,P|304:376|360:304,1,122.999992847443,4|0,1:2|0:0,0:0:0:0:
436,340,103892,2,0,P|389:326|490:302,1,327.999980926514,2|2,0:0|0:0,0:0:0:0:
495,284,105017,6,0,B|460:124|460:124|476:44,1,245.999985694886,4|0,1:2|0:0,0:0:0:0:
476,43,105673,1,0,0:0:0:0:
476,43,105767,2,0,B|400:80|400:8|316:44,1,163.999990463257,4|2,1:2|0:0,0:0:0:0:
36,341,106517,70,0,B|112:304|112:376|196:340,1,163.999990463257,4|2,1:2|0:0,0:0:0:0:
323,319,107267,2,0,B|287:227|287:227|191:343,1,245.999985694886
193,340,108017,2,0,P|132:300|156:224,1,163.999990463257
72,100,108579,5,0,0:0:0:0:
144,132,108767,69,0,0:0:0:0:
248,140,108954,5,0,0:0:0:0:
352,104,109142,69,0,0:0:0:0:
440,0,109329,5,0,0:0:0:0:
373,178,109517,70,0,P|349:130|359:84,1,81.9999952316285
472,144,109892,2,0,P|496:192|486:238,1,81.9999952316285
493,218,110173,1,0,0:0:0:0:
493,218,110267,5,0,0:0:0:0:
373,178,110454,1,0,0:0:0:0:
256,256,110642,1,0,0:0:0:0:
135,215,110829,1,0,0:0:0:0:
40,344,111017,70,0,L|136:332,1,81.9999952316285
53,225,111392,2,0,L|149:213,1,81.9999952316285
337,266,111767,6,0,L|241:254,1,81.9999952316285
324,147,112142,2,0,L|228:135,1,81.9999952316285
324,147,112517,70,0,P|296:72|400:108,1,245.999985694886
400,103,113173,1,0,0:0:0:0:
400,103,113267,1,0,0:0:0:0:
200,264,113642,1,0,0:0:0:0:
304,248,113829,1,0,0:0:0:0:
164,336,114017,6,0,P|120:268|124:240,1,81.9999952316285
112,100,114392,2,0,P|180:56|208:60,1,81.9999952316285,0|0,3:0|3:0,3:0:0:0:
348,48,114767,2,0,P|392:116|388:144,1,81.9999952316285
400,284,115142,69,0,0:0:0:0:
388,300,115235,1,0,0:0:0:0:
373,314,115329,1,0,0:0:0:0:
354,323,115423,1,0,0:0:0:0:
336,328,115517,6,0,L|476:312,1,122.999992847443
476,304,115892,2,0,L|464:356,1,40.9999976158143
432,192,116079,2,0,L|420:244,1,40.9999976158143
492,124,116267,69,0,0:0:0:0:
376,68,116454,1,0,0:0:0:0:
256,172,116642,1,0,0:0:0:0:
256,172,117017,6,0,P|184:188|208:124,1,172.199984731293
206,124,117767,2,0,L|160:304,1,172.199984731293
96,336,118517,53,0,0:0:0:0:
256,308,118704,1,0,0:0:0:0:
96,336,118892,5,0,0:0:0:0:
256,308,119079,1,0,0:0:0:0:
96,332,119267,69,0,0:0:0:0:
48,256,119454,1,0,0:0:0:0:
80,176,119642,1,0,0:0:0:0:
160,152,119829,1,0,0:0:0:0:
457,260,120017,5,0,0:0:0:0:
415,340,120204,1,0,0:0:0:0:
330,352,120392,1,0,0:0:0:0:
269,295,120579,1,0,0:0:0:0:
457,260,120767,70,0,L|465:200,1,49.1999956375124
269,295,121142,2,0,L|277:235,1,49.1999956375124
292,72,121517,6,0,B|285:105|285:105|209:85|209:85|192:105|156:108,1,172.199984731293
156,40,122267,38,0,P|224:104|88:88,1,344.399969462587
155,109,123767,21,0,0:0:0:0:
173,293,123954,1,0,0:0:0:0:
357,275,124142,1,0,0:0:0:0:
339,91,124329,1,0,0:0:0:0:
475,292,124517,5,0,0:0:0:0:
466,309,124610,1,0,0:0:0:0:
455,326,124704,1,0,0:0:0:0:
442,340,124798,1,0,0:0:0:0:
427,353,124892,1,0,0:0:0:0:
411,364,124985,1,0,0:0:0:0:
393,372,125079,1,0,0:0:0:0:
374,378,125173,1,0,0:0:0:0:
355,382,125267,1,0,0:0:0:0:
335,383,125360,1,0,0:0:0:0:
316,381,125454,1,0,0:0:0:0:
296,376,125548,1,0,0:0:0:0:
278,369,125642,1,0,0:0:0:0:
261,360,125735,1,0,0:0:0:0:
245,348,125829,1,0,0:0:0:0:
231,334,125923,1,0,0:0:0:0:
220,320,126017,5,0,0:0:0:0:
200,315,126110,1,0,0:0:0:0:
182,307,126204,1,0,0:0:0:0:
165,298,126298,1,0,0:0:0:0:
149,285,126392,1,0,0:0:0:0:
135,271,126485,1,0,0:0:0:0:
124,255,126579,1,0,0:0:0:0:
115,237,126673,1,0,0:0:0:0:
108,219,126767,1,0,0:0:0:0:
103,200,126860,1,0,0:0:0:0:
101,181,126954,1,0,0:0:0:0:
102,161,127048,1,0,0:0:0:0:
105,141,127142,1,0,0:0:0:0:
111,123,127235,1,0,0:0:0:0:
120,105,127329,1,0,0:0:0:0:
130,89,127423,1,0,0:0:0:0:
144,78,127517,37,4,0:0:0:0:
256,192,128267,12,0,130517,0:0:0:0:
