osu file format v14

[General]
AudioFilename: bgm_mz_2_03.mp3
AudioLeadIn: 0
PreviewTime: 137381
Countdown: 0
SampleSet: Soft
StackLeniency: 0.8
Mode: 0
LetterboxInBreaks: 0
WidescreenStoryboard: 1

[Editor]
Bookmarks: 370,11798,23227,34655,46084,57512,68941,80370,91798,103227,114655,126084,137512,148941,160370,171798,182512
DistanceSpacing: 1.6
BeatDivisor: 12
GridSize: 4
TimelineZoom: 2.2

[Metadata]
Title:Tasogare ni Shitataru Chi wa Mitsu no Aji
TitleUnicode:黄昏に滴る血は蜜の味
Artist:M.Zakky
ArtistUnicode:M.Zakky
Creator:Okoratu
Version:Hard
Source:彼岸花の咲く夜に 第二夜
Tags:常夜満たすは妖艶の花 ~彼岸花の咲く夜に Original Soundtracks~ I.L.U Studio pre-holder Higanbana no Saku Yoru ni Dai Ni Yoru 07th Expansion sound visual novel bgm Blood Spilled at Dusk Tastes Like Honey The unforgiving flowers blossom in the dead of night 2nd second Feerum Feru -Kamikaze- Krfawy
BeatmapID:735927
BeatmapSetID:329538

[Difficulty]
HPDrainRate:6
CircleSize:4
OverallDifficulty:6
ApproachRate:7.3
SliderMultiplier:1.8
SliderTickRate:1

[Events]
//Background and Video events
0,0,"bamboo.jpg",0,0
//Break Periods
//Storyboard Layer 0 (Background)
//Storyboard Layer 1 (Fail)
//Storyboard Layer 2 (Pass)
//Storyboard Layer 3 (Foreground)
//Storyboard Sound Samples

[TimingPoints]
356,714.285714285714,4,2,1,100,1,0
68927,-125,4,2,1,100,0,0
91784,-100,4,2,1,100,0,0
160355,-125,4,2,1,100,0,0

[Colours]
Combo1 : 192,130,255
Combo2 : 97,104,241
Combo3 : 81,159,255
Combo4 : 128,0,255

[HitObjects]
139,119,236,5,2,0:0:0:0:
139,119,356,2,0,P|162:107|236:107,1,90,2|0,0:0|0:0,0:0:0:0:
286,140,891,1,0,0:0:0:0:
280,211,1070,2,0,P|277:241|282:308,1,90,2|0,0:0|0:0,0:0:0:0:
416,253,1784,2,0,P|419:223|414:156,1,90,2|0,0:0|0:0,0:0:0:0:
308,68,2498,2,0,L|211:73,1,90,2|0,0:0|0:0,0:0:0:0:
91,142,3213,6,0,P|88:179|96:234,1,90,2|0,0:0|0:0,0:0:0:0:
148,278,3748,1,0,0:0:0:0:
188,218,3927,1,2,0:0:0:0:
74,306,4284,1,0,0:0:0:0:
217,321,4641,1,2,0:0:0:0:
304,206,4998,1,0,0:0:0:0:
251,71,5355,2,0,P|218:58|135:126,1,150,2|2,0:0|0:0,0:0:0:0:
139,124,6070,6,0,P|141:169|137:215,1,90,2|0,0:0|0:0,0:0:0:0:
126,284,6605,1,0,0:0:0:0:
194,261,6784,2,0,P|227:252|288:263,1,90,2|0,0:0|0:0,0:0:0:0:
411,322,7498,2,0,P|411:283|420:225,1,90,2|0,0:0|0:0,0:0:0:0:
499,113,8213,2,0,P|498:82|463:32,1,90,2|0,0:0|0:0,0:0:0:0:
322,28,8927,5,2,0:0:0:0:
341,170,9284,1,0,0:0:0:0:
221,89,9641,1,2,0:0:0:0:
373,91,9998,1,0,0:0:0:0:
249,180,10355,1,2,0:0:0:0:
301,26,10713,1,0,0:0:0:0:
346,181,11070,2,0,P|353:226|348:277,1,90,2|0,0:0|0:0,0:0:0:0:
265,317,11665,5,2,0:0:0:0:
265,317,11784,2,0,P|230:308|171:312,1,90,2|0,0:0|0:0,0:0:0:0:
109,336,12320,1,0,0:0:0:0:
71,274,12498,2,0,P|60:231|66:174,1,90,2|0,0:0|0:0,0:0:0:0:
137,62,13213,2,0,L|237:54,1,90,2|0,0:0|0:0,0:0:0:0:
342,140,13927,2,0,L|436:151,1,90,2|0,0:0|0:0,0:0:0:0:
321,57,14641,6,0,P|288:71|257:124,1,90,2|0,0:0|0:0,0:0:0:0:
267,186,15177,1,0,0:0:0:0:
303,247,15355,2,0,P|314:289|301:336,1,90,2|0,0:0|0:0,0:0:0:0:
158,346,16070,1,2,0:0:0:0:
98,215,16427,1,0,0:0:0:0:
244,231,16784,2,0,P|246:185|176:104,1,150,2|2,0:0|0:0,0:0:0:0:
188,111,17498,6,0,P|149:117|85:109,1,90,2|0,0:0|0:0,0:0:0:0:
42,62,18034,1,0,0:0:0:0:
96,14,18213,2,0,P|140:9|184:16,1,90,2|0,0:0|0:0,0:0:0:0:
295,108,18927,2,0,L|291:207,1,90,2|0,0:0|0:0,0:0:0:0:
206,314,19641,1,2,0:0:0:0:
180,172,19998,1,0,0:0:0:0:
274,280,20355,6,0,P|320:274|359:157,1,180,2|0,0:0|0:0,0:0:0:0:
315,44,21427,1,0,0:0:0:0:
194,7,21784,2,0,B|166:87|215:83|191:189,1,180,2|0,0:0|0:0,0:0:0:0:
126,291,22855,1,0,0:0:0:0:
54,225,23094,5,2,0:0:0:0:
54,225,23213,2,0,P|42:197|45:129,1,90,2|0,0:0|0:0,0:0:0:0:
87,82,23748,1,0,0:0:0:0:
158,94,23927,2,0,P|198:96|252:78,1,90,2|0,0:0|0:0,0:0:0:0:
380,32,24641,2,0,P|417:25|474:34,1,90,2|0,0:0|0:0,0:0:0:0:
478,175,25355,2,0,P|468:217|469:272,1,90,2|0,0:0|0:0,0:0:0:0:
349,345,26070,6,0,P|351:320|340:257,1,90,2|0,0:0|0:0,0:0:0:0:
282,213,26605,1,0,0:0:0:0:
256,280,26784,1,2,0:0:0:0:
364,185,27141,1,0,0:0:0:0:
260,284,27498,1,2,0:0:0:0:
368,189,27855,1,0,0:0:0:0:
232,139,28213,2,0,P|190:145|146:239,1,150,2|2,0:0|0:0,0:0:0:0:
164,276,28927,6,0,P|176:310|165:370,1,90,2|0,0:0|0:0,0:0:0:0:
99,381,29463,1,0,0:0:0:0:
29,363,29641,2,0,P|20:319|33:276,1,90,2|0,0:0|0:0,0:0:0:0:
113,156,30355,2,0,P|120:115|114:56,1,90,2|0,0:0|0:0,0:0:0:0:
247,5,31070,2,0,P|242:47|253:104,1,90,2|0,0:0|0:0,0:0:0:0:
286,233,31784,5,2,0:0:0:0:
320,93,32141,1,0,0:0:0:0:
359,231,32498,1,2,0:0:0:0:
393,82,32855,1,0,0:0:0:0:
432,230,33213,1,2,0:0:0:0:
465,71,33570,1,0,0:0:0:0:
503,228,33927,2,0,P|508:270|492:319,1,90,2|0,0:0|0:0,0:0:0:0:
401,339,34522,5,2,0:0:0:0:
401,339,34641,2,0,P|358:323|309:330,1,90,2|0,0:0|0:0,0:0:0:0:
247,353,35177,1,0,0:0:0:0:
176,367,35355,2,0,P|135:371|80:356,1,90,2|0,0:0|0:0,0:0:0:0:
41,222,36070,2,0,P|58:164|56:126,1,90,2|0,0:0|0:0,0:0:0:0:
146,22,36784,2,0,P|190:18|234:29,1,90,2|0,0:0|0:0,0:0:0:0:
314,148,37498,6,0,L|306:248,1,90,2|0,0:0|0:0,0:0:0:0:
273,301,38034,1,0,0:0:0:0:
235,239,38213,1,2,0:0:0:0:
362,305,38570,1,0,0:0:0:0:
420,173,38927,1,2,0:0:0:0:
293,107,39284,1,0,0:0:0:0:
235,239,39641,2,0,P|179:263|90:228,1,150,2|2,0:0|0:0,0:0:0:0:
71,195,40355,6,0,P|75:146|71:104,1,90,2|0,0:0|0:0,0:0:0:0:
59,34,40891,1,0,0:0:0:0:
129,20,41070,2,0,P|157:17|215:38,1,90,2|0,0:0|0:0,0:0:0:0:
316,139,41784,1,2,0:0:0:0:
452,92,42141,1,0,0:0:0:0:
311,60,42498,2,0,P|276:64|239:106,1,90,2|0,0:0|0:0,0:0:0:0:
131,197,43213,6,0,P|89:203|108:105,1,180,2|0,0:0|0:0,0:0:0:0:
220,131,44284,1,0,0:0:0:0:
332,187,44641,2,0,P|374:193|355:95,1,180,2|0,0:0|0:0,0:0:0:0:
248,47,45713,1,0,0:0:0:0:
220,131,45951,5,2,0:0:0:0:
220,131,46070,2,0,L|222:182,1,45,2|0,0:0|0:0,0:0:0:0:
177,232,46427,2,0,L|179:283,1,45,0|0,0:0|0:0,0:0:0:0:
113,308,46784,2,0,P|87:286|78:224,1,90,0|0,0:0|0:0,0:0:0:0:
115,94,47498,1,2,0:0:0:0:
237,170,47855,1,0,0:0:0:0:
283,98,48033,1,0,0:0:0:0:
304,92,48122,1,0,0:0:0:0:
326,97,48213,2,0,P|344:129|345:189,1,90,0|0,0:0|0:0,0:0:0:0:
268,313,48927,6,0,P|251:310|214:313,1,45,2|0,0:0|0:0,0:0:0:0:
152,324,49284,1,0,0:0:0:0:
87,350,49463,1,0,0:0:0:0:
35,300,49641,2,0,P|27:259|37:204,1,90,2|0,0:0|0:0,0:0:0:0:
88,78,50355,1,2,0:0:0:0:
225,122,50713,1,0,0:0:0:0:
259,44,50891,1,0,0:0:0:0:
277,31,50980,1,0,0:0:0:0:
299,25,51070,2,0,P|336:34|389:27,1,90,2|0,0:0|0:0,0:0:0:0:
465,148,51784,6,0,L|468:196,1,45,2|0,0:0|0:0,0:0:0:0:
414,286,52141,2,0,L|414:241,1,45,0|0,0:0|0:0,0:0:0:0:
487,281,52498,2,0,P|490:308|469:373,1,90,2|0,0:0|0:0,0:0:0:0:
364,373,53153,2,0,L|338:376,1,15,2|0,0:0|0:0,0:0:0:0:
319,235,53570,1,0,0:0:0:0:
187,293,53927,1,2,0:0:0:0:
156,152,54284,1,0,0:0:0:0:
29,219,54641,6,0,P|19:248|22:310,1,90,2|0,0:0|0:0,0:0:0:0:
161,336,55355,2,0,P|193:319|256:316,1,90,2|0,0:0|0:0,0:0:0:0:
379,367,56070,1,2,0:0:0:0:
420,229,56427,1,0,0:0:0:0:
386,150,56605,1,0,0:0:0:0:
378,128,56694,1,0,0:0:0:0:
380,106,56784,2,0,P|381:51|350:24,1,90,2|0,0:0|0:0,0:0:0:0:
215,31,57498,6,0,L|165:39,1,45,2|0,0:0|0:0,0:0:0:0:
122,108,57855,2,0,L|178:115,1,45,0|0,0:0|0:0,0:0:0:0:
242,155,58213,2,0,P|253:180|252:248,1,90,2|0,0:0|0:0,0:0:0:0:
161,352,58927,1,2,0:0:0:0:
71,239,59284,1,0,0:0:0:0:
106,160,59463,1,0,0:0:0:0:
109,137,59552,1,0,0:0:0:0:
105,116,59641,2,0,P|112:83|157:41,1,90,2|0,0:0|0:0,0:0:0:0:
294,38,60355,6,0,L|301:89,1,45,2|0,0:0|0:0,0:0:0:0:
368,105,60713,2,0,L|375:156,1,45,0|0,0:0|0:0,0:0:0:0:
414,209,61070,2,0,P|418:180|461:138,1,90,2|0,0:0|0:0,0:0:0:0:
469,282,61784,1,2,0:0:0:0:
334,230,62141,1,0,0:0:0:0:
250,212,62320,1,0,0:0:0:0:
227,216,62409,1,0,0:0:0:0:
207,224,62498,2,0,P|180:239|110:235,1,90,2|0,0:0|0:0,0:0:0:0:
40,120,63213,6,0,P|46:100|64:76,1,45,2|0,0:0|0:0,0:0:0:0:
141,53,63570,2,0,P|147:75|148:104,1,45,0|0,0:0|0:0,0:0:0:0:
215,149,63927,2,0,P|222:106|252:57,1,90,2|0,0:0|0:0,0:0:0:0:
378,12,64641,1,2,0:0:0:0:
365,155,64998,2,0,L|362:187,2,30
387,112,65355,2,0,P|402:96|471:90,1,90,2|0,0:0|0:0,0:0:0:0:
479,231,66070,5,2,0:0:0:0:
350,295,66427,2,0,L|338:335,2,30,0|0|0,0:0|0:0|0:0,0:0:0:0:
335,249,66784,2,0,P|308:231|247:234,1,90,2|0,0:0|0:0,0:0:0:0:
135,316,67498,1,2,0:0:0:0:
72,186,67855,1,0,0:0:0:0:
216,186,68213,1,0,0:0:0:0:
216,186,68927,6,0,L|208:109,1,72,2|0,0:0|0:0,0:0:0:0:
117,43,69641,2,0,L|104:119,1,72,2|0,0:0|0:0,0:0:0:0:
59,219,70355,2,0,L|66:294,1,72,2|0,0:0|0:0,0:0:0:0:
160,356,71070,1,2,0:0:0:0:
160,356,71784,6,0,L|182:319,1,36,2|0,0:0|0:0,0:0:0:0:
235,316,72141,2,0,L|254:280,1,36,0|0,0:0|0:0,0:0:0:0:
303,257,72498,2,0,P|329:243|379:253,1,72,2|0,0:0|0:0,0:0:0:0:
471,302,73213,1,2,0:0:0:0:
473,186,73570,2,0,L|490:216,2,24,0|0|0,0:0|0:0|0:0,0:0:0:0:
440,165,73927,2,0,P|431:138|437:86,1,72,2|0,0:0|0:0,0:0:0:0:
333,37,74641,6,0,L|259:54,1,72,2|0,0:0|0:0,0:0:0:0:
158,102,75355,2,0,P|151:138|155:176,1,72,2|0,0:0|0:0,0:0:0:0:
248,239,76070,2,0,P|255:203|251:165,1,72,2|0,0:0|0:0,0:0:0:0:
233,54,76784,1,2,0:0:0:0:
233,54,77498,6,0,L|189:52,1,36,2|0,0:0|0:0,0:0:0:0:
152,15,77855,2,0,L|108:13,1,36,0|0,0:0|0:0,0:0:0:0:
62,35,78213,2,0,P|51:79|53:112,1,72,2|0,0:0|0:0,0:0:0:0:
93,212,78927,1,2,0:0:0:0:
182,139,79284,2,0,L|206:121,2,24,0|0|0,0:0|0:0|0:0,0:0:0:0:
193,175,79641,2,0,P|202:214|200:250,1,72,2|0,0:0|0:0,0:0:0:0:
266,340,80355,6,0,P|276:305|302:269,1,72,2|0,0:0|0:0,0:0:0:0:
409,254,81070,1,2,0:0:0:0:
361,149,81427,2,0,L|350:123,2,24,0|0|0,0:0|0:0|0:0,0:0:0:0:
397,159,81784,2,0,P|433:146|453:115,1,72,2|0,0:0|0:0,0:0:0:0:
493,11,82498,1,2,0:0:0:0:
493,11,83213,6,0,L|452:13,1,36,2|0,0:0|0:0,0:0:0:0:
411,47,83570,2,0,L|366:50,1,36,0|0,0:0|0:0,0:0:0:0:
325,20,83927,2,0,P|286:17|253:38,1,72,2|0,0:0|0:0,0:0:0:0:
187,123,84641,1,2,0:0:0:0:
82,75,84998,2,0,L|51:67,2,24,0|0|0,0:0|0:0|0:0,0:0:0:0:
96,110,85355,2,0,P|106:144|104:184,1,72,2|0,0:0|0:0,0:0:0:0:
101,295,86070,6,0,P|121:279|170:269,1,72,2|0,0:0|0:0,0:0:0:0:
270,316,86784,1,2,0:0:0:0:
315,210,87141,2,0,L|325:188,2,24,0|0|0,0:0|0:0|0:0,0:0:0:0:
339,239,87498,2,0,P|363:249|417:250,1,72,2|0,0:0|0:0,0:0:0:0:
508,193,88213,1,2,0:0:0:0:
508,193,88927,6,0,L|496:154,1,36,2|0,0:0|0:0,0:0:0:0:
448,127,89284,2,0,L|437:92,1,36,0|0,0:0|0:0,0:0:0:0:
459,39,89641,1,2,0:0:0:0:
356,91,89998,2,0,L|351:120,2,24,0|0|0,0:0|0:0|0:0,0:0:0:0:
361,53,90355,2,0,P|307:30|234:77,1,144,2|2,0:0|0:0,0:0:0:0:
82,182,91665,5,2,0:0:0:0:
82,182,91784,2,0,P|71:155|76:92,1,90,2|0,0:0|0:0,0:0:0:0:
114,34,92320,1,0,0:0:0:0:
182,54,92498,2,0,P|217:58|273:47,1,90,2|0,0:0|0:0,0:0:0:0:
410,11,93213,2,0,P|436:6|499:20,1,90,2|0,0:0|0:0,0:0:0:0:
462,158,93927,2,0,P|456:174|452:250,1,90,2|0,0:0|0:0,0:0:0:0:
326,318,94641,6,0,P|324:290|289:239,1,90,2|0,0:0|0:0,0:0:0:0:
222,214,95177,1,0,0:0:0:0:
234,284,95355,1,2,0:0:0:0:
118,197,95713,1,0,0:0:0:0:
251,143,96070,1,2,0:0:0:0:
234,284,96427,1,0,0:0:0:0:
178,148,96784,2,0,P|185:110|280:75,1,150,2|2,0:0|0:0,0:0:0:0:
283,78,97498,6,0,P|292:110|293:165,1,90,2|0,0:0|0:0,0:0:0:0:
265,232,98034,1,0,0:0:0:0:
230,295,98213,2,0,P|220:327|219:382,1,90,2|0,0:0|0:0,0:0:0:0:
349,322,98927,2,0,P|384:311|438:318,1,90,2|0,0:0|0:0,0:0:0:0:
496,186,99641,2,0,L|485:91,1,90,2|0,0:0|0:0,0:0:0:0:
354,36,100355,5,2,0:0:0:0:
300,169,100713,1,0,0:0:0:0:
158,110,101070,1,2,0:0:0:0:
276,13,101427,1,0,0:0:0:0:
224,166,101784,1,2,0:0:0:0:
73,105,102141,1,0,0:0:0:0:
233,80,102498,2,0,P|267:91|307:142,1,90,2|0,0:0|0:0,0:0:0:0:
332,222,103094,5,2,0:0:0:0:
332,222,103213,2,0,P|325:255|328:314,1,90,2|0,0:0|0:0,0:0:0:0:
388,348,103748,1,0,0:0:0:0:
452,315,103927,2,0,P|455:270|447:226,1,90,2|0,0:0|0:0,0:0:0:0:
394,92,104641,2,0,P|364:102|301:94,1,90,2|0,0:0|0:0,0:0:0:0:
165,69,105355,2,0,L|158:165,1,90,2|0,0:0|0:0,0:0:0:0:
144,302,106070,6,0,P|189:289|238:296,1,90,2|0,0:0|0:0,0:0:0:0:
293,329,106605,1,0,0:0:0:0:
230,365,106784,1,2,0:0:0:0:
302,240,107141,1,0,0:0:0:0:
390,353,107498,2,0,P|426:362|479:344,1,90,2|0,0:0|0:0,0:0:0:0:
481,202,108213,2,0,P|446:189|340:228,1,150,2|2,0:0|0:0,0:0:0:0:
347,227,108927,6,0,P|304:246|254:240,1,90,2|0,0:0|0:0,0:0:0:0:
197,213,109463,1,0,0:0:0:0:
219,144,109641,2,0,P|227:99|220:43,1,90,2|0,0:0|0:0,0:0:0:0:
89,108,110355,2,0,P|81:153|88:209,1,90,2|0,0:0|0:0,0:0:0:0:
188,296,111070,1,2,0:0:0:0:
299,205,111427,1,0,0:0:0:0:
156,227,111784,6,0,P|121:257|164:369,1,180,2|0,0:0|0:0,0:0:0:0:
284,360,112855,1,0,0:0:0:0:
334,244,113213,2,0,B|348:212|414:220|437:267|406:345,1,180,2|0,0:0|0:0,0:0:0:0:
284,360,114284,1,0,0:0:0:0:
221,279,114522,5,2,0:0:0:0:
221,279,114641,2,0,P|214:246|217:187,1,90,2|0,0:0|0:0,0:0:0:0:
232,119,115177,1,0,0:0:0:0:
182,66,115355,2,0,P|144:48|84:53,1,90,2|0,0:0|0:0,0:0:0:0:
44,183,116070,2,0,P|47:227|39:271,1,90,2|0,0:0|0:0,0:0:0:0:
140,375,116784,2,0,P|162:357|233:346,1,90,2|0,0:0|0:0,0:0:0:0:
364,355,117498,6,0,P|378:336|373:264,1,90,2|0,0:0|0:0,0:0:0:0:
329,218,118034,1,0,0:0:0:0:
301,284,118213,1,2,0:0:0:0:
425,211,118570,1,0,0:0:0:0:
355,85,118927,1,2,0:0:0:0:
498,100,119284,1,0,0:0:0:0:
367,160,119641,2,0,P|318:168|230:116,1,150,2|2,0:0|0:0,0:0:0:0:
201,84,120355,6,0,P|150:71|111:82,1,90,2|0,0:0|0:0,0:0:0:0:
54,119,120891,1,0,0:0:0:0:
35,188,121070,2,0,L|41:291,1,90,2|0,0:0|0:0,0:0:0:0:
167,344,121784,2,0,P|173:308|217:263,1,90,2|0,0:0|0:0,0:0:0:0:
333,198,122498,2,0,P|349:234|347:290,1,90,2|0,0:0|0:0,0:0:0:0:
233,370,123213,5,2,0:0:0:0:
248,226,123570,1,0,0:0:0:0:
177,90,123927,1,2,0:0:0:0:
315,25,124284,1,0,0:0:0:0:
222,157,124641,1,2,0:0:0:0:
91,61,124998,1,0,0:0:0:0:
13,203,125355,2,0,P|5:235|12:300,1,90,2|0,0:0|0:0,0:0:0:0:
80,355,125951,5,2,0:0:0:0:
80,355,126070,2,0,P|96:335|165:319,1,90,2|0,0:0|0:0,0:0:0:0:
224,336,126605,1,0,0:0:0:0:
222,263,126784,2,0,P|220:223|248:175,1,90,2|0,0:0|0:0,0:0:0:0:
385,158,127498,2,0,P|415:162|481:153,1,90,2|0,0:0|0:0,0:0:0:0:
374,50,128213,2,0,P|344:46|278:55,1,90,2|0,0:0|0:0,0:0:0:0:
149,100,128927,6,0,P|139:139|143:191,1,90,2|0,0:0|0:0,0:0:0:0:
173,253,129463,1,0,0:0:0:0:
221,199,129641,1,2,0:0:0:0:
93,265,129998,1,0,0:0:0:0:
212,344,130355,1,2,0:0:0:0:
221,199,130713,1,0,0:0:0:0:
331,290,131070,2,0,P|391:289|428:205,1,150,2|2,0:0|0:0,0:0:0:0:
418,169,131784,6,0,P|407:130|411:79,1,90,2|0,0:0|0:0,0:0:0:0:
431,12,132320,1,0,0:0:0:0:
360,27,132498,2,0,B|316:35|269:28,1,90,2|0,0:0|0:0,0:0:0:0:
127,48,133213,2,0,P|119:76|119:144,1,90,2|0,0:0|0:0,0:0:0:0:
190,260,133927,1,2,0:0:0:0:
271,141,134284,1,0,0:0:0:0:
298,282,134641,6,0,P|314:316|424:281,1,180,2|0,0:0|0:0,0:0:0:0:
453,161,135713,1,0,0:0:0:0:
333,122,136070,2,0,B|247:100|244:159|148:130,1,180,2|0,0:0|0:0,0:0:0:0:
53,60,137141,1,0,0:0:0:0:
128,22,137379,5,2,0:0:0:0:
128,22,137498,2,0,L|180:20,1,45,2|0,0:0|0:0,0:0:0:0:
234,57,137855,2,0,L|288:57,1,45,0|0,0:0|0:0,0:0:0:0:
341,20,138213,2,0,P|372:37|390:91,1,90,0|0,0:0|0:0,0:0:0:0:
378,229,138927,1,2,0:0:0:0:
256,151,139284,1,0,0:0:0:0:
180,109,139463,1,0,0:0:0:0:
158,103,139552,1,0,0:0:0:0:
135,104,139641,2,0,L|140:206,1,90,0|0,0:0|0:0,0:0:0:0:
189,329,140355,6,0,P|198:309|221:289,1,45,2|0,0:0|0:0,0:0:0:0:
279,262,140713,1,0,0:0:0:0:
332,309,140891,1,0,0:0:0:0:
350,378,141070,2,0,P|360:351|400:306,1,90,2|0,0:0|0:0,0:0:0:0:
502,206,141784,1,2,0:0:0:0:
394,110,142141,1,0,0:0:0:0:
323,158,142320,1,0,0:0:0:0:
300,161,142409,1,0,0:0:0:0:
278,158,142498,2,0,P|245:148|181:159,1,90,2|0,0:0|0:0,0:0:0:0:
65,227,143213,6,0,P|62:251|63:278,1,45,2|0,0:0|0:0,0:0:0:0:
124,351,143570,2,0,P|127:329|125:307,1,45,0|0,0:0|0:0,0:0:0:0:
199,259,143927,2,0,P|217:254|287:287,1,90,2|0,0:0|0:0,0:0:0:0:
358,354,144582,2,0,L|373:376,1,15,2|0,0:0|0:0,0:0:0:0:
353,210,144998,1,0,0:0:0:0:
484,268,145355,1,2,0:0:0:0:
462,125,145713,1,0,0:0:0:0:
329,68,146070,6,0,P|294:69|240:94,1,90,2|0,0:0|0:0,0:0:0:0:
149,199,146784,2,0,L|149:291,1,90,2|0,0:0|0:0,0:0:0:0:
266,371,147498,1,2,0:0:0:0:
296,230,147855,1,0,0:0:0:0:
372,191,148034,1,0,0:0:0:0:
394,188,148123,1,0,0:0:0:0:
416,190,148213,2,0,P|455:193|503:167,1,90,2|0,0:0|0:0,0:0:0:0:
432,42,148927,6,0,L|380:49,1,45,2|0,0:0|0:0,0:0:0:0:
329,110,149284,2,0,L|272:95,1,45,0|0,0:0|0:0,0:0:0:0:
211,54,149641,2,0,P|176:57|136:100,1,90,2|0,0:0|0:0,0:0:0:0:
69,220,150355,1,2,0:0:0:0:
150,339,150713,1,0,0:0:0:0:
214,282,150891,1,0,0:0:0:0:
234,272,150980,1,0,0:0:0:0:
256,271,151070,2,0,P|289:277|348:262,1,90,2|0,0:0|0:0,0:0:0:0:
463,184,151784,6,0,L|453:135,1,45,2|0,0:0|0:0,0:0:0:0:
477,71,152141,2,0,L|427:46,1,45,0|0,0:0|0:0,0:0:0:0:
384,101,152498,2,0,P|345:104|296:95,1,90,2|0,0:0|0:0,0:0:0:0:
164,33,153213,1,2,0:0:0:0:
60,133,153570,1,0,0:0:0:0:
112,200,153748,1,0,0:0:0:0:
118,221,153837,1,0,0:0:0:0:
119,243,153927,2,0,P|117:278|126:345,1,90,2|0,0:0|0:0,0:0:0:0:
264,359,154641,6,0,P|265:336|269:314,1,45,2|0,0:0|0:0,0:0:0:0:
337,263,154998,2,0,P|336:240|332:218,1,45,0|0,0:0|0:0,0:0:0:0:
272,157,155355,2,0,P|266:126|277:56,1,90,2|0,0:0|0:0,0:0:0:0:
411,27,156070,1,2,0:0:0:0:
451,165,156427,2,0,L|462:196,2,30,0|0|0,0:0|0:0|0:0,0:0:0:0:
411,138,156784,2,0,P|381:137|344:182,1,90,2|0,0:0|0:0,0:0:0:0:
299,316,157498,5,2,0:0:0:0:
171,249,157855,2,0,L|143:236,2,30,0|0|0,0:0|0:0|0:0,0:0:0:0:
218,238,158213,2,0,P|234:197|223:152,1,90,2|0,0:0|0:0,0:0:0:0:
132,42,158927,1,2,0:0:0:0:
56,164,159284,1,0,0:0:0:0:
185,100,159641,1,0,0:0:0:0:
185,100,160355,6,0,L|257:105,1,72,2|0,0:0|0:0,0:0:0:0:
365,144,161070,2,0,P|374:176|369:222,1,72,2|0,0:0|0:0,0:0:0:0:
276,279,161784,2,0,P|262:251|265:202,1,72,2|0,0:0|0:0,0:0:0:0:
353,280,162498,1,2,0:0:0:0:
353,280,163213,6,0,L|384:249,1,36,2|0,0:0|0:0,0:0:0:0:
436,257,163570,2,0,L|465:225,1,36,0|0,0:0|0:0,0:0:0:0:
509,201,163927,2,0,P|507:162|481:133,1,72,2|0,0:0|0:0,0:0:0:0:
399,62,164641,1,2,0:0:0:0:
314,140,164998,2,0,L|306:174,2,24,0|0|0,0:0|0:0|0:0,0:0:0:0:
307,102,165355,2,0,P|264:74|236:76,1,72,2|0,0:0|0:0,0:0:0:0:
133,103,166070,6,0,P|123:125|127:176,1,72,2|0,0:0|0:0,0:0:0:0:
220,236,166784,2,0,P|232:255|234:308,1,72,2|0,0:0|0:0,0:0:0:0:
129,349,167498,2,0,L|132:275,1,72,2|0,0:0|0:0,0:0:0:0:
169,167,168213,1,2,0:0:0:0:
169,167,168927,6,0,L|210:170,1,36,2|0,0:0|0:0,0:0:0:0:
245,129,169284,2,0,L|284:130,1,36,0|0,0:0|0:0,0:0:0:0:
327,95,169641,2,0,P|362:109|379:146,1,72,2|0,0:0|0:0,0:0:0:0:
356,250,170355,1,2,0:0:0:0:
242,226,170713,2,0,L|212:221,2,24,0|0|0,0:0|0:0|0:0,0:0:0:0:
261,258,171070,2,0,P|264:288|261:331,1,72,2|0,0:0|0:0,0:0:0:0:
149,358,171784,6,0,P|129:337|121:291,1,72,2|0,0:0|0:0,0:0:0:0:
146,183,172498,1,2,0:0:0:0:
68,97,172855,2,0,L|45:74,2,24,0|0|0,0:0|0:0|0:0,0:0:0:0:
106,100,173213,2,0,P|142:100|185:85,1,72,2|0,0:0|0:0,0:0:0:0:
276,32,173927,1,2,0:0:0:0:
276,32,174641,6,0,L|285:72,1,36,2|0,0:0|0:0,0:0:0:0:
338,86,174998,2,0,L|347:126,1,36,0|0,0:0|0:0,0:0:0:0:
401,138,175355,2,0,P|410:165|403:216,1,72,2|0,0:0|0:0,0:0:0:0:
321,286,176070,1,2,0:0:0:0:
231,213,176427,2,0,L|208:190,2,24
224,250,176784,2,0,P|199:269|152:277,1,72,2|0,0:0|0:0,0:0:0:0:
79,195,177498,6,0,P|81:175|72:120,1,72,2|0,0:0|0:0,0:0:0:0:
27,17,178213,1,2,0:0:0:0:
141,31,178570,2,0,L|149:5,2,24,0|0|0,0:0|0:0|0:0,0:0:0:0:
165,60,178927,2,0,P|195:78|240:80,1,72,2|0,0:0|0:0,0:0:0:0:
346,73,179641,1,2,0:0:0:0:
346,73,180355,6,0,L|355:111,1,36,2|0,0:0|0:0,0:0:0:0:
406,132,180713,2,0,L|416:168,1,36,0|0,0:0|0:0,0:0:0:0:
456,207,181070,1,2,0:0:0:0:
378,291,181427,2,0,L|378:317,2,24,0|0|0,0:0|0:0|0:0,0:0:0:0:
356,259,181784,1,2,0:0:0:0:
280,172,182141,1,0,0:0:0:0:
255,284,182498,1,2,0:0:0:0:
