osu file format v14

[General]
AudioFilename: bgm_mz_2_03.mp3
AudioLeadIn: 0
PreviewTime: 137381
Countdown: 0
SampleSet: Soft
StackLeniency: 0.7
Mode: 0
LetterboxInBreaks: 0
WidescreenStoryboard: 1

[Editor]
Bookmarks: 370,11798,23227,34655,46084,57512,68941,80370,91798,103227,114655,126084,137512,148941,160370,171798,182512
DistanceSpacing: 1.3
BeatDivisor: 12
GridSize: 4
TimelineZoom: 2.2

[Metadata]
Title:Tasogare ni Shitataru Chi wa Mitsu no Aji
TitleUnicode:黄昏に滴る血は蜜の味
Artist:M.Zakky
ArtistUnicode:M.Zakky
Creator:Okoratu
Version:Dusk
Source:彼岸花の咲く夜に 第二夜
Tags:常夜満たすは妖艶の花 ~彼岸花の咲く夜に Original Soundtracks~ I.L.U Studio pre-holder Higanbana no Saku Yoru ni Dai Ni Yoru 07th Expansion sound visual novel bgm Blood Spilled at Dusk Tastes Like Honey The unforgiving flowers blossom in the dead of night 2nd second Feerum Feru -Kamikaze- Krfawy
BeatmapID:730592
BeatmapSetID:329538

[Difficulty]
HPDrainRate:7
CircleSize:4.3
OverallDifficulty:7.5
ApproachRate:8.3
SliderMultiplier:2
SliderTickRate:1

[Events]
//Background and Video events
0,0,"bamboo.jpg",0,0
//Break Periods
//Storyboard Layer 0 (Background)
//Storyboard Layer 1 (Fail)
//Storyboard Layer 2 (Pass)
//Storyboard Layer 3 (Foreground)
//Storyboard Sound Samples

[TimingPoints]
356,714.285714285714,4,2,1,100,1,0
68927,-125,4,2,1,100,0,0
91784,-100,4,2,1,100,0,0
160355,-125,4,2,1,100,0,0

[Colours]
Combo1 : 192,130,255
Combo2 : 97,104,241
Combo3 : 81,159,255
Combo4 : 128,0,255

[HitObjects]
112,98,236,5,2,0:0:0:0:
112,98,356,2,0,P|143:72|203:70,1,100,2|0,0:0|0:0,0:0:0:0:
300,146,891,1,0,0:0:0:0:
243,242,1070,1,2,0:0:0:0:
18,50,1427,1,0,0:0:0:0:
304,32,1784,2,0,P|298:86|302:145,1,100,2|0,0:0|0:0,0:0:0:0:
237,329,2498,2,0,P|238:279|233:229,1,100,2|0,0:0|0:0,0:0:0:0:
117,41,3213,6,0,L|11:50,1,100,2|0,0:0|0:0,0:0:0:0:
136,139,3748,1,0,0:0:0:0:
209,67,3927,2,0,P|251:63|308:104,1,100,2|0,0:0|0:0,0:0:0:0:
393,331,4641,1,2,0:0:0:0:
88,211,4998,1,0,0:0:0:0:
396,43,5355,2,0,L|415:218,1,166.666666666667,2|2,0:0|0:0,0:0:0:0:
413,208,6070,6,0,P|368:204|322:240,1,100,2|0,0:0|0:0,0:0:0:0:
240,356,6605,1,0,0:0:0:0:
248,207,6784,2,0,P|248:147|236:103,1,100,2|0,0:0|0:0,0:0:0:0:
15,90,7498,1,2,0:0:0:0:
133,225,7855,1,0,0:0:0:0:
210,8,8213,1,2,0:0:0:0:
56,167,8570,1,0,0:0:0:0:
313,206,8927,5,2,0:0:0:0:
90,33,9284,1,0,0:0:0:0:
269,328,9641,1,2,0:0:0:0:
259,36,9998,1,0,0:0:0:0:
59,296,10355,2,0,P|106:299|166:274,1,100,2|0,0:0|0:0,0:0:0:0:
90,33,11070,2,0,L|96:139,1,100,2|0,0:0|0:0,0:0:0:0:
248,30,11665,5,2,0:0:0:0:
248,30,11784,2,0,P|277:6|336:13,1,100,2|0,0:0|0:0,0:0:0:0:
365,152,12320,1,0,0:0:0:0:
225,134,12498,1,2,0:0:0:0:
438,0,12855,1,0,0:0:0:0:
461,241,13213,2,0,L|471:352,1,100,2|0,0:0|0:0,0:0:0:0:
297,125,13927,2,0,L|307:14,1,100,2|0,0:0|0:0,0:0:0:0:
372,239,14641,6,0,L|380:338,1,100,2|0,0:0|0:0,0:0:0:0:
289,197,15177,1,0,0:0:0:0:
400,137,15355,2,0,P|429:146|473:202,1,100,2|0,0:0|0:0,0:0:0:0:
246,319,16070,1,2,0:0:0:0:
256,35,16427,1,0,0:0:0:0:
246,319,16784,2,0,P|260:214|257:149,1,166.666666666667,2|2,0:0|0:0,0:0:0:0:
257,153,17498,6,0,P|220:151|165:109,1,100,2|0,0:0|0:0,0:0:0:0:
131,1,18034,1,0,0:0:0:0:
271,32,18213,1,2,0:0:0:0:
24,173,18570,1,0,0:0:0:0:
271,32,18927,2,0,P|315:25|370:42,1,100,2|0,0:0|0:0,0:0:0:0:
130,217,19641,2,0,L|134:110,1,100,2|0,0:0|0:0,0:0:0:0:
403,129,20355,6,0,B|431:227|362:225|390:329,1,200,2|0,0:0|0:0,0:0:0:0:
389,323,21427,1,0,0:0:0:0:
306,159,21784,2,0,P|264:140|141:221,1,200,2|0,0:0|0:0,0:0:0:0:
121,361,22855,1,0,0:0:0:0:
20,239,23094,5,2,0:0:0:0:
20,239,23213,2,0,P|25:188|8:140,1,100,2|0,0:0|0:0,0:0:0:0:
3,17,23748,1,0,0:0:0:0:
144,75,23927,1,2,0:0:0:0:
1,313,24284,1,0,0:0:0:0:
58,106,24641,2,0,P|73:68|77:5,1,100,2|0,0:0|0:0,0:0:0:0:
220,233,25355,2,0,P|205:271|201:334,1,100,2|0,0:0|0:0,0:0:0:0:
339,101,26070,5,2,0:0:0:0:
92,288,26427,1,0,0:0:0:0:
206,358,26605,1,0,0:0:0:0:
282,247,26784,1,2,0:0:0:0:
106,374,27141,1,0,0:0:0:0:
254,95,27498,1,2,0:0:0:0:
346,356,27855,1,0,0:0:0:0:
136,153,28213,2,0,P|167:90|260:100,1,166.666666666667,2|2,0:0|0:0,0:0:0:0:
265,170,28927,6,0,L|259:280,1,100,2|0,0:0|0:0,0:0:0:0:
147,363,29463,1,0,0:0:0:0:
179,220,29641,1,2,0:0:0:0:
422,357,29998,1,0,0:0:0:0:
213,33,30355,1,2,0:0:0:0:
179,220,30713,1,0,0:0:0:0:
397,24,31070,1,2,0:0:0:0:
145,137,31427,1,0,0:0:0:0:
468,256,31784,5,2,0:0:0:0:
397,24,32141,1,0,0:0:0:0:
292,308,32498,1,2,0:0:0:0:
475,164,32855,1,0,0:0:0:0:
172,120,33213,2,0,L|179:232,1,100,2|0,0:0|0:0,0:0:0:0:
422,357,33927,2,0,L|415:245,1,100,2|0,0:0|0:0,0:0:0:0:
357,95,34522,5,2,0:0:0:0:
357,95,34641,2,0,P|319:83|262:104,1,100,2|0,0:0|0:0,0:0:0:0:
209,246,35177,1,0,0:0:0:0:
335,195,35355,1,2,0:0:0:0:
80,83,35713,1,0,0:0:0:0:
369,108,36070,2,0,B|433:102|407:119|472:112,1,100,2|0,0:0|0:0,0:0:0:0:
209,246,36784,2,0,B|145:240|171:257|106:250,1,100,2|0,0:0|0:0,0:0:0:0:
325,215,37498,5,2,0:0:0:0:
167,42,37855,1,0,0:0:0:0:
18,85,38034,1,0,0:0:0:0:
121,194,38213,1,2,0:0:0:0:
78,6,38570,1,0,0:0:0:0:
117,298,38927,1,2,0:0:0:0:
321,135,39284,1,0,0:0:0:0:
42,67,39641,2,0,L|53:247,1,166.666666666667,2|2,0:0|0:0,0:0:0:0:
129,183,40355,6,0,P|156:173|227:198,1,100,2|0,0:0|0:0,0:0:0:0:
308,317,40891,1,0,0:0:0:0:
330,163,41070,1,2,0:0:0:0:
141,306,41427,1,0,0:0:0:0:
411,210,41784,2,0,P|420:160|406:107,1,100,2|0,0:0|0:0,0:0:0:0:
129,206,42498,2,0,L|142:315,1,100,2|0,0:0|0:0,0:0:0:0:
188,76,43213,6,0,P|164:31|131:117,1,200,2|0,0:0|0:0,0:0:0:0:
227,261,44284,1,0,0:0:0:0:
310,109,44641,2,0,B|340:72|310:-46|258:22|368:38|421:6,1,200,2|0,0:0|0:0,0:0:0:0:
219,59,45713,1,0,0:0:0:0:
413,110,45951,5,2,0:0:0:0:
413,110,46070,2,0,L|420:170,1,50,2|0,0:0|0:0,0:0:0:0:
312,266,46427,2,0,L|315:211,1,50
449,271,46784,1,0,0:0:0:0:
208,367,47141,1,0,0:0:0:0:
251,107,47498,1,2,0:0:0:0:
329,343,47855,1,0,0:0:0:0:
326,318,47944,1,0,0:0:0:0:
324,293,48033,1,0,0:0:0:0:
322,268,48122,1,0,0:0:0:0:
319,241,48213,2,0,P|277:230|224:251,1,100
47,359,48927,5,2,0:0:0:0:
28,270,49105,1,0,0:0:0:0:
63,179,49284,2,0,P|73:149|76:120,1,50
16,34,49641,1,2,0:0:0:0:
299,100,49998,1,0,0:0:0:0:
110,262,50355,1,2,0:0:0:0:
239,31,50713,1,0,0:0:0:0:
259,17,50802,1,0,0:0:0:0:
283,9,50891,1,0,0:0:0:0:
308,9,50980,1,0,0:0:0:0:
332,15,51070,1,2,0:0:0:0:
287,240,51427,1,0,0:0:0:0:
424,71,51784,6,0,L|429:127,1,50,2|0,0:0|0:0,0:0:0:0:
369,222,52141,2,0,L|363:280,1,50
239,163,52498,2,0,P|255:124|315:101,1,100,2|0,0:0|0:0,0:0:0:0:
224,284,53153,2,0,L|216:314,1,16.6666666666667,2|0,0:0|0:0,0:0:0:0:
144,79,53570,1,0,0:0:0:0:
416,83,53927,1,2,0:0:0:0:
144,255,54284,1,0,0:0:0:0:
283,8,54641,5,2,0:0:0:0:
276,342,54998,1,0,0:0:0:0:
144,79,55355,1,2,0:0:0:0:
416,83,55712,1,0,0:0:0:0:
144,255,56070,1,2,0:0:0:0:
283,8,56427,1,0,0:0:0:0:
307,13,56516,1,0,0:0:0:0:
327,27,56605,1,0,0:0:0:0:
341,47,56694,1,0,0:0:0:0:
347,72,56784,2,0,P|340:106|342:172,1,100,2|0,0:0|0:0,0:0:0:0:
166,344,57498,6,0,L|114:328,1,50,2|0,0:0|0:0,0:0:0:0:
220,226,57855,2,0,L|283:210,1,50
147,126,58213,1,2,0:0:0:0:
291,342,58570,1,0,0:0:0:0:
384,112,58927,1,2,0:0:0:0:
189,321,59284,1,0,0:0:0:0:
196,297,59373,1,0,0:0:0:0:
204,273,59462,1,0,0:0:0:0:
211,249,59551,1,0,0:0:0:0:
219,225,59641,2,0,P|267:231|298:275,1,100,2|0,0:0|0:0,0:0:0:0:
113,242,60355,5,2,0:0:0:0:
170,153,60534,1,0,0:0:0:0:
76,90,60713,1,0,0:0:0:0:
19,179,60892,1,0,0:0:0:0:
166,75,61070,2,0,P|194:77|246:133,1,100,2|0,0:0|0:0,0:0:0:0:
38,253,61784,1,2,0:0:0:0:
122,3,62141,1,0,0:0:0:0:
146,5,62230,1,0,0:0:0:0:
171,7,62319,1,0,0:0:0:0:
196,9,62408,1,0,0:0:0:0:
221,11,62498,1,2,0:0:0:0:
360,251,62855,1,0,0:0:0:0:
373,34,63213,6,0,P|358:59|354:98,1,50,2|0,0:0|0:0,0:0:0:0:
290,197,63570,2,0,P|284:162|268:138,1,50
171,86,63927,1,2,0:0:0:0:
423,153,64284,1,0,0:0:0:0:
242,328,64641,1,2,0:0:0:0:
309,85,64998,2,0,L|347:90,2,33.3333333333333
211,155,65355,2,0,P|200:196|202:262,1,100,2|0,0:0|0:0,0:0:0:0:
477,192,66070,5,2,0:0:0:0:
239,55,66427,2,0,L|203:49,2,33.3333333333333
333,128,66784,2,0,P|343:164|323:236,1,100,2|0,0:0|0:0,0:0:0:0:
60,213,67498,1,2,0:0:0:0:
232,11,67855,1,0,0:0:0:0:
288,260,68213,1,0,0:0:0:0:
288,260,68927,6,0,L|278:165,1,80,2|0,0:0|0:0,0:0:0:0:
188,54,69641,2,0,L|180:151,1,80,2|0,0:0|0:0,0:0:0:0:
68,297,70355,2,0,P|66:257|89:212,1,80,2|0,0:0|0:0,0:0:0:0:
314,87,71070,1,2,0:0:0:0:
314,87,71784,6,0,L|320:139,1,40,2|0,0:0|0:0,0:0:0:0:
222,213,72141,2,0,L|227:157,1,40
325,225,72498,2,0,L|335:320,1,80,2|0,0:0|0:0,0:0:0:0:
138,264,73213,1,2,0:0:0:0:
258,107,73570,2,0,L|286:113,2,26.6666666666667
167,60,73927,1,2,0:0:0:0:
401,51,74284,1,0,0:0:0:0:
340,242,74641,6,0,P|334:280|333:321,1,80,2|0,0:0|0:0,0:0:0:0:
125,268,75355,2,0,P|139:230|158:195,1,80,2|0,0:0|0:0,0:0:0:0:
375,109,76070,2,0,P|382:146|395:185,1,80,2|0,0:0|0:0,0:0:0:0:
150,123,76784,1,2,0:0:0:0:
150,123,77498,6,0,L|189:108,1,40,2|0,0:0|0:0,0:0:0:0:
275,181,77855,2,0,L|313:191,1,40
141,254,78213,1,2,0:0:0:0:
303,32,78570,1,0,0:0:0:0:
368,290,78927,1,2,0:0:0:0:
188,107,79284,2,0,L|154:110,2,26.6666666666667
291,154,79641,1,2,0:0:0:0:
50,180,79998,1,0,0:0:0:0:
182,27,80355,6,0,L|188:114,1,80,2|0,0:0|0:0,0:0:0:0:
308,264,81070,1,2,0:0:0:0:
330,85,81427,2,0,L|335:53,2,26.6666666666667
249,146,81784,2,0,B|238:186|241:233,1,80,2|0,0:0|0:0,0:0:0:0:
408,109,82498,1,2,0:0:0:0:
408,109,83213,6,0,L|453:119,1,40,2|0,0:0|0:0,0:0:0:0:
372,191,83570,2,0,L|321:196,1,40
352,41,83927,1,2,0:0:0:0:
447,281,84284,1,0,0:0:0:0:
443,23,84641,1,2,0:0:0:0:
366,265,84998,2,0,L|358:302,2,26.6666666666667
422,192,85355,1,2,0:0:0:0:
259,362,85713,1,0,0:0:0:0:
283,143,86070,6,0,P|283:111|265:63,1,80,2|0,0:0|0:0,0:0:0:0:
88,18,86784,1,2,0:0:0:0:
64,211,87141,2,0,L|61:246,2,26.6666666666667
117,131,87498,2,0,P|144:120|197:126,1,80,2|0,0:0|0:0,0:0:0:0:
131,288,88213,1,2,0:0:0:0:
131,288,88927,6,0,L|126:337,1,40,2|0,0:0|0:0,0:0:0:0:
245,243,89284,2,0,L|242:196,1,40
107,145,89641,1,2,0:0:0:0:
327,121,89998,2,0,L|359:119,2,26.6666666666667
254,66,90355,1,2,0:0:0:0:
246,58,91070,1,2,0:0:0:0:
230,238,91665,5,2,0:0:0:0:
230,238,91784,2,0,P|275:240|334:205,1,100,2|0,0:0|0:0,0:0:0:0:
400,124,92320,1,0,0:0:0:0:
301,76,92498,1,2,0:0:0:0:
420,301,92855,1,0,0:0:0:0:
455,48,93213,2,0,P|412:30|357:39,1,100,2|0,0:0|0:0,0:0:0:0:
146,191,93927,2,0,P|189:209|244:200,1,100,2|0,0:0|0:0,0:0:0:0:
75,25,94641,6,0,L|80:127,1,100,2|0,0:0|0:0,0:0:0:0:
117,267,95177,1,0,0:0:0:0:
209,146,95355,2,0,P|225:104|223:39,1,100,2|0,0:0|0:0,0:0:0:0:
31,226,96070,1,2,0:0:0:0:
329,214,96427,1,0,0:0:0:0:
106,111,96784,2,0,L|101:284,1,166.666666666667,2|2,0:0|0:0,0:0:0:0:
101,277,97498,6,0,P|142:272|199:300,1,100,2|0,0:0|0:0,0:0:0:0:
310,355,98034,1,0,0:0:0:0:
280,222,98213,2,0,P|283:186|311:130,1,100,2|0,0:0|0:0,0:0:0:0:
502,29,98927,1,2,0:0:0:0:
427,195,99284,1,0,0:0:0:0:
260,25,99641,1,2,0:0:0:0:
459,95,99998,1,0,0:0:0:0:
155,270,100355,5,2,0:0:0:0:
353,62,100713,1,0,0:0:0:0:
327,376,101070,1,2,0:0:0:0:
202,103,101427,1,0,0:0:0:0:
479,284,101784,2,0,P|474:328|474:399,1,100,2|0,0:0|0:0,0:0:0:0:
196,202,102498,2,0,P|201:158|201:87,1,100,2|0,0:0|0:0,0:0:0:0:
33,36,103094,5,2,0:0:0:0:
33,36,103213,2,0,P|27:75|53:141,1,100,2|0,0:0|0:0,0:0:0:0:
131,232,103748,1,0,0:0:0:0:
129,94,103927,1,2,0:0:0:0:
32,340,104284,1,0,0:0:0:0:
267,242,104641,2,0,P|312:240|371:272,1,100,2|0,0:0|0:0,0:0:0:0:
373,32,105355,2,0,P|363:69|373:141,1,100,2|0,0:0|0:0,0:0:0:0:
170,281,106070,6,0,P|181:230|170:173,1,100,2|0,0:0|0:0,0:0:0:0:
81,82,106605,1,0,0:0:0:0:
34,215,106784,2,0,L|42:321,1,100,2|0,0:0|0:0,0:0:0:0:
249,53,107498,1,2,0:0:0:0:
0,103,107855,1,0,0:0:0:0:
170,281,108213,2,0,P|202:249|323:240,1,166.666666666667,2|2,0:0|0:0,0:0:0:0:
317,237,108927,6,0,L|304:342,1,100,2|0,0:0|0:0,0:0:0:0:
448,364,109463,1,0,0:0:0:0:
411,209,109641,1,2,0:0:0:0:
203,363,109998,1,0,0:0:0:0:
493,270,110355,2,0,P|493:226|475:159,1,100,2|0,0:0|0:0,0:0:0:0:
260,23,111070,2,0,P|255:68|266:129,1,100,2|0,0:0|0:0,0:0:0:0:
374,276,111784,6,0,P|315:233|196:279,1,200,2|0,0:0|0:0,0:0:0:0:
202,269,112855,1,0,0:0:0:0:
80,164,113213,2,0,B|68:122|148:50|169:131|249:99,1,200,2|0,0:0|0:0,0:0:0:0:
366,1,114284,1,0,0:0:0:0:
413,184,114522,5,2,0:0:0:0:
413,184,114641,2,0,P|417:222|397:283,1,100,2|0,0:0|0:0,0:0:0:0:
276,351,115177,1,0,0:0:0:0:
292,216,115355,1,2,0:0:0:0:
494,368,115713,1,0,0:0:0:0:
206,265,116070,2,0,P|157:259|99:277,1,100,2|0,0:0|0:0,0:0:0:0:
273,107,116784,2,0,P|319:107|381:84,1,100,2|0,0:0|0:0,0:0:0:0:
98,29,117498,5,2,0:0:0:0:
172,250,117855,1,0,0:0:0:0:
67,360,118034,1,0,0:0:0:0:
6,224,118213,1,2,0:0:0:0:
168,348,118570,1,0,0:0:0:0:
178,102,118927,1,2,0:0:0:0:
22,299,119284,1,0,0:0:0:0:
285,209,119641,2,0,P|319:182|283:72,1,166.666666666667,2|2,0:0|0:0,0:0:0:0:
191,87,120355,6,0,L|186:188,1,100,2|0,0:0|0:0,0:0:0:0:
122,323,120891,1,0,0:0:0:0:
98,174,121070,1,2,0:0:0:0:
334,310,121427,1,0,0:0:0:0:
38,257,121784,1,2,0:0:0:0:
173,118,122141,1,0,0:0:0:0:
53,362,122498,1,2,0:0:0:0:
62,141,122855,1,0,0:0:0:0:
342,286,123213,5,2,0:0:0:0:
133,222,123570,1,0,0:0:0:0:
400,74,123927,1,2,0:0:0:0:
421,310,124284,1,0,0:0:0:0:
155,112,124641,2,0,P|182:89|258:91,1,100,2|0,0:0|0:0,0:0:0:0:
356,284,125355,2,0,L|349:387,1,100,2|0,0:0|0:0,0:0:0:0:
257,231,125951,5,2,0:0:0:0:
257,231,126070,2,0,P|280:202|350:187,1,100,2|0,0:0|0:0,0:0:0:0:
462,294,126605,1,0,0:0:0:0:
332,274,126784,1,2,0:0:0:0:
491,102,127141,1,0,0:0:0:0:
305,296,127498,2,0,P|266:311|206:306,1,100,2|0,0:0|0:0,0:0:0:0:
409,38,128213,2,0,L|417:143,1,100,2|0,0:0|0:0,0:0:0:0:
90,149,128927,5,2,0:0:0:0:
333,36,129284,1,0,0:0:0:0:
356,189,129463,1,0,0:0:0:0:
224,128,129641,1,2,0:0:0:0:
394,100,129998,1,0,0:0:0:0:
234,307,130355,1,2,0:0:0:0:
198,59,130713,1,0,0:0:0:0:
234,307,131070,2,0,P|241:238|210:133,1,166.666666666667,2|2,0:0|0:0,0:0:0:0:
108,148,131784,6,0,P|68:152|11:129,1,100,2|0,0:0|0:0,0:0:0:0:
103,26,132320,1,0,0:0:0:0:
188,122,132498,1,2,0:0:0:0:
57,309,132855,1,0,0:0:0:0:
177,45,133213,2,0,P|230:32|284:33,1,100,2|0,0:0|0:0,0:0:0:0:
441,231,133927,2,0,L|435:342,1,100,2|0,0:0|0:0,0:0:0:0:
149,207,134641,6,0,P|147:164|276:149,1,200,2|0,0:0|0:0,0:0:0:0:
243,263,135713,1,0,0:0:0:0:
52,154,136070,2,0,B|34:259|90:226|68:357,1,200,2|0,0:0|0:0,0:0:0:0:
218,271,137141,1,0,0:0:0:0:
292,136,137379,5,2,0:0:0:0:
292,136,137498,2,0,L|320:86,1,50,2|0,0:0|0:0,0:0:0:0:
144,33,137855,2,0,L|145:95,1,50
175,202,138213,1,0,0:0:0:0:
317,13,138570,1,0,0:0:0:0:
290,291,138927,1,2,0:0:0:0:
186,104,139284,1,0,0:0:0:0:
161,98,139373,1,0,0:0:0:0:
137,101,139462,1,0,0:0:0:0:
114,113,139551,1,0,0:0:0:0:
97,131,139641,2,0,P|112:196|111:242,1,100
290,291,140355,5,2,0:0:0:0:
327,195,140534,1,0,0:0:0:0:
407,272,140713,2,0,P|416:306|417:331,1,50
322,382,141070,1,2,0:0:0:0:
424,114,141427,1,0,0:0:0:0:
206,212,141784,1,2,0:0:0:0:
470,182,142141,1,0,0:0:0:0:
487,163,142230,1,0,0:0:0:0:
498,141,142319,1,0,0:0:0:0:
501,116,142408,1,0,0:0:0:0:
498,92,142498,1,2,0:0:0:0:
313,167,142855,1,0,0:0:0:0:
490,279,143213,6,0,P|498:309|503:339,1,50,2|0,0:0|0:0,0:0:0:0:
319,226,143570,2,0,P|313:189|313:168,1,50
409,35,143927,2,0,P|423:77|420:140,1,100,2|0,0:0|0:0,0:0:0:0:
240,18,144582,2,0,L|252:-9,1,16.6666666666667,2|0,0:0|0:0,0:0:0:0:
137,242,144998,1,0,0:0:0:0:
395,127,145355,1,2,0:0:0:0:
144,1,145713,1,0,0:0:0:0:
309,333,146070,5,2,0:0:0:0:
265,60,146427,1,0,0:0:0:0:
25,178,146784,1,2,0:0:0:0:
395,127,147141,1,0,0:0:0:0:
64,73,147498,1,2,0:0:0:0:
190,316,147855,1,0,0:0:0:0:
207,298,147944,1,0,0:0:0:0:
219,276,148033,1,0,0:0:0:0:
223,251,148122,1,0,0:0:0:0:
220,227,148213,2,0,P|215:197|226:119,1,100,2|0,0:0|0:0,0:0:0:0:
462,42,148927,6,0,L|471:95,1,50,2|0,0:0|0:0,0:0:0:0:
370,202,149284,2,0,L|373:142,1,50
378,17,149641,1,2,0:0:0:0:
451,222,149998,1,0,0:0:0:0:
232,105,150355,1,2,0:0:0:0:
287,346,150713,1,0,0:0:0:0:
293,321,150802,1,0,0:0:0:0:
300,297,150891,1,0,0:0:0:0:
306,273,150980,1,0,0:0:0:0:
313,249,151070,2,0,P|286:227|218:226,1,100,2|0,0:0|0:0,0:0:0:0:
33,105,151784,5,2,0:0:0:0:
122,34,151963,1,0,0:0:0:0:
184,129,152141,1,0,0:0:0:0:
95,200,152320,1,0,0:0:0:0:
198,54,152498,2,0,P|234:43|305:52,1,100,2|0,0:0|0:0,0:0:0:0:
178,206,153213,1,2,0:0:0:0:
376,99,153570,1,0,0:0:0:0:
373,124,153659,1,0,0:0:0:0:
370,149,153748,1,0,0:0:0:0:
366,173,153837,1,0,0:0:0:0:
363,198,153927,1,2,0:0:0:0:
190,46,154284,1,0,0:0:0:0:
423,37,154641,6,0,P|440:61|448:87,1,50,2|0,0:0|0:0,0:0:0:0:
291,219,154998,2,0,P|289:193|298:159,1,50
340,35,155355,1,2,0:0:0:0:
457,258,155713,1,0,0:0:0:0:
186,241,156070,1,2,0:0:0:0:
407,111,156427,2,0,L|450:108,2,33.3333333333333
316,179,156784,2,0,P|311:202|315:281,1,100,2|0,0:0|0:0,0:0:0:0:
501,151,157498,5,2,0:0:0:0:
281,69,157855,2,0,L|241:60,2,33.3333333333333
394,147,158213,2,0,P|400:188|385:252,1,100,2|0,0:0|0:0,0:0:0:0:
104,232,158927,1,2,0:0:0:0:
281,68,159284,1,0,0:0:0:0:
281,312,159641,1,0,0:0:0:0:
281,312,160355,6,0,P|284:266|269:227,1,80,2|0,0:0|0:0,0:0:0:0:
205,104,161070,2,0,P|202:58|217:19,1,80,2|0,0:0|0:0,0:0:0:0:
369,84,161784,2,0,P|380:122|376:161,1,80,2|0,0:0|0:0,0:0:0:0:
184,286,162498,1,2,0:0:0:0:
184,286,163213,6,0,L|182:242,1,40,2|0,0:0|0:0,0:0:0:0:
101,121,163570,2,0,L|95:77,1,40
64,245,163927,1,2,0:0:0:0:
226,110,164284,1,0,0:0:0:0:
193,302,164641,1,2,0:0:0:0:
97,109,164998,2,0,L|84:74,2,26.6666666666667
150,189,165355,1,2,0:0:0:0:
299,36,165713,1,0,0:0:0:0:
320,248,166070,6,0,P|320:299|312:337,1,80,2|0,0:0|0:0,0:0:0:0:
193,131,166784,2,0,L|276:139,1,80,2|0,0:0|0:0,0:0:0:0:
479,213,167498,2,0,L|396:221,1,80,2|0,0:0|0:0,0:0:0:0:
191,253,168213,1,2,0:0:0:0:
191,253,168927,6,0,P|188:222|191:206,1,40,2|0,0:0|0:0,0:0:0:0:
294,119,169284,2,0,P|301:139|303:160,1,40
314,287,169641,2,0,P|320:252|354:211,1,80,2|0,0:0|0:0,0:0:0:0:
512,59,170355,1,2,0:0:0:0:
458,330,170713,2,0,L|453:360,2,26.6666666666667
505,243,171070,1,2,0:0:0:0:
317,304,171427,1,0,0:0:0:0:
155,185,171784,6,0,P|112:174|67:179,1,80,2|0,0:0|0:0,0:0:0:0:
226,332,172498,1,2,0:0:0:0:
265,123,172855,2,0,L|271:88,2,26.6666666666667
320,211,173213,2,0,P|345:216|400:193,1,80,2|0,0:0|0:0,0:0:0:0:
496,45,173927,1,2,0:0:0:0:
496,45,174641,6,0,P|463:36|450:37,1,40,2|0,0:0|0:0,0:0:0:0:
340,118,174998,2,0,L|341:167,1,40
480,237,175355,1,2,0:0:0:0:
369,19,175713,1,0,0:0:0:0:
367,266,176070,1,2,0:0:0:0:
259,72,176427,2,0,L|241:41,2,26.6666666666667
332,145,176784,1,2,0:0:0:0:
83,143,177141,1,0,0:0:0:0:
210,3,177498,6,0,L|212:90,1,80,2|0,0:0|0:0,0:0:0:0:
222,313,178213,1,2,0:0:0:0:
343,141,178570,2,0,L|362:110,2,26.6666666666667
366,235,178927,1,2,0:0:0:0:
178,132,179284,1,0,0:0:0:0:
457,52,179641,1,2,0:0:0:0:
457,52,180355,5,2,0:0:0:0:
348,29,180534,1,0,0:0:0:0:
368,190,180713,1,0,0:0:0:0:
390,100,180891,1,0,0:0:0:0:
252,168,181070,1,2,0:0:0:0:
54,39,181427,2,0,L|29:25,2,26.6666666666667
153,27,181784,1,2,0:0:0:0:
165,303,182141,1,0,0:0:0:0:
360,102,182498,1,2,0:0:0:0:
