osu file format v14

[General]
AudioFilename: Kake Nukeru Anime Song Medley .mp3
AudioLeadIn: 600
PreviewTime: 541127
Countdown: 0
SampleSet: Soft
StackLeniency: 0.7
Mode: 0
LetterboxInBreaks: 1
WidescreenStoryboard: 1

[Editor]
DistanceSpacing: 0.5
BeatDivisor: 4
GridSize: 4
TimelineZoom: 4.400004

[Metadata]
Title:Kakenukeru Anime Song Medley IV
TitleUnicode:駆け抜けるアニソンメドレーⅣ
Artist:M.Iz
ArtistUnicode:M.Iz
Creator:monstrata
Version:TWO DIMENSIONS
Source:
Tags:anison sprint remix marathon datsujip 元M.I.
BeatmapID:667021
BeatmapSetID:297110

[Difficulty]
HPDrainRate:4
CircleSize:4
OverallDifficulty:8
ApproachRate:9
SliderMultiplier:1.7
SliderTickRate:2

[Events]
//Background and Video events
0,0,"charming-anime-girl-pink-music-anime-girl-music-freak-list-news-network-yaoi-here-games-2013-movies-season-animecrazy.jpg",0,0
//Break Periods
2,72890,82090
2,159140,172090
2,272890,276777
2,319877,329277
2,420077,429277
2,500077,508027
2,592576,601777
2,632377,641777
//Storyboard Layer 0 (Background)
//Storyboard Layer 1 (Fail)
//Storyboard Layer 2 (Pass)
//Storyboard Layer 3 (Foreground)
//Storyboard Sound Samples

[TimingPoints]
1440,312.5,4,2,0,50,1,0
6440,-133.333333333333,4,2,1,50,0,0
10815,-100,4,2,1,50,0,0
11440,-100,4,1,1,60,0,0
21518,-100,4,1,0,35,0,0
21752,-100,4,1,0,45,0,0
22065,-100,4,1,0,55,0,0
22377,-100,4,1,0,65,0,0
22533,-100,4,1,1,70,0,0
198002,-100,4,1,1,50,0,0
198080,-100,4,1,1,70,0,0
277377,312.5,4,1,1,70,1,0
508627,-100,4,1,0,30,0,0
508939,-100,4,1,0,40,0,0
509252,-100,4,1,0,50,0,0
509564,-100,4,1,1,70,0,0
682377,-133.333333333333,4,1,0,50,0,0
684720,-100,4,1,1,70,0,0
746595,-133.333333333333,4,1,0,50,0,0
747377,-100,4,1,1,70,0,0

[Colours]
Combo1 : 237,126,237
Combo2 : 97,218,218
Combo3 : 222,109,121
Combo4 : 174,40,61

[HitObjects]
128,128,1440,5,2,2:0:0:0:
320,64,2690,5,2,2:0:0:0:
384,256,3940,5,2,2:0:0:0:
192,320,5190,5,2,2:0:0:0:
207,121,6440,6,0,P|275:56|369:50,1,191.250007295609,2|0,2:0|2:0,2:0:0:0:
280,216,7377,1,0,2:0:0:0:
161,231,7690,6,0,P|88:133|139:23,1,255.000009727478,2|0,2:0|2:0,2:0:0:0:
208,121,8627,1,0,2:0:0:0:
279,215,8940,6,0,P|253:305|172:351,1,191.250007295609,2|0,2:0|2:0,2:0:0:0:
161,231,9721,1,0,2:0:0:0:
208,121,10033,2,0,L|239:52,1,63.7500024318696,2|0,2:0|2:0,2:0:0:0:
125,131,10346,2,0,L|49:138,2,63.7500024318696,0|0|0,2:0|2:0|2:0,2:0:0:0:
175,197,10815,5,2,0:2:0:0:
229,259,10971,2,0,L|340:234,1,85,0|8,0:0|0:2,2:0:0:0:
337,162,11283,1,0,0:0:0:0:
337,162,11361,1,0,0:0:0:0:
337,162,11440,6,0,P|384:94|462:63,2,170,4|8|0,0:0|0:0|0:0,0:0:0:0:
305,309,12377,1,8,0:0:0:0:
194,206,12690,6,0,P|112:190|36:224,2,170,0|8|0,0:0|0:0|0:0,0:0:0:0:
305,309,13627,1,8,0:0:0:0:
337,163,13940,6,0,L|360:73,1,85,0|2,0:0|2:0,0:0:0:0:
276,102,14252,2,0,L|186:127,1,85,8|2,0:0|2:0,0:0:0:0:
253,185,14565,1,0,0:0:0:0:
313,244,14721,1,2,2:0:0:0:
394,221,14877,1,8,0:0:0:0:
414,139,15033,1,2,2:0:0:0:
352,80,15190,6,0,L|264:27,1,85,0|2,0:0|2:0,0:0:0:0:
245,110,15502,2,0,L|155:159,1,85,8|2,0:0|2:0,0:0:0:0:
217,217,15815,2,0,L|214:319,1,85,0|2,0:0|2:0,0:0:0:0:
295,294,16127,2,0,L|382:347,1,85,8|2,0:0|2:0,0:0:0:0:
441,297,16440,5,4,1:2:0:0:
443,212,16596,1,0,0:0:0:0:
370,167,16752,1,8,0:0:0:0:
294,207,16908,1,0,0:0:0:0:
219,160,17065,2,0,P|250:126|310:122,1,85,0|2,0:0|0:2,0:0:0:0:
370,167,17377,1,8,0:0:0:0:
368,252,17533,6,0,P|337:286|277:290,1,85,2|0,3:0|0:0,0:0:0:0:
218,247,17846,1,0,0:0:0:0:
219,160,18002,1,8,0:0:0:0:
144,115,18158,1,0,0:0:0:0:
67,157,18315,2,0,L|64:251,1,85,2|2,3:0|2:0,0:0:0:0:
142,289,18627,1,8,0:0:0:0:
218,247,18783,1,0,0:0:0:0:
144,115,18940,5,2,0:2:0:0:
142,202,19096,1,0,0:0:0:0:
294,117,19252,1,8,0:0:0:0:
220,73,19409,1,0,0:0:0:0:
218,247,19565,1,2,0:2:0:0:
370,167,19721,1,0,0:0:0:0:
220,73,19877,1,8,0:0:0:0:
142,289,20033,6,0,P|185:328|222:333,1,85,4|0,0:0|0:0,0:0:0:0:
294,207,20346,1,0,0:0:0:0:
144,115,20502,2,0,P|88:132|65:162,1,85,12|0,0:0|0:0,0:0:0:0:
218,247,20815,1,2,2:0:0:0:
219,160,20971,1,0,2:0:0:0:
142,202,21127,1,0,2:0:0:0:
294,292,21283,1,2,2:0:0:0:
256,192,21361,12,0,22533,0:0:0:0:
190,192,22690,6,0,L|144:284,1,85,4|2,0:0|0:2,0:0:0:0:
288,182,23002,2,0,L|390:175,1,85,8|2,0:0|0:2,0:0:0:0:
230,102,23315,2,0,L|173:16,1,85,0|2,0:0|0:2,0:0:0:0:
190,192,23627,1,8,0:0:0:0:
247,271,23783,1,0,0:0:0:0:
326,92,23940,5,2,0:2:0:0:
230,102,24096,1,0,0:0:0:0:
288,182,24252,1,8,0:0:0:0:
267,14,24408,1,0,0:0:0:0:
131,116,24565,2,0,P|104:147|93:188,1,85,2|0,3:0|0:0,0:0:0:0:
247,271,24877,2,0,P|274:239|285:198,1,85,8|0,0:0|0:0,0:0:0:0:
190,192,25190,6,0,P|152:250|205:358,1,170,2|8,0:2|1:0,0:0:0:0:
230,102,25815,2,0,B|139:108|139:108|97:149,2,127.5,2|0|0,0:2|0:0|0:0,0:0:0:0:
333,147,26440,6,0,L|430:138,1,85
442,247,26752,1,8,0:0:0:0:
300,291,26908,1,0,0:0:0:0:
189,191,27065,1,8,3:1:0:0:
184,170,27143,1,0,3:1:0:0:
182,149,27221,1,0,3:1:0:0:
183,127,27299,1,0,3:1:0:0:
188,107,27377,1,8,3:1:0:0:
195,87,27455,1,0,3:1:0:0:
205,68,27533,1,0,3:1:0:0:
217,50,27611,1,0,3:1:0:0:
232,37,27690,6,0,P|271:11|338:-1,1,85,4|0,0:0|0:0,0:0:0:0:
333,147,28002,1,8,0:0:0:0:
442,247,28158,1,0,0:0:0:0:
474,102,28315,2,0,P|458:63|423:25,1,85
333,147,28627,1,8,0:0:0:0:
300,291,28783,1,0,0:0:0:0:
189,191,28940,6,0,P|183:137|210:64,2,127.5,2|2|2,0:2|0:2|0:2,0:0:0:0:
300,291,29565,1,8,3:1:0:0:
320,297,29643,1,0,3:1:0:0:
341,300,29721,1,0,3:1:0:0:
361,295,29799,1,0,3:1:0:0:
378,282,29877,1,8,3:1:0:0:
394,268,29955,1,0,3:1:0:0:
413,259,30033,1,0,3:1:0:0:
434,259,30111,1,0,3:1:0:0:
454,266,30190,6,0,P|484:333|437:382,2,127.5,2|2|2,0:2|0:2|0:2,0:0:0:0:
333,147,30815,1,0,0:2:0:0:
241,200,30971,1,2,0:2:0:0:
331,358,31127,1,8,0:0:0:0:
332,253,31283,1,2,0:2:0:0:
149,252,31440,5,0,0:0:0:0:
240,305,31596,1,2,0:2:0:0:
242,95,31752,1,8,0:0:0:0:
150,146,31908,1,0,0:0:0:0:
241,200,32065,1,8,3:1:0:0:
261,203,32143,1,0,3:1:0:0:
283,201,32221,1,0,3:1:0:0:
302,193,32299,1,0,3:1:0:0:
317,178,32377,1,8,3:1:0:0:
329,161,32455,1,0,3:1:0:0:
340,143,32533,1,0,3:1:0:0:
353,125,32611,1,0,3:1:0:0:
370,113,32690,6,0,L|435:113,2,42.5,4|0|0,0:2|0:0|0:0,0:0:0:0:
242,95,33002,2,0,L|134:95,1,85,8|2,0:0|0:2,0:0:0:0:
135,95,33236,1,0,0:0:0:0:
114,95,33314,1,2,0:2:0:0:
34,220,33471,1,2,0:2:0:0:
172,166,33627,1,8,0:0:0:0:
28,128,33783,1,2,0:2:0:0:
122,243,33940,5,2,0:2:0:0:
122,243,34018,1,0,0:0:0:0:
122,243,34096,1,2,0:2:0:0:
265,283,34252,2,0,L|373:283,1,85,8|2,0:0|0:2,0:0:0:0:
372,283,34486,1,0,0:0:0:0:
393,283,34564,1,2,0:2:0:0:
473,158,34721,1,2,0:2:0:0:
335,212,34877,1,8,0:0:0:0:
479,250,35033,1,0,0:0:0:0:
385,135,35190,6,0,P|312:123|244:219,2,170,2|8|2,0:2|0:0|0:2,0:0:0:0:
479,250,35971,1,0,0:0:0:0:
375,355,36127,1,8,0:0:0:0:
335,212,36283,1,0,0:0:0:0:
435,58,36440,6,0,P|474:109|423:218,2,170,2|8|2,0:2|0:0|0:2,0:0:0:0:
252,49,37221,1,0,0:0:0:0:
335,212,37377,1,8,0:0:0:0:
343,53,37533,1,0,1:0:0:0:
343,53,37611,1,0,0:0:0:0:
343,53,37690,6,0,L|349:-16,2,42.5,4|0|0,0:2|0:0|0:0,0:0:0:0:
243,207,38002,2,0,P|255:260|300:296,1,85,8|2,0:0|0:2,0:0:0:0:
285,299,38236,1,0,0:0:0:0:
298,314,38315,1,2,0:2:0:0:
431,245,38471,1,2,0:2:0:0:
304,164,38627,1,8,0:0:0:0:
384,318,38783,6,0,L|412:372,2,42.5,0|0|2,0:0|0:0|0:2,0:0:0:0:
390,167,39096,2,0,L|444:138,2,42.5,0|0|8,0:0|0:0|0:0,0:0:0:0:
262,85,39408,1,0,0:0:0:0:
262,85,39486,1,0,0:0:0:0:
262,85,39565,2,0,L|233:30,2,42.5,2|0|0,0:2|0:0|0:0,0:0:0:0:
254,187,39877,1,8,3:1:0:0:
247,207,39955,1,0,3:0:0:0:
239,227,40033,1,0,3:0:0:0:
232,247,40111,1,0,3:0:0:0:
225,267,40190,5,2,3:0:0:0:
107,258,40346,1,0,0:0:0:0:
55,151,40502,2,0,L|85:71,1,85,8|0,0:0|0:0,0:0:0:0:
174,160,40815,1,2,0:2:0:0:
225,267,40971,1,0,0:0:0:0:
160,366,41127,2,0,L|75:378,1,85,8|0,0:0|0:0,0:0:0:0:
107,258,41440,5,2,0:2:0:0:
174,160,41596,1,0,0:0:0:0:
292,167,41752,1,8,0:0:0:0:
344,272,41908,1,0,0:0:0:0:
279,369,42065,1,8,3:1:0:0:
261,379,42143,1,0,3:1:0:0:
241,384,42221,1,0,3:1:0:0:
220,382,42299,1,0,3:1:0:0:
203,370,42377,1,8,3:1:0:0:
190,353,42455,1,0,3:1:0:0:
186,333,42533,1,0,3:1:0:0:
189,311,42611,1,0,3:1:0:0:
201,295,42690,6,0,L|267:241,2,85,4|0|8,0:0|0:0|0:0,0:0:0:0:
96,324,43158,2,0,P|105:245|192:186,1,170,2|0,0:2|0:0,2:0:0:0:
201,295,43627,1,8,2:1:0:0:
61,167,43783,6,0,P|111:127|229:114,1,170,2|0,0:2|0:0,0:0:0:0:
327,158,44252,1,8,2:1:0:0:
201,295,44408,2,0,B|164:320|164:320|104:314|68:280|94:223,1,170,2|0,0:2|0:0,0:0:0:0:
225,190,44877,1,8,2:1:0:0:
407,232,45033,6,0,P|408:297|323:371,1,170,2|0,0:2|0:0,0:0:0:0:
201,295,45502,1,8,2:1:0:0:
327,158,45658,2,0,P|382:124|489:161,1,170,2|0,0:2|0:0,0:0:0:0:
304,264,46127,1,8,2:1:0:0:
225,190,46283,6,0,P|223:125|308:51,1,170,2|0,0:2|0:0,0:0:0:0:
407,232,46752,1,8,2:1:0:0:
278,368,46908,2,0,L|93:347,1,170,2|0,0:2|0:0,0:0:0:0:
251,279,47377,2,0,L|343:289,1,85,8|0,2:1|0:0,0:0:0:0:
407,232,47690,5,4,0:0:0:0:
393,141,47846,1,0,0:0:0:0:
307,107,48002,1,8,0:0:0:0:
234,164,48158,2,0,P|197:208|137:223,1,85,2|0,0:2|0:0,0:0:0:0:
148,129,48471,1,0,0:0:0:0:
221,72,48627,1,8,0:0:0:0:
307,107,48783,6,0,L|321:210,1,85,2|2,0:3|0:2,0:0:0:0:
407,232,49096,1,0,0:0:0:0:
393,141,49252,2,8,L|379:39,1,85
234,164,49565,1,2,0:2:0:0:
319,198,49721,1,0,0:0:0:0:
294,15,49877,1,8,0:0:0:0:
221,72,50033,1,0,0:0:0:0:
247,256,50190,6,0,L|260:347,1,85,2|0,3:0|0:0,0:0:0:0:
319,198,50502,2,0,L|404:232,1,85,8|0,0:0|0:0,0:0:0:0:
159,223,50815,2,0,L|86:279,1,85,2|0,3:0|0:0,0:0:0:0:
307,107,51127,2,0,L|379:50,1,85,8|0,0:0|0:0,0:0:0:0:
148,129,51440,5,2,0:2:0:0:
234,164,51596,1,0,0:0:0:0:
134,37,51752,1,8,0:0:0:0:
61,95,51908,1,0,0:0:0:0:
159,223,52065,1,8,3:1:0:0:
173,238,52143,1,0,3:1:0:0:
191,249,52221,1,0,3:1:0:0:
211,257,52299,1,0,3:1:0:0:
232,260,52377,1,8,3:1:0:0:
253,258,52455,1,0,3:1:0:0:
273,251,52533,1,0,3:1:0:0:
291,241,52611,1,0,3:1:0:0:
307,226,52690,6,0,P|325:195|326:139,1,85,4|0,0:0|0:0,0:0:0:0:
160,101,53002,2,0,P|142:132|141:188,1,85,8|0,0:0|0:0,0:0:0:0:
234,164,53315,1,0,0:0:0:0:
251,67,53471,1,0,0:0:0:0:
177,5,53627,1,8,0:0:0:0:
85,37,53783,1,0,0:0:0:0:
67,132,53940,6,0,P|47:169|46:211,1,85,2|0,0:2|0:0,0:0:0:0:
213,258,54252,2,0,P|232:220|233:178,1,85,8|0,0:0|0:0,0:0:0:0:
141,196,54565,1,0,0:0:0:0:
124,289,54721,1,0,0:0:0:0:
195,349,54877,1,8,0:0:0:0:
284,320,55033,2,0,L|375:288,1,85
327,140,55346,5,0,0:0:0:0:
302,227,55502,1,8,0:0:0:0:
451,270,55658,1,0,0:0:0:0:
389,205,55814,1,2,0:2:0:0:
284,320,55971,1,0,0:0:0:0:
364,291,56127,1,8,0:0:0:0:
413,118,56283,2,0,P|385:72|352:53,1,85,2|0,0:2|0:0,0:0:0:0:
269,68,56596,5,0,0:0:0:0:
235,154,56752,1,8,0:0:0:0:
327,140,56908,1,0,0:0:0:0:
327,140,56986,1,0,0:0:0:0:
327,140,57065,1,0,0:0:0:0:
269,68,57221,1,0,0:0:0:0:
235,154,57377,1,8,0:0:0:0:
200,240,57533,1,0,0:0:0:0:
200,240,57611,1,0,0:0:0:0:
200,240,57690,6,0,L|150:350,1,85,4|0,0:0|0:0,0:0:0:0:
327,140,58002,2,0,L|447:128,1,85,8|0,0:0|0:0,0:0:0:0:
177,82,58315,2,0,L|106:-16,1,85,2|0,0:2|0:0,0:0:0:0:
293,226,58627,1,8,0:0:0:0:
269,68,58783,6,0,P|314:48|372:59,1,85,0|0,0:0|0:0,0:0:0:0:
327,140,59096,1,0,0:0:0:0:
235,154,59252,1,8,0:0:0:0:
177,82,59408,2,0,P|182:33|220:-11,1,85,0|0,0:0|0:0,0:0:0:0:
327,140,59721,1,0,0:0:0:0:
293,226,59877,1,8,0:0:0:0:
200,240,60033,1,0,0:0:0:0:
163,324,60190,6,0,L|66:393,2,85,2|0|8,0:2|0:0|0:0,0:0:0:0:
235,154,60658,1,0,0:0:0:0:
235,154,60736,1,0,0:0:0:0:
235,154,60815,1,0,0:0:0:0:
364,291,60971,1,0,0:0:0:0:
327,140,61127,1,8,0:0:0:0:
200,240,61283,1,0,0:0:0:0:
268,68,61440,6,0,P|306:48|348:49,1,85,2|0,0:2|0:0,0:0:0:0:
389,205,61752,1,8,0:0:0:0:
235,154,61908,2,0,P|200:130|178:88,1,85,0|0,0:0|0:0,0:0:0:0:
269,68,62221,1,0,0:0:0:0:
293,226,62377,1,8,0:0:0:0:
327,140,62533,1,0,0:0:0:0:
200,240,62690,6,0,L|158:343,1,85,4|0,0:0|0:0,0:0:0:0:
143,168,63002,2,0,L|74:80,1,85,8|0,0:0|0:0,0:0:0:0:
293,226,63315,2,0,L|361:313,1,85,0|0,0:0|0:0,0:0:0:0:
327,140,63627,2,0,L|368:36,1,85,8|0,0:0|0:0,0:0:0:0:
235,154,63940,5,0,0:0:0:0:
200,240,64096,1,0,0:0:0:0:
256,313,64252,1,8,0:0:0:0:
235,154,64408,2,0,L|219:10,1,85,0|0,0:0|0:0,0:0:0:0:
143,168,64721,1,0,0:0:0:0:
200,240,64877,1,8,0:0:0:0:
293,226,65033,1,0,0:0:0:0:
314,223,65111,1,0,0:0:0:0:
335,220,65190,6,0,L|430:208,1,85,2|0,0:2|0:0,0:0:0:0:
479,100,65502,2,0,L|394:89,1,85,8|0,0:0|0:0,0:0:0:0:
373,94,65736,1,0,0:0:0:0:
353,99,65815,2,0,L|268:88,1,85,2|0,0:2|0:0,0:0:0:0:
143,168,66127,2,0,L|58:157,1,85,8|0,0:0|0:0,0:0:0:0:
177,82,66440,5,2,0:2:0:0:
235,154,66596,1,0,0:0:0:0:
200,240,66752,1,8,0:0:0:0:
256,313,66908,1,0,0:0:0:0:
256,313,66986,1,0,0:0:0:0:
256,313,67065,1,2,0:2:0:0:
347,301,67221,1,0,0:0:0:0:
235,154,67377,1,8,0:0:0:0:
163,324,67533,1,0,0:0:0:0:
163,324,67611,1,0,0:0:0:0:
163,324,67690,6,0,L|49:339,1,85,4|0,0:0|1:0,0:0:0:0:
235,154,68002,2,0,L|349:139,1,85,8|0,0:0|0:0,0:0:0:0:
335,128,68236,1,0,0:0:0:0:
351,115,68315,2,0,L|465:100,1,85,2|0,0:2|1:0,0:0:0:0:
382,216,68627,1,8,0:0:0:0:
320,14,68783,6,0,L|434:-1,1,85,0|2,0:0|0:2,0:0:0:0:
435,103,69096,1,0,0:0:0:0:
382,216,69252,2,0,L|268:231,1,85,8|0,0:0|0:0,0:0:0:0:
116,264,69565,1,2,0:2:0:0:
233,157,69721,1,0,0:0:0:0:
178,333,69877,1,8,0:0:0:0:
144,177,70033,1,0,0:0:0:0:
268,314,70190,6,0,L|382:329,1,85,2|0,0:2|0:0,0:0:0:0:
382,216,70502,1,8,0:0:0:0:
302,135,70658,1,0,0:0:0:0:
160,272,70815,1,2,0:2:0:0:
271,244,70971,1,0,0:0:0:0:
224,52,71127,1,8,0:0:0:0:
81,188,71283,6,0,P|44:257|85:360,1,170,0|0,0:0|0:0,0:0:0:0:
160,272,71752,1,8,0:0:0:0:
192,162,71908,1,0,0:0:0:0:
112,79,72065,1,8,3:1:0:0:
92,93,72143,1,0,3:1:0:0:
78,112,72221,1,0,3:1:0:0:
70,134,72299,1,0,3:1:0:0:
70,158,72377,1,8,3:1:0:0:
68,182,72455,1,0,3:1:0:0:
59,204,72533,1,0,3:1:0:0:
44,222,72611,1,0,3:1:0:0:
25,237,72690,5,4,0:0:0:0:
156,52,82690,6,0,P|109:48|34:151,2,170,4|2|0,2:2|2:0|2:0,2:0:0:0:
256,192,83627,1,2,2:0:0:0:
356,52,83940,2,0,P|403:48|478:151,2,170,0|2|0,2:0|2:0|2:0,2:0:0:0:
256,192,84877,1,2,2:0:0:0:
140,348,85190,6,0,B|104:376|104:376|20:376|0:284,2,170,0|2|0,2:0|2:0|2:0,2:0:0:0:
256,192,86127,1,2,2:0:0:0:
372,348,86440,2,0,B|408:376|408:376|492:376|512:284,2,170,0|2|0,2:0|2:0|2:0,2:0:0:0:
256,192,87377,1,2,2:0:0:0:
177,38,87690,6,0,P|113:26|73:46,1,85,4|0,2:0|2:0,2:0:0:0:
130,118,88002,2,0,P|68:139|43:176,1,85,8|0,2:0|2:0,2:0:0:0:
129,210,88315,2,0,P|86:259|83:304,1,85,0|0,2:0|2:0,2:0:0:0:
174,290,88627,2,0,P|162:354|182:394,1,85,8|0,2:0|2:0,2:0:0:0:
344,371,88940,6,0,P|351:329|338:290,1,85,2|0,2:0|2:0,2:0:0:0:
429,277,89252,2,0,P|414:237|383:210,1,85,8|0,2:0|2:0,2:0:0:0:
455,153,89565,2,0,P|423:126|382:118,1,85,0|0,2:0|2:0,2:0:0:0:
416,31,89877,2,0,P|374:24|335:38,1,85,8|0,2:0|2:0,2:0:0:0:
257,123,90190,6,0,B|225:203|293:203|257:287,1,170,2|8,2:0|2:0,2:0:0:0:
141,317,90658,1,0,2:0:0:0:
94,206,90815,2,0,B|178:170|178:238|258:206,1,170,2|8,2:0|2:0,2:0:0:0:
364,147,91283,1,0,2:0:0:0:
156,21,91440,5,2,2:0:0:0:
153,142,91597,1,2,2:0:0:0:
364,147,91752,1,8,2:0:0:0:
259,83,91908,1,2,2:0:0:0:
258,205,92065,1,8,3:2:0:0:
272,221,92143,1,0,3:2:0:0:
290,232,92221,1,0,3:2:0:0:
311,235,92299,1,0,3:2:0:0:
332,231,92377,1,8,3:2:0:0:
353,227,92455,1,0,3:2:0:0:
374,227,92533,1,0,3:2:0:0:
394,235,92611,1,0,3:2:0:0:
410,250,92690,6,0,L|482:319,1,85,4|0,0:0|0:0,0:0:0:0:
351,323,93002,1,8,0:0:0:0:
364,147,93158,2,2,L|459:119,1,85,2|2,0:2|2:0,2:0:0:0:
259,83,93471,2,0,L|282:-13,1,85,2|8,0:2|0:0,0:0:0:0:
153,142,93783,1,2,0:2:0:0:
254,327,93940,5,0,0:0:0:0:
256,204,94096,1,2,0:2:0:0:
45,200,94252,1,8,0:0:0:0:
150,263,94408,1,2,0:2:0:0:
259,83,94565,1,0,0:0:0:0:
153,142,94721,1,2,0:2:0:0:
361,268,94877,1,8,0:0:0:0:
364,147,95033,1,2,0:2:0:0:
254,327,95190,6,0,P|289:371|355:383,1,85,4|0,0:2|0:0,0:0:0:0:
361,268,95502,1,8,0:0:0:0:
364,147,95658,1,0,0:0:0:0:
364,147,95736,1,0,0:0:0:0:
364,147,95815,1,0,0:0:0:0:
259,83,95971,1,0,0:0:0:0:
256,204,96127,1,8,0:0:0:0:
361,268,96283,1,0,0:0:0:0:
468,209,96440,6,0,P|484:158|479:110,1,85,2|0,0:2|0:0,0:0:0:0:
364,147,96752,1,8,0:0:0:0:
256,204,96908,1,0,0:0:0:0:
256,204,96986,1,0,0:0:0:0:
256,204,97065,1,2,0:2:0:0:
254,327,97221,1,0,0:0:0:0:
361,268,97377,1,8,0:0:0:0:
364,147,97533,1,0,0:0:0:0:
259,83,97690,6,0,L|162:24,1,85,4|0,0:2|0:0,0:0:0:0:
254,327,98002,2,0,L|351:386,1,85,8|0,0:0|0:0,0:0:0:0:
364,147,98315,2,0,L|366:33,1,85,2|0,3:0|0:0,0:0:0:0:
150,263,98627,2,0,L|147:376,1,85,8|0,0:0|0:0,0:0:0:0:
361,268,98940,6,0,L|460:213,1,85,2|0,3:0|0:0,0:0:0:0:
153,142,99252,2,0,L|53:196,1,85,8|0,0:0|0:0,0:0:0:0:
256,204,99565,1,0,0:0:0:0:
259,83,99721,1,0,0:0:0:0:
150,263,99877,1,8,0:0:0:0:
254,327,100033,1,0,0:0:0:0:
153,142,100190,6,0,P|88:159|32:247,2,170,2|8|0,3:0|0:0|0:0,0:0:0:0:
256,204,100971,1,0,0:0:0:0:
254,327,101127,1,8,0:0:0:0:
150,263,101283,1,0,0:0:0:0:
364,147,101440,6,0,B|415:125|456:147|456:147|488:119,2,127.5,4|2|0,0:0|3:0|0:0,0:0:0:0:
256,204,102065,2,0,P|214:195|178:173,1,85,2|0,0:2|0:0,0:0:0:0:
259,83,102377,1,8,3:1:0:0:
280,83,102455,1,0,3:1:0:0:
301,83,102533,1,0,3:1:0:0:
322,83,102611,1,0,3:1:0:0:
344,84,102690,6,0,P|386:92|422:119,1,85,4|0,0:0|0:0,0:0:0:0:
343,190,103002,2,0,P|315:222|273:240,1,85,8|0,0:0|0:0,0:0:0:0:
251,136,103315,2,0,P|236:95|242:50,1,85,0|0,0:0|0:0,0:0:0:0:
344,84,103627,1,8,0:0:0:0:
434,243,103783,6,0,L|431:354,2,85,0|2|0,0:0|0:2|0:0,0:0:0:0:
435,137,104252,2,0,L|524:90,1,85,8|2,0:0|0:2,0:0:0:0:
344,84,104565,2,0,L|347:-16,1,85,0|2,0:0|0:2,0:0:0:0:
251,136,104877,2,0,L|165:82,1,85,8|2,0:0|0:2,0:0:0:0:
249,241,105190,5,0,0:0:0:0:
341,297,105346,1,2,0:2:0:0:
435,137,105502,1,8,0:0:0:0:
343,190,105658,1,2,0:2:0:0:
434,350,105815,1,0,0:0:0:0:
434,243,105971,2,0,L|435:154,1,85,2|8,0:2|0:0,0:0:0:0:
249,241,106283,6,0,P|235:281|236:324,1,85,2|0,0:2|2:0,0:0:0:0:
434,243,106596,1,0,0:0:0:0:
251,136,106752,1,8,0:0:0:0:
341,297,106908,1,0,0:0:0:0:
344,84,107065,1,0,0:0:0:0:
158,187,107221,1,0,0:0:0:0:
343,190,107377,1,8,3:1:0:0:
364,187,107455,1,0,3:1:0:0:
384,181,107533,1,0,3:1:0:0:
403,172,107611,1,0,3:1:0:0:
420,159,107690,5,2,0:2:0:0:
344,84,107846,1,0,0:0:0:0:
251,136,108002,1,8,0:0:0:0:
249,241,108158,2,0,L|198:329,1,85,0|2,0:0|3:0,0:0:0:0:
158,187,108471,2,0,L|108:99,1,85,0|8,0:0|0:0,0:0:0:0:
251,136,108783,6,0,P|329:174|350:267,1,170,0|0,0:0|0:0,0:0:0:0:
155,293,109252,2,0,L|54:292,1,85,8|0,0:0|0:0,0:0:0:0:
158,187,109565,2,0,L|108:99,1,85,2|0,0:2|0:0,0:0:0:0:
251,136,109877,2,0,L|302:48,1,85,8|0,0:0|0:0,0:0:0:0:
343,190,110190,6,0,L|444:190,1,85,4|0,0:2|0:0,0:0:0:0:
341,297,110502,2,0,B|283:297|283:297|221:275|216:180,1,170,8|2,0:0|0:2,0:0:0:0:
262,93,110971,1,0,0:0:0:0:
385,70,111127,1,8,0:0:0:0:
466,165,111283,6,0,P|464:220|445:265,1,85,0|2,0:0|0:2,0:0:0:0:
343,190,111596,1,0,0:0:0:0:
385,70,111752,2,0,P|433:44|482:38,1,85,8|0,0:0|0:0,0:0:0:0:
466,165,112065,1,0,0:0:0:0:
343,190,112221,1,0,0:0:0:0:
262,93,112377,2,0,L|186:2,1,85,8|0,0:0|0:0,0:0:0:0:
219,211,112690,6,0,L|295:302,1,85,2|0,0:2|0:0,0:0:0:0:
138,114,113002,1,8,0:0:0:0:
94,232,113158,2,0,L|53:343,1,85,0|0,0:0|0:0,0:0:0:0:
13,134,113471,2,0,L|53:22,1,85,0|8,0:0|0:0,0:0:0:0:
262,93,113783,6,0,P|299:114|334:169,1,85,0|2,0:0|0:2,0:0:0:0:
219,211,114096,1,0,0:0:0:0:
138,114,114252,2,0,L|178:2,1,85,8|0,0:0|0:0,0:0:0:0:
262,93,114565,1,2,2:0:0:0:
219,211,114721,1,0,0:0:0:0:
94,232,114877,1,8,0:0:0:0:
13,134,115033,1,0,0:0:0:0:
57,14,115190,6,0,L|168:14,1,85,8|0,3:0|0:0,0:0:0:0:
219,211,115502,1,8,0:0:0:0:
138,114,115658,2,0,L|249:114,1,85,8|0,3:0|0:0,0:0:0:0:
300,311,115971,1,8,0:0:0:0:
219,211,116127,2,0,L|330:211,1,85,8|0,3:0|0:0,0:0:0:0:
384,364,116440,5,0,0:0:0:0:
388,166,116596,1,0,0:0:0:0:
388,166,116674,1,0,0:0:0:0:
388,166,116752,1,8,0:0:0:0:
300,311,116908,1,0,0:0:0:0:
473,218,117065,1,8,3:1:0:0:
481,198,117143,1,0,3:1:0:0:
486,177,117221,1,0,3:1:0:0:
486,156,117299,1,0,3:1:0:0:
481,135,117377,1,8,3:1:0:0:
473,116,117455,1,0,3:1:0:0:
461,99,117533,1,0,3:1:0:0:
445,84,117611,1,0,3:1:0:0:
427,73,117690,6,0,L|326:73,1,85,4|0,1:0|0:0,0:0:0:0:
219,211,118002,1,8,2:1:0:0:
136,277,118158,2,0,P|117:181|184:111,1,170,2|0,2:0|0:0,0:0:0:0:
317,249,118627,1,8,2:1:0:0:
340,351,118783,6,0,B|294:363|294:363|248:353|214:326|203:244,1,170,2|0,2:0|0:0,0:0:0:0:
300,145,119252,1,8,2:1:0:0:
381,78,119408,2,0,P|405:154|350:239,1,170,2|0,2:0|0:0,0:0:0:0:
136,277,119877,1,8,2:1:0:0:
37,238,120033,6,0,B|26:182|26:182|80:72,1,170,2|0,2:0|0:0,0:0:0:0:
300,145,120502,1,8,2:1:0:0:
398,182,120658,2,0,B|409:238|409:238|355:348,1,170,2|0,2:0|0:0,0:0:0:0:
219,211,121127,1,8,2:1:0:0:
202,107,121283,6,0,P|255:47|369:64,1,170,2|0,2:0|0:0,0:0:0:0:
317,249,121752,1,8,0:0:0:0:
300,145,121908,1,0,0:0:0:0:
398,182,122065,1,0,0:0:0:0:
332,352,122221,1,8,0:0:0:0:
219,211,122377,1,8,0:0:0:0:
413,285,122533,6,8,L|508:321,2,85,8|12|8,0:0|0:2|0:0,0:0:0:0:
317,249,123002,1,8,2:1:0:0:
300,145,123158,2,0,P|225:119|140:140,1,170,2|0,2:0|0:0,0:0:0:0:
235,314,123627,1,8,2:1:0:0:
332,352,123783,6,0,P|395:314|412:208,1,170,2|0,2:0|0:0,0:0:0:0:
281,39,124252,1,8,2:1:0:0:
182,4,124408,2,0,B|163:44|181:80|192:96|192:96|192:179,1,170,2|0,2:0|0:0,0:0:0:0:
317,249,124877,1,8,2:1:0:0:
413,285,125033,6,0,P|418:228|328:147,1,170,2|0,2:0|0:0,0:0:0:0:
245,175,125502,2,0,L|145:202,1,85,8|0,2:1|0:0,0:0:0:0:
317,249,125815,1,0,0:0:0:0:
345,150,125971,1,0,0:0:0:0:
273,76,126127,2,0,L|173:103,1,85,8|0,0:0|0:0,0:0:0:0:
317,249,126440,5,2,2:0:0:0:
416,223,126596,1,8,0:0:0:0:
442,124,126752,1,8,0:0:0:0:
70,186,127065,6,0,L|62:230,4,28.3333333333333,8|0|0|0|0,3:1|3:0|3:0|3:0|3:0,3:0:0:0:
164,152,127377,2,0,L|171:108,4,28.3333333333333,8|0|0|0|0,3:1|3:0|3:0|3:0|3:0,3:0:0:0:
148,250,127690,5,4,1:0:0:0:
241,214,127846,1,0,0:0:0:0:
255,116,128002,2,0,L|269:16,1,85,8|0,0:0|2:0,0:0:0:0:
164,152,128315,1,2,0:2:0:0:
241,214,128471,1,0,0:0:0:0:
333,178,128627,2,0,L|426:140,1,85,8|0,0:0|2:0,0:0:0:0:
255,116,128940,5,2,0:2:0:0:
241,214,129096,1,0,0:0:0:0:
319,276,129252,2,0,L|398:338,1,85,8|0,0:0|2:0,0:0:0:0:
333,178,129565,1,2,0:2:0:0:
241,214,129721,1,0,0:0:0:0:
226,311,129877,1,8,0:0:0:0:
302,372,130033,1,0,0:0:0:0:
392,336,130190,6,0,L|512:352,1,85,0|2,0:0|0:2,0:0:0:0:
226,311,130502,2,0,L|153:400,1,85,8|2,0:0|0:2,0:0:0:0:
333,178,130815,2,0,L|405:88,1,85,0|2,0:0|0:2,0:0:0:0:
167,153,131127,2,0,L|46:136,1,85,8|2,0:0|0:2,0:0:0:0:
241,214,131440,5,0,0:0:0:0:
182,58,131596,1,0,0:0:0:0:
76,187,131752,1,8,0:0:0:0:
256,119,131908,1,0,0:0:0:0:
319,276,132065,1,8,3:1:0:0:
303,290,132143,1,0,3:1:0:0:
285,301,132221,1,0,3:1:0:0:
264,307,132299,1,0,3:1:0:0:
243,308,132377,1,8,3:1:0:0:
222,306,132455,1,0,3:1:0:0:
201,305,132533,1,0,3:1:0:0:
180,309,132611,1,0,3:1:0:0:
162,320,132690,6,0,L|103:348,2,42.5,4|0|0,2:0|0:0|2:0,0:0:0:0:
241,214,133002,2,0,L|300:186,2,42.5,8|0|0,0:0|0:0|2:0,0:0:0:0:
109,199,133315,1,2,0:2:0:0:
162,320,133471,1,0,0:0:0:0:
294,334,133627,1,8,0:0:0:0:
371,226,133783,1,0,0:0:0:0:
315,105,133940,6,0,L|285:42,2,42.5,2|0|0,0:2|0:0|2:0,0:0:0:0:
241,214,134252,2,0,L|271:277,2,42.5,8|0|0,0:0|0:0|2:0,0:0:0:0:
183,95,134565,1,2,0:2:0:0:
315,105,134721,1,0,0:0:0:0:
371,226,134877,1,8,0:0:0:0:
294,334,135033,1,0,0:0:0:0:
162,320,135190,6,0,L|63:309,1,85,2|0,3:0|0:0,0:0:0:0:
56,308,135424,1,0,0:0:0:0:
35,306,135502,1,8,0:0:0:0:
109,199,135658,1,0,0:0:0:0:
241,214,135815,2,0,L|340:224,1,85,2|0,3:0|0:0,0:0:0:0:
347,225,136049,1,0,0:0:0:0:
368,227,136127,1,8,0:0:0:0:
294,335,136283,1,0,0:0:0:0:
162,320,136440,5,12,3:1:0:0:
146,306,136518,1,0,3:1:0:0:
132,290,136596,1,0,3:1:0:0:
121,272,136674,1,0,3:1:0:0:
113,252,136752,1,12,3:1:0:0:
109,232,136830,1,0,3:1:0:0:
108,210,136908,1,0,3:1:0:0:
110,189,136986,1,0,3:1:0:0:
116,169,137065,6,0,L|146:105,1,42.5,12|0,0:0|0:0,0:0:0:0:
198,195,137221,2,0,L|227:259,1,42.5,8|0,0:0|0:0,0:0:0:0:
247,129,137377,2,0,L|276:64,1,42.5,8|0,0:0|0:0,0:0:0:0:
328,154,137533,2,0,L|357:218,1,42.5,8|0,0:0|0:0,0:0:0:0:
377,88,137690,6,0,L|493:51,2,85,4|2|8,0:0|2:0|0:0,0:0:0:0:
247,129,138158,1,0,0:0:0:0:
116,169,138315,2,0,L|0:132,2,85,0|2|8,0:0|2:0|0:0,0:0:0:0:
246,210,138783,1,0,0:0:0:0:
377,250,138940,5,2,0:2:0:0:
453,321,139096,1,0,0:0:0:0:
400,148,139252,1,8,0:0:0:0:
245,291,139408,1,0,0:0:0:0:
245,291,139486,1,0,0:0:0:0:
245,291,139565,1,0,0:0:0:0:
113,247,139721,1,2,0:2:0:0:
246,210,139877,1,8,0:0:0:0:
158,313,140033,1,2,0:2:0:0:
68,181,140190,6,0,L|-28:150,2,85,4|2|8,0:0|2:0|0:0,0:0:0:0:
246,210,140658,1,0,0:0:0:0:
424,239,140815,2,0,L|520:208,2,85,0|2|8,0:0|2:0|0:0,0:0:0:0:
245,291,141283,1,0,0:0:0:0:
67,320,141440,5,2,0:2:0:0:
87,213,141596,1,0,0:0:0:0:
168,349,141752,1,8,0:0:0:0:
246,210,141908,1,0,0:0:0:0:
246,210,141986,1,0,0:0:0:0:
246,210,142065,1,0,0:0:0:0:
324,71,142221,1,2,0:2:0:0:
180,136,142377,1,8,0:0:0:0:
333,169,142534,1,2,0:2:0:0:
228,51,142690,6,0,P|162:40|119:62,1,85,4|0,2:0|0:0,0:0:0:0:
324,71,143002,2,0,P|366:75|402:98,1,85,8|0,0:0|0:0,0:0:0:0:
180,136,143315,2,0,P|119:163|95:206,1,85
333,169,143627,2,0,P|364:197|379:236,1,85,8|0,0:0|0:0,0:0:0:0:
246,210,143940,5,2,2:0:0:0:
180,136,144096,1,0,0:0:0:0:
192,295,144252,1,8,0:0:0:0:
89,175,144408,1,0,0:0:0:0:
89,175,144486,1,0,0:0:0:0:
89,175,144565,1,0,0:0:0:0:
97,273,144721,1,0,0:0:0:0:
246,210,144877,1,8,0:0:0:0:
180,136,145033,1,0,0:0:0:0:
192,295,145190,6,0,L|308:324,1,85,2|0,2:0|0:0,0:0:0:0:
374,319,145502,2,0,L|350:237,1,85,8|0,0:0|0:0,0:0:0:0:
305,148,145815,2,0,L|246:210,2,85,0|0|8,0:0|0:0|0:0,0:0:0:0:
358,64,146283,1,0,0:0:0:0:
457,67,146439,5,2,2:0:0:0:
503,154,146596,1,0,0:0:0:0:
450,237,146752,2,0,L|418:288,3,42.5,8|0|0|0,3:1|3:1|3:1|3:1,3:1:0:0:
404,308,147065,2,0,L|350:336,3,42.5,8|0|8|0,3:1|3:1|3:1|3:1,3:1:0:0:
327,344,147377,2,0,L|266:341,3,42.5,8|0|8|0,3:1|3:1|3:1|3:1,3:1:0:0:
243,329,147690,6,0,P|227:277|248:227,1,85,4|0,2:0|0:0,0:0:0:0:
381,135,148002,2,0,P|344:175|290:182,1,85,8|0,0:0|0:0,0:0:0:0:
131,209,148315,1,2,0:2:0:0:
216,143,148471,1,0,0:0:0:0:
316,183,148627,1,8,0:0:0:0:
330,288,148783,6,0,L|288:392,1,85,0|2,0:0|0:2,0:0:0:0:
233,248,149096,1,0,0:0:0:0:
216,143,149252,1,8,0:0:0:0:
298,74,149408,1,0,0:0:0:0:
398,110,149565,2,0,B|413:152|413:152|456:152|491:186|491:233,1,170,2|8,0:2|0:0,0:0:0:0:
330,288,150033,1,0,0:0:0:0:
216,143,150190,6,0,L|199:40,1,85,2|0,0:2|0:0,0:0:0:0:
147,314,150502,2,0,L|66:380,1,85,8|0,0:0|0:0,0:0:0:0:
316,183,150815,2,0,L|356:149,2,42.5,2|0|0,0:2|0:0|0:0,0:0:0:0:
131,209,151127,1,8,0:0:0:0:
330,288,151283,6,0,L|425:326,1,85,0|2,0:0|0:2,0:0:0:0:
316,183,151596,1,0,0:0:0:0:
246,352,151752,2,0,L|206:383,2,42.5,8|0|0,0:0|0:0|0:0,0:0:0:0:
414,224,152065,1,0,0:0:0:0:
422,217,152143,1,0,0:0:0:0:
430,210,152221,1,0,0:0:0:0:
439,204,152299,1,0,0:0:0:0:
447,197,152377,2,0,L|445:113,1,85,8|0,0:0|0:0,0:0:0:0:
316,183,152690,5,4,0:2:0:0:
246,352,152846,1,0,0:0:0:0:
414,224,153002,1,8,0:0:0:0:
216,143,153158,2,0,L|109:101,1,85,0|0,0:0|0:0,0:0:0:0:
233,248,153471,1,0,0:0:0:0:
301,78,153627,1,8,0:0:0:0:
330,288,153783,1,0,0:0:0:0:
216,143,153940,5,2,3:0:0:0:
147,314,154096,1,0,0:0:0:0:
316,183,154252,1,8,0:0:0:0:
246,352,154408,1,0,0:0:0:0:
131,209,154565,1,8,0:0:0:0:
131,209,154643,1,0,0:0:0:0:
131,209,154721,1,0,0:0:0:0:
301,78,154877,1,8,0:0:0:0:
301,78,154955,1,0,0:0:0:0:
301,78,155033,1,0,0:0:0:0:
330,288,155190,5,8,0:0:0:0:
233,248,155346,1,0,0:0:0:0:
414,224,155502,1,8,0:0:0:0:
427,328,155658,1,0,0:0:0:0:
316,183,155815,1,8,0:0:0:0:
399,118,155971,1,0,0:0:0:0:
330,288,156127,1,8,0:0:0:0:
216,143,156283,1,0,0:0:0:0:
414,224,156440,5,4,0:0:0:0:
147,314,156674,1,4,0:0:0:0:
310,84,156908,1,4,0:0:0:0:
313,365,157143,1,4,0:0:0:0:
145,139,157377,1,4,0:0:0:0:
145,139,157690,6,0,B|179:135|193:128|193:128|206:142|230:148|230:148|268:127|323:148,1,170,2|8,3:0|3:0,3:0:0:0:
414,224,158158,1,0,3:0:0:0:
332,332,158315,2,0,B|298:352|298:352|281:347|246:354,1,85,2|0,3:0|3:0,3:0:0:0:
224,250,158627,2,0,B|258:230|258:230|275:235|310:228,1,85,8|0,3:0|3:0,3:0:0:0:
414,224,158940,5,6,2:0:0:0:
256,192,172690,12,0,173627,0:0:0:0:
165,138,173940,5,4,2:0:0:0:
242,211,174096,1,8,0:0:0:0:
266,107,174252,1,0,0:0:0:0:
140,241,174408,1,0,0:0:0:0:
344,179,174565,2,0,P|369:135|368:87,1,85,2|8,0:2|0:0,0:0:0:0:
370,88,174799,1,0,0:0:0:0:
368,75,174877,1,0,0:0:0:0:
266,107,175033,1,0,0:0:0:0:
242,211,175190,5,2,0:2:0:0:
344,179,175346,1,8,0:0:0:0:
266,107,175502,1,0,0:0:0:0:
320,283,175658,1,0,0:0:0:0:
368,75,175815,1,2,0:2:0:0:
165,138,175971,1,8,0:0:0:0:
344,179,176127,1,0,0:0:0:0:
188,33,176283,1,0,0:0:0:0:
140,241,176440,6,0,L|120:310,2,42.5,2|0|8,0:2|0:0|0:0,0:0:0:0:
266,107,176752,2,0,L|365:76,1,85
358,79,176986,1,0,0:0:0:0:
368,75,177065,1,0,0:0:0:0:
344,179,177221,1,8,0:0:0:0:
320,283,177377,1,0,0:0:0:0:
422,251,177533,1,0,0:0:0:0:
242,211,177690,6,0,L|171:195,2,42.5,2|0|0,0:2|0:0|0:0,0:0:0:0:
398,355,178002,2,0,L|489:374,1,85,8|0,0:0|0:0,0:0:0:0:
422,251,178315,1,8,3:1:0:0:
415,230,178393,1,0,3:1:0:0:
409,210,178471,1,0,3:1:0:0:
402,190,178549,1,0,3:1:0:0:
396,170,178627,1,8,3:1:0:0:
389,149,178705,1,0,3:1:0:0:
383,129,178783,1,0,3:1:0:0:
376,109,178861,1,0,3:1:0:0:
370,89,178940,6,0,L|273:89,1,85,4|8,2:0|0:0,0:0:0:0:
270,104,179174,1,0,0:0:0:0:
257,121,179252,2,0,L|160:121,2,85,0|0|2,0:0|0:0|0:2,0:0:0:0:
422,251,179721,2,0,L|519:251,1,85,8|0,0:0|0:0,0:0:0:0:
337,316,180033,6,0,L|240:316,1,85
370,89,180346,2,0,L|467:89,1,85,8|0,0:0|0:0,0:0:0:0:
285,154,180658,2,0,L|188:154,1,85,0|2,0:0|0:2,0:0:0:0:
33,310,180971,1,8,0:0:0:0:
106,187,181127,1,0,0:0:0:0:
8,212,181283,1,0,0:0:0:0:
132,285,181440,6,0,L|236:258,1,85,2|8,0:2|0:0,0:0:0:0:
220,243,181674,1,0,0:0:0:0:
226,223,181752,2,0,L|330:196,1,85
314,181,181986,1,0,0:0:0:0:
320,160,182064,1,2,0:2:0:0:
326,139,182143,1,0,0:0:0:0:
332,118,182221,2,0,L|436:91,1,85,8|0,0:0|0:0,0:0:0:0:
412,276,182533,6,0,L|308:303,1,85,0|2,0:0|0:2,0:0:0:0:
226,223,182846,1,8,0:0:0:0:
238,95,183002,1,8,3:1:0:0:
258,89,183080,1,0,3:1:0:0:
279,84,183158,1,0,3:1:0:0:
299,78,183236,1,0,3:1:0:0:
320,73,183315,5,8,3:1:0:0:
311,92,183393,1,0,3:1:0:0:
310,113,183471,1,0,3:1:0:0:
314,134,183549,1,0,3:1:0:0:
326,152,183627,1,8,3:1:0:0:
342,165,183705,1,0,3:1:0:0:
361,173,183783,1,0,3:1:0:0:
382,175,183861,1,0,3:1:0:0:
403,170,183940,6,0,L|507:143,1,85,4|2,1:0|2:0,0:0:0:0:
412,276,184252,1,8,0:0:0:0:
319,249,184408,1,0,0:0:0:0:
226,223,184565,2,0,L|26:274,1,170,2|8,0:2|0:0,0:0:0:0:
133,197,185033,1,0,0:0:0:0:
249,316,185190,6,0,L|362:345,1,85,4|0,0:0|0:0,0:0:0:0:
485,148,185502,1,8,0:0:0:0:
392,176,185658,1,0,0:0:0:0:
299,202,185815,2,0,L|99:150,1,170,2|8,0:2|0:0,0:0:0:0:
206,228,186283,1,0,0:0:0:0:
322,109,186440,6,0,L|435:79,1,85,2|0,3:0|0:0,0:0:0:0:
369,270,186752,2,0,L|255:299,1,85,8|0,0:0|0:0,0:0:0:0:
145,169,187065,1,0,0:0:0:0:
129,155,187143,1,0,0:0:0:0:
113,141,187221,1,0,0:0:0:0:
97,127,187299,1,0,0:0:0:0:
81,113,187377,1,8,0:0:0:0:
124,250,187533,1,0,0:0:0:0:
226,146,187690,5,8,3:1:0:0:
238,129,187768,1,0,3:1:0:0:
238,108,187846,1,0,3:1:0:0:
238,87,187924,1,0,3:1:0:0:
245,67,188002,1,8,3:1:0:0:
259,51,188080,1,0,3:1:0:0:
279,44,188158,1,0,3:1:0:0:
300,44,188236,1,0,3:1:0:0:
319,52,188315,6,0,L|380:77,1,42.5,8|0,3:1|3:1,3:1:0:0:
348,143,188471,2,0,L|388:195,1,42.5,0|0,3:1|0:0,3:1:0:0:
327,236,188627,2,0,L|335:301,1,42.5,8|0,3:1|0:0,3:1:0:0:
262,306,188783,2,0,L|237:367,1,42.5,0|0,3:1|0:0,3:1:0:0:
170,334,188940,6,0,L|101:386,1,85,4|0,2:0|0:0,0:0:0:0:
124,250,189252,2,0,P|178:237|230:260,1,85,8|0,0:0|0:0,0:0:0:0:
216,261,189486,1,0,0:0:0:0:
229,280,189565,2,0,P|270:287|310:273,1,85,2|0,0:2|0:0,0:0:0:0:
348,143,189877,1,8,0:0:0:0:
253,45,190033,6,0,P|211:37|171:51,1,85,0|2,0:0|0:2,0:0:0:0:
124,250,190346,1,0,0:0:0:0:
215,176,190502,1,8,0:0:0:0:
14,208,190658,1,0,0:0:0:0:
142,366,190815,1,8,3:1:0:0:
162,360,190893,1,0,3:1:0:0:
181,350,190971,1,0,3:1:0:0:
195,334,191049,1,0,3:1:0:0:
203,315,191127,1,8,3:1:0:0:
208,294,191205,1,0,3:1:0:0:
218,276,191283,1,0,3:1:0:0:
235,263,191361,1,0,3:1:0:0:
255,255,191440,5,2,0:2:0:0:
369,212,191596,1,0,0:0:0:0:
366,89,191752,1,8,0:0:0:0:
248,53,191908,1,0,0:0:0:0:
177,154,192065,2,0,L|110:251,1,85,2|0,0:2|0:0,0:0:0:0:
282,153,192377,1,8,0:0:0:0:
123,63,192533,1,0,0:0:0:0:
33,222,192690,5,8,3:1:0:0:
28,252,192768,1,0,3:1:0:0:
41,281,192846,1,0,3:1:0:0:
68,298,192924,1,0,3:1:0:0:
99,298,193002,1,8,3:1:0:0:
130,288,193080,1,0,3:1:0:0:
160,279,193158,1,0,3:1:0:0:
192,279,193236,1,0,3:1:0:0:
221,293,193315,6,0,L|268:351,1,42.5,8|0,3:1|3:1,3:1:0:0:
254,206,193471,2,0,L|300:148,1,42.5,0|0,3:1|3:1,3:1:0:0:
341,246,193627,2,0,L|387:303,1,42.5,8|0,3:1|3:1,3:1:0:0:
373,158,193783,2,0,L|419:100,1,42.5,0|0,3:1|3:1,3:1:0:0:
460,198,193940,6,0,P|484:239|451:332,1,127.5,4|0,1:0|2:0,0:0:0:0:
422,341,194252,2,0,L|330:331,1,85,8|0,0:0|0:0,0:0:0:0:
170,215,194565,2,0,L|254:205,1,85
63,265,194877,1,8,0:0:0:0:
74,140,195033,1,0,0:0:0:0:
165,337,195190,6,0,L|159:396,2,42.5,2|0|0,0:2|0:0|0:0,0:0:0:0:
292,157,195502,2,0,L|297:97,2,42.5,8|0|0,0:0|0:0|0:0,0:0:0:0:
283,282,195815,1,2,0:2:0:0:
282,292,195893,1,0,3:1:0:0:
281,303,195971,1,0,3:1:0:0:
280,313,196049,1,0,3:1:0:0:
279,324,196127,1,8,3:1:0:0:
386,353,196283,1,0,0:0:0:0:
406,346,196361,1,0,0:0:0:0:
426,340,196440,6,0,L|526:312,1,85,2|0,0:2|0:0,0:0:0:0:
292,157,196752,2,0,L|192:129,1,85,8|0,0:0|0:0,0:0:0:0:
359,248,197065,2,0,L|459:220,1,85,2|0,0:2|0:0,0:0:0:0:
225,65,197377,2,0,L|125:37,1,85,8|0,0:0|0:0,0:0:0:0:
194,254,197690,6,0,P|202:327|299:376,2,170,0|4|0,0:0|0:3|0:0,0:0:0:0:
197,241,198393,1,0,3:1:0:0:
200,228,198471,1,0,3:1:0:0:
203,215,198549,1,0,3:1:0:0:
206,202,198627,1,8,3:1:0:0:
209,189,198705,1,0,3:1:0:0:
212,176,198783,1,0,3:1:0:0:
215,163,198861,1,0,3:1:0:0:
218,150,198940,6,0,L|333:105,1,85,4|0,1:0|0:0,0:0:0:0:
283,282,199252,2,0,L|264:404,1,85,8|0,0:0|0:0,0:0:0:0:
370,246,199565,2,0,L|450:216,1,85,2|0,0:2|2:0,0:0:0:0:
385,84,199877,2,0,L|397:0,1,85,8|0,0:0|2:0,0:0:0:0:
218,150,200190,6,0,P|156:212|67:191,1,170,2|8,0:2|0:0,0:0:0:0:
130,122,200658,1,0,0:0:0:0:
286,87,200815,2,0,L|474:175,1,170,2|8,0:2|0:0,0:0:0:0:
385,84,201283,1,0,0:0:0:0:
370,246,201440,5,4,0:0:0:0:
367,268,201518,1,0,0:0:0:0:
365,289,201596,1,0,0:0:0:0:
362,310,201674,1,0,0:0:0:0:
359,331,201752,1,8,0:0:0:0:
454,203,201908,1,0,0:0:0:0:
286,289,202065,1,0,0:0:0:0:
266,298,202143,1,0,0:0:0:0:
247,308,202221,1,0,0:0:0:0:
228,317,202299,1,0,0:0:0:0:
209,327,202377,1,8,0:0:0:0:
292,194,202533,6,0,L|304:109,1,85,4|2,1:0|2:2,0:0:0:0:
377,152,202846,1,0,0:0:0:0:
448,295,203002,2,0,L|435:379,2,85,8|0|2,0:0|0:0|0:2,0:0:0:0:
377,152,203471,1,2,0:2:0:0:
462,109,203627,1,8,0:0:0:0:
370,246,203783,6,0,L|280:294,1,85,4|2,0:0|2:2,0:0:0:0:
292,194,204096,1,0,0:0:0:0:
383,57,204252,2,0,L|473:9,2,85,8|0|2,0:0|0:0|0:2,0:0:0:0:
292,194,204721,1,2,0:2:0:0:
213,141,204877,1,8,0:0:0:0:
377,152,205033,6,0,L|469:211,1,85,4|2,0:0|2:2,0:0:0:0:
286,289,205346,1,0,0:0:0:0:
292,194,205502,1,8,0:0:0:0:
370,246,205658,1,0,0:0:0:0:
206,235,205815,1,2,2:0:0:0:
298,98,205971,1,0,0:0:0:0:
370,246,206127,1,8,0:0:0:0:
201,331,206283,6,0,P|146:311|118:271,1,85,4|2,0:0|2:2,0:0:0:0:
206,235,206596,1,0,0:0:0:0:
377,152,206752,2,0,P|432:172|460:212,1,85,8|0,0:0|0:0,0:0:0:0:
370,246,207065,1,2,2:0:0:0:
292,194,207221,1,8,0:0:0:0:
298,98,207377,1,0,0:0:0:0:
384,55,207533,6,0,P|432:72|466:117,1,85,4|2,0:0|2:2,0:0:0:0:
370,246,207846,1,0,0:0:0:0:
286,289,208002,2,0,P|238:272|204:227,1,85,8|0,0:0|0:0,0:0:0:0:
377,152,208315,1,2,2:0:0:0:
370,246,208471,1,0,0:0:0:0:
298,98,208627,1,8,0:0:0:0:
455,203,208783,6,0,P|465:256|449:302,1,85,4|2,0:0|2:2,0:0:0:0:
292,194,209096,2,0,P|282:141|298:95,1,85,0|8,0:0|0:0,0:0:0:0:
370,246,209408,2,0,P|296:289|208:234,1,170,0|2,0:0|0:2,0:0:0:0:
217,44,209877,1,8,0:0:0:0:
377,152,210033,6,0,L|457:207,1,85,4|2,0:2|2:2,0:0:0:0:
292,194,210346,1,0,0:0:0:0:
213,141,210502,2,0,L|220:44,1,85,8|0,0:0|0:0,0:0:0:0:
384,55,210815,1,0,0:0:0:0:
462,109,210971,1,0,0:0:0:0:
454,203,211127,1,8,0:0:0:0:
286,289,211283,6,0,L|200:332,1,85,4|2,0:0|2:2,0:0:0:0:
365,335,211596,1,0,0:0:0:0:
377,152,211752,1,8,0:0:0:0:
207,243,211908,1,0,0:0:0:0:
370,246,212065,1,8,0:0:0:0:
384,55,212221,1,8,0:0:0:0:
213,141,212377,1,8,0:0:0:0:
365,335,212533,1,8,0:0:0:0:
454,203,212690,6,0,L|463:96,1,85,4|0,1:0|2:0,2:0:0:0:
298,98,213002,2,0,L|209:36,1,85,8|0,0:0|0:0,0:0:0:0:
371,247,213315,2,0,L|459:308,1,85
377,152,213627,2,0,L|386:45,1,85,8|0,0:0|0:0,0:0:0:0:
286,289,213940,6,0,L|200:332,1,85,2|0,0:2|0:0,0:0:0:0:
292,194,214252,2,0,L|301:87,1,85,8|0,0:0|0:0,0:0:0:0:
365,335,214565,2,0,L|458:386,1,85,0|0,0:0|0:0,0:0:0:0:
207,243,214877,2,0,L|66:166,1,127.5,8|0,0:0|2:0,0:0:0:0:
92,236,215190,6,0,L|94:331,1,85
286,289,215502,1,8,0:0:0:0:
205,157,215658,2,0,L|209:344,1,170,0|0,0:0|0:0,0:0:0:0:
365,335,216127,1,8,0:0:0:0:
292,194,216283,6,0,L|194:249,1,85,0|2,0:0|0:2,0:0:0:0:
371,247,216596,2,0,L|467:304,1,85,0|8,0:0|0:0,0:0:0:0:
377,152,216908,2,0,L|378:39,1,85,0|0,0:0|0:0,0:0:0:0:
213,141,217221,1,0,0:0:0:0:
206,235,217377,1,8,0:0:0:0:
298,98,217533,1,0,0:0:0:0:
218,45,217690,6,0,L|120:44,1,85,4|0,0:2|0:0,0:0:0:0:
292,194,218002,2,0,L|390:195,1,85,8|0,0:0|0:0,0:0:0:0:
213,141,218315,2,0,L|115:140,1,85
287,290,218627,2,0,L|385:291,1,85,8|0,0:0|0:0,0:0:0:0:
298,98,218940,5,2,0:2:0:0:
206,235,219096,1,0,0:0:0:0:
377,152,219252,2,0,P|394:102|317:3,1,170,8|0,0:0|0:0,0:0:0:0:
213,141,219721,1,0,0:0:0:0:
371,247,219877,2,0,L|496:248,1,85,8|0,0:0|0:0,0:0:0:0:
298,98,220190,6,0,L|236:-10,1,85,2|0,0:2|0:0,0:0:0:0:
206,235,220502,1,8,0:0:0:0:
377,152,220658,2,0,L|440:44,1,85,0|0,0:0|0:0,0:0:0:0:
213,141,220971,2,0,L|115:140,1,85,0|8,0:0|0:0,0:0:0:0:
287,290,221283,6,0,L|335:375,1,85,0|2,0:0|0:2,0:0:0:0:
292,194,221596,1,0,0:0:0:0:
201,331,221752,1,8,0:0:0:0:
371,247,221908,1,0,0:0:0:0:
298,98,222065,1,2,0:2:0:0:
206,235,222221,1,8,0:0:0:0:
377,152,222377,1,8,0:0:0:0:
304,2,222533,1,8,0:0:0:0:
213,141,222690,6,0,L|137:178,1,85,4|0,1:0|0:0,0:0:0:0:
292,194,223002,2,0,L|362:240,1,85,8|0,0:0|0:0,0:0:0:0:
298,98,223315,2,0,L|303:13,1,85
206,235,223627,2,0,L|200:319,1,85,8|0,0:0|0:0,0:0:0:0:
377,152,223940,6,0,L|452:114,1,85,2|0,0:2|0:0,0:0:0:0:
213,141,224252,2,0,L|128:135,1,85,8|0,0:0|0:0,0:0:0:0:
283,286,224565,2,0,L|353:332,1,85,0|0,0:0|0:0,0:0:0:0:
292,194,224877,2,0,L|297:109,1,85,8|0,0:0|0:0,0:0:0:0:
206,235,225190,5,2,0:2:0:0:
200,327,225346,1,0,0:0:0:0:
276,378,225502,1,8,0:0:0:0:
377,152,225815,5,2,0:2:0:0:
459,111,225971,1,0,0:0:0:0:
465,19,226127,1,8,0:0:0:0:
213,141,226440,5,2,0:2:0:0:
129,181,226596,1,0,0:0:0:0:
123,272,226752,1,8,0:0:0:0:
371,247,227065,5,2,0:2:0:0:
454,207,227221,1,0,0:0:0:0:
459,111,227377,1,8,0:0:0:0:
378,59,227533,1,0,0:0:0:0:
220,47,227690,5,4,2:0:0:0:
213,141,227846,1,0,0:0:0:0:
292,194,228002,2,0,L|371:247,1,85,8|0,0:0|0:0,0:0:0:0:
298,98,228315,1,0,0:0:0:0:
213,141,228471,1,0,0:0:0:0:
206,235,228627,2,0,L|199:329,1,85,8|0,0:0|0:0,0:0:0:0:
283,286,228940,5,2,0:2:0:0:
292,194,229096,1,0,0:0:0:0:
213,141,229252,2,0,L|134:88,1,85,8|0,0:0|0:0,0:0:0:0:
206,235,229565,1,0,0:0:0:0:
292,194,229721,1,0,0:0:0:0:
298,98,229877,2,0,L|305:4,1,85,8|0,0:0|0:0,0:0:0:0:
206,235,230190,6,0,L|199:329,1,85,4|0,0:0|0:0,0:0:0:0:
213,141,230502,2,0,L|134:88,1,85,8|0,0:0|0:0,0:0:0:0:
283,286,230815,2,0,L|362:339,1,85,0|0,0:0|0:0,0:0:0:0:
129,181,231127,2,0,L|31:182,1,85,8|0,0:0|0:0,0:0:0:0:
292,194,231440,6,0,L|390:193,1,85,2|0,0:2|0:0,0:0:0:0:
378,59,231752,2,0,L|280:60,1,85,8|0,0:0|0:0,0:0:0:0:
213,141,232065,1,0,0:0:0:0:
283,286,232221,1,0,0:0:0:0:
442,301,232377,1,8,0:0:0:0:
292,194,232533,1,0,0:0:0:0:
124,270,232690,6,0,B|41:306,1,85,4|0,0:0|0:0,0:0:0:0:
213,141,233002,2,0,B|223:51,1,85,8|0,0:0|0:0,0:0:0:0:
200,327,233315,1,2,0:2:0:0:
129,181,233471,1,0,0:0:0:0:
292,194,233627,2,0,P|343:215|372:269,1,85,8|0,0:0|0:0,0:0:0:0:
206,235,233940,5,2,0:2:0:0:
213,141,234096,1,8,3:1:0:0:
213,141,234174,1,0,3:1:0:0:
213,141,234252,1,8,3:1:0:0:
298,98,234408,1,0,0:0:0:0:
303,2,234565,5,8,3:1:0:0:
333,10,234643,1,0,3:1:0:0:
359,28,234721,1,8,3:1:0:0:
378,53,234799,1,0,3:1:0:0:
388,84,234877,1,8,3:1:0:0:
388,115,234955,1,0,3:1:0:0:
377,145,235033,1,8,3:1:0:0:
357,170,235111,1,0,3:1:0:0:
331,187,235190,5,4,3:1:0:0:
94,94,235502,1,0,3:0:0:0:
131,346,235815,1,0,3:0:0:0:
213,141,236127,1,0,1:0:0:0:
112,220,236283,5,4,0:0:0:0:
349,313,236596,1,4,0:0:0:0:
311,61,236908,1,0,2:0:0:0:
213,141,237065,1,0,3:0:0:0:
94,94,237221,1,0,2:0:0:0:
112,220,237377,1,0,3:0:0:0:
12,299,237533,1,0,2:0:0:0:
131,346,237690,5,4,0:0:0:0:
331,187,238002,1,0,3:0:0:0:
94,94,238315,1,0,3:0:0:0:
276,324,238627,1,0,3:0:0:0:
239,72,238940,5,4,3:1:0:0:
237,61,239018,1,0,3:1:0:0:
236,51,239096,1,0,3:1:0:0:
234,40,239174,1,0,3:1:0:0:
233,30,239252,1,8,3:1:0:0:
331,188,239408,2,0,L|348:309,1,85,0|2,0:0|3:0,0:0:0:0:
408,220,239721,1,0,0:0:0:0:
276,324,239877,1,8,0:0:0:0:
251,157,240033,1,0,0:0:0:0:
342,272,240190,6,0,P|358:311|354:353,1,85,4|0,0:0|0:0,0:0:0:0:
264,238,240502,1,8,0:0:0:0:
331,188,240658,2,0,L|414:127,1,85,0|0,0:0|0:0,0:0:0:0:
251,157,240971,2,0,L|156:115,1,85,0|8,0:0|0:0,0:0:0:0:
264,238,241283,1,0,0:0:0:0:
239,72,241440,5,4,0:0:0:0:
107,172,241596,1,0,0:0:0:0:
319,103,241908,2,0,L|361:70,2,42.5,0|0|0,0:3|0:3|0:3,0:3:0:0:
251,157,242221,1,0,0:0:0:0:
264,238,242377,1,8,0:0:0:0:
342,272,242533,1,0,0:0:0:0:
344,293,242611,1,0,0:0:0:0:
346,314,242690,6,0,L|437:352,1,85,4|0,1:0|0:0,0:0:0:0:
331,188,243002,1,8,0:0:0:0:
229,263,243158,2,0,L|241:360,1,85,4|0,0:0|0:0,0:0:0:0:
331,188,243471,1,0,0:0:0:0:
215,137,243627,1,8,0:0:0:0:
112,211,243783,6,0,L|27:271,1,85,4|0,0:0|0:0,0:0:0:0:
229,263,244096,1,8,0:0:0:0:
331,188,244252,1,8,0:0:0:0:
317,62,244408,1,8,0:0:0:0:
215,137,244565,1,8,0:0:0:0:
206,143,244643,1,0,0:0:0:0:
197,149,244721,1,8,0:0:0:0:
189,155,244799,1,0,0:0:0:0:
180,161,244877,1,8,0:0:0:0:
331,188,245033,6,0,L|438:235,1,85,4|2,0:0|0:2,0:0:0:0:
433,112,245346,1,0,0:0:0:0:
317,62,245502,1,8,0:0:0:0:
317,62,245658,1,2,0:2:0:0:
215,137,245815,1,0,0:0:0:0:
215,137,245971,1,2,0:2:0:0:
229,263,246127,2,0,L|242:387,1,85,8|2,0:0|0:2,0:0:0:0:
331,188,246440,5,0,0:0:0:0:
433,112,246596,2,0,L|533:38,1,85,0|8,0:0|0:0,0:0:0:0:
317,62,246908,2,0,L|216:135,1,85,0|0,0:0|0:0,0:0:0:0:
229,263,247221,1,0,0:0:0:0:
344,313,247377,1,8,0:0:0:0:
444,238,247533,6,0,L|435:130,1,85,4|2,0:0|0:2,0:0:0:0:
317,62,247846,1,0,0:0:0:0:
201,11,248002,1,8,0:0:0:0:
201,11,248158,1,2,0:2:0:0:
98,85,248315,1,0,0:0:0:0:
98,85,248471,1,2,0:2:0:0:
110,211,248627,2,0,L|123:335,1,85,8|2,0:0|0:2,0:0:0:0:
215,137,248940,6,0,L|315:63,1,85,2|0,2:0|0:0,0:0:0:0:
98,85,249252,1,8,0:0:0:0:
229,263,249408,2,0,L|342:313,1,85,0|0,0:0|0:0,0:0:0:0:
215,137,249721,1,0,0:0:0:0:
110,211,249877,1,8,0:0:0:0:
331,190,250033,6,0,L|455:176,1,85,4|2,0:0|2:0,0:0:0:0:
317,62,250346,1,0,0:0:0:0:
229,263,250502,2,0,L|178:376,1,85,8|0,0:0|0:0,0:0:0:0:
215,137,250815,2,0,L|141:36,1,85,0|0,0:0|0:0,0:0:0:0:
344,313,251127,2,0,L|417:413,1,85,8|0,0:0|0:0,0:0:0:0:
331,190,251440,5,2,0:2:0:0:
229,263,251596,1,0,0:0:0:0:
215,137,251752,1,8,0:0:0:0:
109,211,251908,2,0,P|69:222|35:248,1,85
126,338,252221,1,0,0:0:0:0:
133,133,252377,2,0,L|124:11,1,85,8|0,0:0|0:0,0:0:0:0:
184,205,252690,5,0,0:0:0:0:
331,190,252846,2,0,L|426:190,1,85,2|8,0:2|0:0,0:0:0:0:
215,137,253158,2,0,L|120:137,1,85,2|0,0:2|0:0,0:0:0:0:
300,258,253471,2,0,L|395:258,1,85,2|8,0:2|0:0,0:0:0:0:
246,69,253783,6,0,L|151:69,1,85,4|0,0:0|0:0,0:0:0:0:
362,122,254096,2,0,L|362:27,1,85,4|8,0:0|0:0,0:0:0:0:
229,263,254408,2,0,L|229:358,1,85,4|0,0:0|0:0,0:0:0:0:
345,316,254721,2,0,L|440:316,1,85,4|8,0:0|0:0,0:0:0:0:
295,192,255033,6,0,P|234:166|141:223,1,170,4|0,0:0|0:0,0:0:0:0:
143,307,255502,1,8,0:0:0:0:
56,351,255658,1,0,0:0:0:0:
61,254,255815,2,0,L|66:153,1,85,2|0,0:2|0:0,0:0:0:0:
229,263,256127,2,0,L|224:364,1,85,8|0,0:0|0:0,0:0:0:0:
147,211,256440,6,0,L|152:110,1,85,2|0,0:2|0:0,0:0:0:0:
316,220,256752,2,0,L|311:321,1,85,8|0,0:0|0:0,0:0:0:0:
235,166,257065,1,2,0:2:0:0:
241,69,257222,1,0,0:0:0:0:
322,122,257377,1,8,0:0:0:0:
229,263,257533,6,0,P|144:308|61:257,1,170,4|0,0:0|0:0,0:0:0:0:
52,189,258002,2,0,L|21:87,1,85,8|0,0:0|0:0,0:0:0:0:
213,138,258315,2,0,L|244:240,1,85,2|0,0:2|0:0,0:0:0:0:
118,117,258627,2,0,L|87:15,1,85,8|0,1:0|0:0,0:0:0:0:
279,66,258940,6,0,L|310:168,1,85,2|0,0:2|0:0,0:0:0:0:
147,211,259252,2,0,L|43:186,1,85,8|0,0:0|0:0,0:0:0:0:
213,138,259565,1,2,0:2:0:0:
243,231,259721,1,8,0:0:0:0:
338,251,259877,1,8,0:0:0:0:
402,178,260033,1,0,0:0:0:0:
306,159,260190,6,0,P|267:184|245:248,1,85,4|0,0:0|0:0,0:0:0:0:
371,345,260502,2,0,P|410:320|432:256,1,85,8|0,0:0|0:0,0:0:0:0:
338,251,260815,1,2,2:0:0:0:
273,323,260971,1,0,0:0:0:0:
178,302,261127,1,8,0:0:0:0:
147,211,261283,1,0,0:0:0:0:
466,105,261596,6,0,P|491:141|494:205,1,85,0|8,0:0|0:0,0:0:0:0:
402,178,261908,1,0,0:0:0:0:
371,87,262065,1,2,2:0:0:0:
276,68,262221,1,0,0:0:0:0:
243,231,262377,1,8,0:0:0:0:
306,159,262533,1,0,0:0:0:0:
147,211,262690,6,0,P|149:262|269:318,1,170,2|0,0:2|0:0,0:0:0:0:
243,231,263158,2,0,L|310:156,1,85,0|2,0:0|2:0,0:0:0:0:
371,87,263471,2,0,L|272:66,1,85,0|8,0:0|0:0,0:0:0:0:
182,48,263783,2,0,L|213:143,1,85,0|0,0:0|0:0,0:0:0:0:
147,211,264096,5,8,0:0:0:0:
178,302,264252,1,8,0:0:0:0:
273,323,264408,1,8,0:0:0:0:
338,251,264565,1,8,3:1:0:0:
353,229,264643,1,0,3:1:0:0:
361,204,264721,1,8,3:1:0:0:
359,177,264799,1,0,3:1:0:0:
351,152,264877,1,8,3:1:0:0:
344,127,264955,1,0,3:1:0:0:
346,101,265033,1,8,3:1:0:0:
358,77,265111,1,0,3:1:0:0:
375,57,265190,6,0,L|456:26,1,85,4|0,2:0|0:0,0:0:0:0:
453,127,265502,1,8,0:0:0:0:
229,92,265658,2,0,P|187:81|146:88,1,85,0|2,0:0|0:2,0:0:0:0:
183,189,265971,2,0,P|224:199|265:192,1,85,0|8,0:0|0:0,0:0:0:0:
454,26,266283,6,0,P|506:42|544:90,1,85,0|2,0:0|0:2,0:0:0:0:
450,228,266596,2,0,P|398:212|360:164,1,85,0|8,0:0|0:0,0:0:0:0:
273,89,266908,2,0,L|229:5,1,85,0|2,0:0|2:0,0:0:0:0:
152,104,267221,2,0,P|111:166|129:274,1,170
323,268,267690,6,0,P|340:230|344:187,1,85,2|0,3:0|0:0,0:0:0:0:
226,201,268002,1,8,0:0:0:0:
216,319,268158,2,0,P|286:383|366:379,1,170,0|0,0:0|0:0,0:0:0:0:
439,295,268627,1,8,0:0:0:0:
404,181,268783,1,0,0:0:0:0:
287,154,268940,6,0,L|170:125,1,85,0|2,0:0|0:2,0:0:0:0:
323,268,269252,1,8,0:0:0:0:
404,181,269408,1,0,0:0:0:0:
369,67,269565,1,8,0:0:0:0:
170,127,269721,1,0,0:0:0:0:
323,268,269877,1,8,0:0:0:0:
252,40,270033,1,0,0:0:0:0:
204,242,270190,6,0,P|202:284|215:324,1,85,4|0,0:0|0:0,0:0:0:0:
323,268,270502,1,8,0:0:0:0:
170,127,270658,2,0,P|107:168|88:265,1,170,0|0,0:0|0:0,0:0:0:0:
204,242,271127,1,8,0:0:0:0:
287,154,271283,6,0,P|287:104|266:55,1,85,0|0,0:0|0:0,0:0:0:0:
170,127,271596,1,0,0:0:0:0:
86,214,271752,2,0,P|86:264|107:313,1,85,8|0,0:0|0:0,0:0:0:0:
204,242,272065,1,8,3:1:0:0:
234,235,272143,1,0,3:1:0:0:
259,215,272221,1,8,3:1:0:0:
268,185,272299,1,0,3:1:0:0:
261,154,272377,1,8,3:1:0:0:
247,125,272455,1,0,3:1:0:0:
238,95,272533,1,8,3:1:0:0:
242,63,272611,1,0,3:1:0:0:
255,34,272690,5,4,0:0:0:0:
256,8,277377,5,6,2:0:0:0:
341,203,277689,1,8,0:0:0:0:
214,275,277845,1,0,0:0:0:0:
299,275,278002,1,2,0:2:0:0:
172,203,278158,1,0,0:0:0:0:
256,348,278315,1,8,0:0:0:0:
256,203,278471,1,0,0:0:0:0:
129,275,278627,6,0,P|141:320|190:360,1,85,2|0,0:2|0:0,0:0:0:0:
347,347,278939,2,0,P|375:315|385:275,1,85,8|0,0:0|0:0,0:0:0:0:
297,130,279252,1,2,2:0:0:0:
172,203,279408,1,0,0:0:0:0:
341,203,279564,1,8,0:0:0:0:
217,130,279720,6,0,P|160:117|113:143,1,85,0|2,0:0|0:2,0:0:0:0:
129,275,280033,1,0,0:0:0:0:
256,203,280189,1,8,0:0:0:0:
172,203,280345,1,0,0:0:0:0:
299,275,280502,1,2,0:2:0:0:
214,275,280658,1,0,0:0:0:0:
341,203,280814,1,8,0:0:0:0:
256,203,280970,1,0,0:0:0:0:
384,275,281127,6,0,P|414:242|425:202,1,85,2|0,0:2|0:0,0:0:0:0:
89,203,281439,2,0,P|101:244|130:275,1,85,8|0,0:0|0:0,0:0:0:0:
341,203,281752,1,8,0:0:0:0:
297,130,281908,1,0,0:0:0:0:
172,203,282064,1,8,0:0:0:0:
256,203,282220,1,0,0:0:0:0:
217,130,282377,6,0,B|171:130|171:130|139:96|92:96|59:129,1,170,2|8,0:2|0:0,0:0:0:0:
297,130,283002,2,0,B|342:129|342:129|374:95|421:95|454:128,1,170,2|8,0:2|0:0,0:0:0:0:
256,348,283627,5,2,0:2:0:0:
172,203,283783,1,0,0:0:0:0:
171,349,283939,1,8,0:0:0:0:
341,203,284095,1,0,0:0:0:0:
343,349,284251,1,2,0:2:0:0:
256,203,284408,1,0,0:0:0:0:
256,348,284564,1,8,0:0:0:0:
341,203,284720,1,0,0:0:0:0:
217,130,284877,6,0,P|160:117|113:143,1,85,0|2,0:0|0:2,0:0:0:0:
297,130,285189,2,0,P|354:117|401:143,1,85,8|2,0:0|0:2,0:0:0:0:
172,203,285502,2,0,L|122:291,1,85,0|2,0:0|0:2,0:0:0:0:
341,203,285814,2,0,L|392:291,1,85,8|2,0:0|0:2,0:0:0:0:
256,203,286127,5,8,0:0:0:0:
256,348,286283,1,0,0:0:0:0:
299,275,286439,1,8,0:0:0:0:
171,349,286595,1,0,0:0:0:0:
343,349,286752,1,8,3:1:0:0:
367,339,286830,1,0,3:1:0:0:
387,321,286908,1,0,3:1:0:0:
397,297,286986,1,0,3:1:0:0:
401,274,287064,1,8,3:1:0:0:
427,271,287142,1,0,3:1:0:0:
451,261,287220,1,0,3:1:0:0:
469,242,287298,1,0,3:1:0:0:
478,217,287377,6,0,B|498:171|452:114|452:114|377:89,1,170,4|8,1:0|0:0,0:0:0:0:
256,52,287845,1,0,0:0:0:0:
114,95,288002,2,0,B|60:114|60:114|14:171|34:217,1,170,2|8,0:2|0:0,0:0:0:0:
169,348,288470,6,0,P|211:348|251:325,1,85,0|0,0:0|0:0,0:0:0:0:
323,196,288783,1,0,0:0:0:0:
187,258,288939,1,8,0:0:0:0:
332,288,289095,1,0,0:0:0:0:
233,177,289252,2,0,P|192:164|151:172,1,85,0|0,0:0|0:0,0:0:0:0:
40,228,289564,1,8,0:0:0:0:
169,348,289720,1,0,0:0:0:0:
332,288,289877,6,0,P|377:271|409:226,1,85,2|0,0:2|0:0,0:0:0:0:
233,177,290189,1,8,0:0:0:0:
248,327,290345,2,0,P|277:364|330:382,1,85,0|2,0:0|2:0,0:0:0:0:
418,251,290658,2,0,P|388:213|335:195,1,85,0|8,0:0|0:0,0:0:0:0:
165,111,290970,6,0,P|141:189|212:269,1,170
332,288,291439,2,0,L|416:360,1,85,8|0,0:0|0:0,0:0:0:0:
421,345,291673,1,0,3:1:0:0:
446,339,291751,1,8,3:1:0:0:
469,328,291829,1,0,3:1:0:0:
488,311,291907,1,0,3:1:0:0:
501,289,291985,1,0,3:1:0:0:
509,265,292063,1,8,3:1:0:0:
509,240,292141,1,0,3:1:0:0:
503,215,292220,1,0,3:1:0:0:
491,193,292298,1,0,3:1:0:0:
473,175,292376,5,4,1:0:0:0:
329,127,292533,1,0,2:0:0:0:
329,127,292611,1,0,2:0:0:0:
329,127,292689,1,8,0:0:0:0:
418,251,292845,1,0,0:0:0:0:
418,98,293002,1,2,2:0:0:0:
329,221,293158,1,0,2:0:0:0:
329,221,293236,1,0,2:0:0:0:
329,221,293314,1,8,0:0:0:0:
473,175,293470,1,0,0:0:0:0:
474,23,293627,6,0,P|419:5|371:16,1,85,2|0,2:0|0:0,0:0:0:0:
378,23,293861,1,0,0:0:0:0:
365,39,293939,2,0,L|256:69,1,85,8|0,0:0|0:0,0:0:0:0:
271,79,294173,1,0,0:0:0:0:
259,96,294251,1,2,2:0:0:0:
246,114,294329,1,0,0:0:0:0:
234,131,294407,1,0,0:0:0:0:
184,316,294564,1,8,0:0:0:0:
274,291,294720,1,0,0:0:0:0:
141,158,294877,5,2,0:2:0:0:
115,249,295033,1,0,2:0:0:0:
115,249,295111,1,0,2:0:0:0:
115,249,295189,1,8,0:0:0:0:
234,131,295345,1,0,0:0:0:0:
168,61,295502,1,2,0:2:0:0:
206,223,295658,1,0,2:0:0:0:
206,223,295736,1,0,2:0:0:0:
206,223,295814,1,8,0:0:0:0:
327,109,295970,1,0,0:0:0:0:
141,158,296127,5,2,0:2:0:0:
299,201,296283,1,0,2:0:0:0:
299,201,296361,1,0,2:0:0:0:
299,201,296439,1,8,0:0:0:0:
257,42,296595,1,0,0:0:0:0:
206,223,296752,1,8,3:1:0:0:
210,238,296830,1,0,3:1:0:0:
217,252,296908,1,0,3:1:0:0:
227,265,296986,1,0,3:1:0:0:
238,276,297064,1,8,3:1:0:0:
251,285,297142,1,0,3:1:0:0:
265,292,297220,1,0,3:1:0:0:
281,296,297298,1,0,3:1:0:0:
297,297,297377,6,0,P|336:290|383:246,1,85,4|0,1:0|0:0,0:0:0:0:
302,104,297689,2,0,P|263:111|216:155,1,85,8|0,0:0|0:0,0:0:0:0:
299,201,298002,1,2,0:2:0:0:
466,205,298158,2,0,L|517:234,2,42.5,0|0|8,0:0|0:0|0:0,0:0:0:0:
387,58,298470,1,0,0:0:0:0:
381,250,298627,5,2,0:2:0:0:
469,108,298783,2,0,L|521:79,2,42.5,0|0|8,0:0|0:0|0:0,0:0:0:0:
384,155,299095,1,0,0:0:0:0:
297,297,299252,2,0,L|204:350,1,85,0|0,0:0|0:0,0:0:0:0:
202,335,299486,1,0,0:0:0:0:
181,331,299564,1,8,0:0:0:0:
57,293,299720,1,0,0:0:0:0:
152,205,299877,5,2,0:2:0:0:
275,243,300033,2,0,L|350:273,2,42.5,0|0|8,0:0|0:0|0:0,0:0:0:0:
246,117,300345,2,0,L|309:67,2,42.5,0|0|0,0:0|0:0|0:0,0:0:0:0:
152,205,300658,1,0,0:0:0:0:
57,293,300814,2,0,L|17:277,2,42.5,8|0|0,0:0|0:0|0:0,0:0:0:0:
181,331,301127,5,2,0:2:0:0:
297,369,301283,1,0,0:0:0:0:
297,369,301361,1,0,0:0:0:0:
297,369,301439,1,8,0:0:0:0:
275,243,301595,1,0,0:0:0:0:
373,160,301752,1,8,3:1:0:0:
394,144,301830,1,0,3:1:0:0:
420,146,301908,1,0,3:1:0:0:
439,164,301986,1,0,3:1:0:0:
445,190,302064,1,8,3:1:0:0:
441,216,302142,1,0,3:1:0:0:
434,242,302220,1,0,3:1:0:0:
436,268,302298,1,0,3:1:0:0:
450,290,302377,6,0,P|468:326|474:371,1,85,4|2,1:0|0:2,0:0:0:0:
297,369,302689,2,0,P|279:333|273:288,1,85,8|2,0:0|0:2,0:0:0:0:
373,160,303002,2,0,P|390:195|396:240,1,85,0|2,0:0|0:2,0:0:0:0:
181,331,303314,2,0,P|163:295|157:250,1,85,8|2,0:0|0:2,0:0:0:0:
331,76,303627,6,0,P|377:66|441:97,1,85,0|2,0:0|0:2,0:0:0:0:
375,294,303939,2,0,P|329:304|265:273,1,85,8|2,0:0|0:2,0:0:0:0:
99,75,304252,2,0,P|140:65|181:76,1,85,0|2,0:0|0:2,0:0:0:0:
218,294,304564,2,0,P|177:304|137:294,1,85,8|2,0:0|0:2,0:0:0:0:
139,160,304877,5,4,3:0:0:0:
273,121,305033,1,0,0:0:0:0:
373,22,305189,1,12,0:0:0:0:
373,22,305502,5,4,3:0:0:0:
338,158,305658,1,0,0:0:0:0:
375,294,305814,1,12,0:0:0:0:
375,294,306127,5,4,3:0:0:0:
274,196,306283,1,0,0:0:0:0:
139,160,306439,1,12,0:0:0:0:
139,160,306752,5,8,3:1:0:0:
121,128,306830,1,0,3:1:0:0:
130,93,306908,1,0,3:1:0:0:
163,77,306986,1,0,3:1:0:0:
198,86,307064,1,8,3:1:0:0:
229,107,307142,1,0,3:1:0:0:
260,127,307220,1,0,3:1:0:0:
296,132,307298,1,0,3:1:0:0:
333,124,307377,6,0,P|373:97|395:40,1,85,4|0,1:0|0:0,0:0:0:0:
293,25,307689,1,8,0:0:0:0:
139,160,307845,2,0,L|107:255,1,85
235,218,308158,2,0,L|333:198,1,85,0|8,0:0|0:0,0:0:0:0:
237,105,308470,2,0,P|160:47|30:134,1,255,0|8,0:0|0:0,0:0:0:0:
136,272,309095,5,0,0:0:0:0:
232,330,309252,1,0,0:0:0:0:
330,275,309408,1,0,0:0:0:0:
235,218,309564,1,8,0:0:0:0:
39,213,309720,2,0,P|36:326|185:376,1,255,0|8,0:0|0:0,0:0:0:0:
330,275,310345,5,0,0:0:0:0:
331,164,310502,1,0,0:0:0:0:
232,330,310658,1,0,0:0:0:0:
428,220,310814,1,8,0:0:0:0:
235,218,310970,6,0,P|177:232|147:255,1,85,0|2,0:0|0:2,0:0:0:0:
429,331,311283,2,0,P|470:374|505:388,1,85,0|8,0:0|0:0,0:0:0:0:
427,107,311595,2,0,P|443:49|438:12,1,85,0|2,0:0|2:0,0:0:0:0:
235,218,311908,1,0,0:0:0:0:
428,220,312064,1,8,0:0:0:0:
232,330,312220,1,0,0:0:0:0:
331,164,312377,6,0,P|361:129|400:111,1,85,2|0,0:2|0:0,0:0:0:0:
428,220,312689,1,8,0:0:0:0:
235,218,312845,2,0,L|169:118,1,85,0|0,0:0|0:0,0:0:0:0:
331,164,313158,1,0,0:0:0:0:
330,275,313314,1,8,0:0:0:0:
232,330,313470,6,0,L|112:337,1,85,0|2,0:0|0:2,0:0:0:0:
235,218,313783,1,0,0:0:0:0:
331,164,313939,1,8,0:0:0:0:
428,220,314095,2,0,P|436:310|369:381,1,170,0|0,0:0|0:0,0:0:0:0:
235,218,314564,2,0,P|221:165|234:114,1,85,8|0,0:0|0:0,0:0:0:0:
427,110,314877,6,0,P|441:163|428:214,1,85,2|2,3:0|2:0,0:0:0:0:
232,330,315189,2,0,P|186:321|153:292,1,85,8|2,0:0|0:2,0:0:0:0:
331,164,315502,2,0,P|377:173|410:202,1,85,0|2,0:0|2:0,0:0:0:0:
235,218,315814,2,0,L|125:195,1,85,8|2,0:0|0:2,0:0:0:0:
144,180,316048,1,0,0:0:0:0:
137,160,316127,5,4,0:0:0:0:
236,104,316283,1,0,0:0:0:0:
330,275,316439,1,4,0:0:0:0:
331,164,316595,1,0,0:0:0:0:
235,218,316752,1,8,3:1:0:0:
219,217,316830,1,0,3:1:0:0:
203,217,316908,1,0,3:1:0:0:
187,217,316986,1,0,3:1:0:0:
171,217,317064,1,8,3:1:0:0:
155,217,317142,1,0,3:1:0:0:
139,217,317220,1,0,3:1:0:0:
123,217,317298,1,0,3:1:0:0:
107,216,317377,6,0,L|40:145,1,85,4|0,0:0|0:0,0:0:0:0:
206,117,317689,2,0,L|301:94,1,85,8|0,0:0|0:0,0:0:0:0:
242,252,318002,2,0,L|213:345,1,85,0|0,0:0|0:0,0:0:0:0:
28,286,318314,1,8,0:0:0:0:
105,84,318470,1,4,0:0:0:0:
105,84,318783,5,2,0:2:0:0:
242,252,318939,1,8,0:0:0:0:
207,38,319095,1,8,1:0:0:0:
140,298,319252,1,12,0:0:0:0:
251,100,329877,6,0,L|336:100,1,85,2|0,0:2|0:0,0:0:0:0:
239,277,330189,1,8,0:0:0:0:
186,190,330345,1,0,0:0:0:0:
288,190,330502,2,0,L|373:189,1,85,0|0,0:0|0:0,0:0:0:0:
394,189,330736,1,0,0:0:0:0:
415,189,330814,1,8,0:0:0:0:
340,280,330970,1,0,0:0:0:0:
239,277,331127,6,0,P|178:291|120:267,2,127.5,2|0|0,0:2|0:0|0:0,0:0:0:0:
288,190,331752,1,0,0:0:0:0:
336,102,331908,2,0,L|387:102,2,42.5,0|0|8,0:0|0:0|0:0,0:0:0:0:
235,102,332220,1,0,0:0:0:0:
235,102,332298,1,0,0:0:0:0:
235,102,332377,5,2,0:2:0:0:
340,280,332533,1,0,0:0:0:0:
394,189,332689,1,8,0:0:0:0:
288,190,332845,1,0,0:0:0:0:
239,277,333002,2,0,P|245:319|331:381,2,127.5,2|0|0,0:2|0:0|0:0,0:0:0:0:
394,189,333627,6,0,P|436:239|435:327,2,127.5,2|0|0,0:2|0:0|0:0,0:0:0:0:
288,190,334252,1,8,3:1:0:0:
273,183,334330,1,0,3:1:0:0:
258,178,334408,1,0,3:1:0:0:
242,179,334486,1,0,3:1:0:0:
227,184,334564,1,8,3:1:0:0:
212,189,334642,1,0,3:1:0:0:
196,191,334720,1,0,3:1:0:0:
180,190,334798,1,0,3:1:0:0:
165,185,334877,6,0,P|129:155|118:108,1,85,4|0,1:0|0:0,0:0:0:0:
227,38,335189,2,0,P|263:68|274:115,1,85,8|0,0:0|0:0,0:0:0:0:
274,103,335423,2,0,L|258:235,1,127.5,0|0,0:0|0:0,0:0:0:0:
342,190,335814,1,8,0:0:0:0:
174,268,335970,1,0,0:0:0:0:
190,82,336127,6,0,P|213:40|274:18,1,85,2|0,0:2|0:0,0:0:0:0:
358,122,336439,2,0,P|339:160|303:183,1,85,8|0,0:0|0:0,0:0:0:0:
304,183,336673,2,0,L|159:212,1,127.5
274,103,337064,1,8,0:0:0:0:
441,142,337220,1,0,0:0:0:0:
324,267,337377,6,0,L|144:301,1,170,2|8,0:2|0:0,0:0:0:0:
303,183,337845,1,0,0:0:0:0:
344,350,338002,2,0,L|152:386,1,170,2|8,0:2|0:0,0:0:0:0:
324,267,338470,1,0,0:0:0:0:
385,207,338627,5,8,3:1:0:0:
389,180,338705,1,0,3:1:0:0:
386,154,338783,1,0,3:1:0:0:
375,130,338861,1,0,3:1:0:0:
356,111,338939,1,8,3:1:0:0:
333,99,339017,1,0,3:1:0:0:
307,93,339095,1,0,3:1:0:0:
281,96,339173,1,0,3:1:0:0:
256,107,339252,5,8,3:1:0:0:
235,122,339330,1,0,3:1:0:0:
211,134,339408,1,0,3:1:0:0:
185,140,339486,1,0,3:1:0:0:
159,139,339564,1,8,3:1:0:0:
133,132,339642,1,0,3:1:0:0:
107,127,339720,1,0,3:1:0:0:
81,127,339798,1,0,3:1:0:0:
56,136,339877,6,0,P|18:171|14:231,1,85,4|0,1:0|0:0,0:0:0:0:
149,141,340189,2,0,P|143:99|115:67,1,85,8|0,0:0|0:0,0:0:0:0:
99,219,340502,2,0,P|137:234|179:226,1,85,2|0,0:2|0:0,0:0:0:0:
256,176,340814,1,8,0:0:0:0:
332,227,340970,6,0,P|374:235|413:220,1,85,0|2,0:0|2:0,0:0:0:0:
363,141,341283,1,0,0:0:0:0:
256,176,341439,1,8,0:0:0:0:
256,288,341595,2,0,L|256:376,1,85,0|2,0:0|0:2,0:0:0:0:
350,326,341908,2,0,L|426:282,1,85,0|8,0:0|0:0,0:0:0:0:
332,227,342220,6,0,P|234:191|166:246,1,170,2|0,3:0|0:0,0:0:0:0:
256,288,342689,1,8,0:0:0:0:
410,166,342845,2,0,L|483:107,1,85,0|0,0:0|0:0,0:0:0:0:
381,79,343158,2,0,L|293:44,1,85,0|8,0:0|0:0,0:0:0:0:
321,145,343470,6,0,L|334:237,1,85,2|2,3:0|0:2,0:0:0:0:
350,326,343783,1,0,0:0:0:0:
427,261,343939,1,8,0:0:0:0:
256,288,344095,1,0,0:0:0:0:
444,360,344252,2,0,P|492:337|523:280,1,85
410,166,344564,1,8,0:0:0:0:
350,326,344720,1,0,0:0:0:0:
504,196,344877,6,0,P|502:131|392:67,1,170,2|8,3:0|0:0,0:0:0:0:
256,288,345502,1,0,0:0:0:0:
162,326,345658,1,0,0:0:0:0:
67,360,345814,2,0,L|-13:292,1,85,8|0,0:0|0:0,0:0:0:0:
8,196,346127,6,0,P|10:131|120:67,1,170,2|8,3:0|0:0,0:0:0:0:
350,326,346752,2,0,L|450:367,1,85,0|0,0:0|0:0,0:0:0:0:
162,326,347064,2,0,L|62:367,1,85,8|0,0:0|0:0,0:0:0:0:
350,250,347377,6,0,P|382:174|341:101,1,170,2|8,3:0|0:0,0:0:0:0:
290,179,347845,1,0,0:0:0:0:
258,266,348002,2,0,P|282:313|340:342,1,85,0|0,0:0|0:0,0:0:0:0:
430,240,348314,1,8,0:0:0:0:
290,179,348470,1,0,0:0:0:0:
167,269,348627,5,8,3:1:0:0:
158,275,348705,1,0,3:1:0:0:
149,281,348783,1,0,3:1:0:0:
141,287,348861,1,0,3:1:0:0:
132,293,348939,1,8,3:1:0:0:
123,299,349017,1,0,3:1:0:0:
115,306,349095,1,0,3:1:0:0:
106,312,349173,1,0,3:1:0:0:
96,318,349252,5,8,3:1:0:0:
69,318,349330,1,0,3:1:0:0:
44,309,349408,1,0,3:1:0:0:
24,292,349486,1,0,3:1:0:0:
12,269,349564,1,8,3:1:0:0:
9,242,349642,1,0,3:1:0:0:
15,217,349720,1,0,3:1:0:0:
30,195,349798,1,0,3:1:0:0:
52,180,349877,5,4,2:0:0:0:
70,84,350033,1,0,0:0:0:0:
165,75,350189,1,8,0:0:0:0:
205,164,350345,2,0,L|246:226,2,42.5,0|0|2,0:0|0:0|0:2,0:0:0:0:
142,88,350658,1,0,0:0:0:0:
196,8,350814,1,8,0:0:0:0:
288,35,350970,1,0,0:0:0:0:
290,131,351127,5,2,2:0:0:0:
205,164,351283,1,0,0:0:0:0:
208,258,351439,1,8,0:0:0:0:
297,284,351595,2,0,L|366:320,2,42.5,0|0|2,0:0|0:0|0:2,0:0:0:0:
222,225,351908,1,0,0:0:0:0:
145,277,352064,1,8,0:0:0:0:
168,368,352220,1,0,0:0:0:0:
261,374,352377,5,2,2:0:0:0:
330,311,352533,1,0,0:0:0:0:
334,217,352689,1,8,0:0:0:0:
270,147,352845,2,0,L|229:83,2,42.5,0|0|2,0:0|0:0|0:2,0:0:0:0:
312,230,353158,1,0,0:0:0:0:
402,258,353314,1,8,0:0:0:0:
484,215,353470,1,0,0:0:0:0:
511,126,353627,5,2,2:0:0:0:
420,147,353783,1,0,0:0:0:0:
393,237,353939,1,8,0:0:0:0:
457,305,354095,1,0,3:1:0:0:
449,333,354173,1,0,3:1:0:0:
427,352,354251,5,8,3:1:0:0:
400,362,354329,1,0,3:1:0:0:
370,361,354407,1,0,3:1:0:0:
343,349,354485,1,0,3:1:0:0:
323,327,354563,1,8,3:1:0:0:
306,303,354641,1,0,3:1:0:0:
284,283,354720,1,0,3:1:0:0:
257,272,354798,1,0,3:1:0:0:
227,270,354877,6,0,L|38:325,1,170,4|8,1:0|0:0,0:0:0:0:
229,190,355345,2,0,L|393:237,1,170,0|0,0:0|0:0,0:0:0:0:
224,349,355814,1,8,0:0:0:0:
158,228,355970,6,0,P|150:175|182:126,1,85,4|2,0:0|0:2,0:0:0:0:
364,273,356283,1,0,0:0:0:0:
224,349,356439,1,8,0:0:0:0:
229,190,356595,2,0,L|314:138,1,85,4|0,0:0|0:0,0:0:0:0:
364,273,356908,1,0,0:0:0:0:
276,90,357064,1,8,0:0:0:0:
229,223,357220,1,0,0:0:0:0:
410,139,357377,6,0,L|505:139,1,85,4|0,0:0|0:0,0:0:0:0:
364,306,357689,2,0,L|423:372,1,85,8|0,0:0|0:0,0:0:0:0:
148,306,358002,2,0,L|89:372,1,85,8|0,0:0|0:0,0:0:0:0:
102,139,358314,2,0,L|-1:139,1,85,8|0,0:0|0:0,0:0:0:0:
154,211,358627,5,4,0:0:0:0:
191,130,358783,1,0,0:0:0:0:
50,66,358939,1,8,0:0:0:0:
102,139,359095,1,0,0:0:0:0:
242,202,359252,1,8,3:1:0:0:
261,183,359330,1,0,3:1:0:0:
274,160,359408,1,0,3:1:0:0:
279,134,359486,1,0,3:1:0:0:
277,108,359564,1,8,3:1:0:0:
267,83,359642,1,0,3:1:0:0:
251,63,359720,1,0,3:1:0:0:
229,48,359798,1,0,3:1:0:0:
204,40,359877,6,0,L|104:46,1,85,4|0,2:0|2:0,2:0:0:0:
92,94,360111,2,0,L|192:88,1,85,0|0,2:0|2:0,2:0:0:0:
148,136,360345,2,0,L|64:142,1,85,2|0,0:2|2:0,2:0:0:0:
35,190,360580,2,0,L|135:184,1,85,0|0,2:0|2:0,2:0:0:0:
91,232,360814,1,8,2:0:0:0:
308,40,361127,6,0,L|408:46,1,85,2|0,2:0|2:0,2:0:0:0:
420,94,361361,2,0,L|320:88,1,85,0|0,2:0|2:0,2:0:0:0:
364,136,361595,2,0,L|448:142,1,85,2|0,0:2|2:0,2:0:0:0:
477,190,361830,2,0,L|377:184,1,85,0|0,2:0|2:0,2:0:0:0:
421,232,362064,1,8,2:0:0:0:
175,324,362377,6,0,B|122:348|83:312|83:312|62:263,2,127.5,2|0|2,0:2|0:0|2:0,0:0:0:0:
337,324,363002,2,0,B|390:348|429:312|429:312|450:263,2,127.5,2|0|2,0:2|0:0|2:0,0:0:0:0:
255,180,363627,6,0,L|255:80,1,85
374,29,363939,1,8,0:0:0:0:
374,166,364095,1,0,0:0:0:0:
374,166,364173,1,0,0:0:0:0:
374,166,364252,1,0,0:0:0:0:
255,95,364408,1,0,0:0:0:0:
138,166,364564,1,8,0:0:0:0:
138,303,364720,1,0,0:0:0:0:
256,371,364877,6,0,B|344:358|344:358|380:320,2,127.5,2|0|0,0:2|0:0|0:0,0:0:0:0:
234,374,365423,1,0,0:0:0:0:
213,377,365501,1,0,0:0:0:0:
138,303,365658,2,0,L|50:316|50:316,2,85,0|8|0,0:0|0:0|0:0,0:0:0:0:
255,234,366127,6,0,L|412:210,1,127.5,2|0,0:2|2:0,0:0:0:0:
391,196,366439,1,8,0:0:0:0:
329,294,366595,2,0,P|257:331|175:288,1,170
90,263,367064,1,8,0:0:0:0:
73,167,367220,1,0,0:0:0:0:
69,146,367298,1,0,0:0:0:0:
66,126,367377,6,0,B|60:89|60:89|34:53|34:53|27:0,2,127.5,2|0|0,0:2|0:0|0:0,0:0:0:0:
90,263,368002,2,0,B|60:286|60:286|42:327|42:327|0:359,2,127.5,2|0|0,0:2|0:0|0:0,0:0:0:0:
196,173,368627,2,0,B|231:186|231:186|275:181|275:181|324:202,2,127.5,2|0|0,0:2|0:0|0:0,0:0:0:0:
171,36,369252,1,2,2:0:0:0:
221,310,369564,1,0,0:0:0:0:
281,379,369720,1,0,0:0:0:0:
375,360,369877,5,2,2:0:0:0:
121,210,370189,1,8,2:0:0:0:
414,182,370502,1,2,2:0:0:0:
193,376,370814,1,8,2:0:0:0:
257,89,371127,6,0,B|286:52|336:65|336:65|375:29|416:26|473:28|496:65|496:65|493:109|435:136,1,340,2|8,2:0|2:0,2:0:0:0:
193,376,372064,2,0,B|140:372|124:311,1,85,8|0,2:0|2:0,2:0:0:0:
121,210,372377,6,0,B|106:157|106:157|130:93|211:77,1,170,2|8,2:0|2:0,2:0:0:0:
414,182,373002,2,0,B|450:192|458:231|458:231|470:241|470:241|482:289,2,127.5,0|0|0,2:0|2:0|2:0,2:0:0:0:
261,196,373627,6,0,B|218:204|190:272|224:272|195:340|195:340|263:311|263:345|331:317|340:275,1,340,2|0,2:0|2:0,2:0:0:0:
328,61,374564,1,8,2:0:0:0:
256,112,374720,1,0,2:0:0:0:
180,75,374877,6,0,L|94:33,1,85,4|0,2:0|0:0,0:0:0:0:
185,159,375189,2,0,L|191:254,1,85,8|0,2:0|0:0,0:0:0:0:
256,112,375502,2,0,L|249:16,1,85,0|0,0:0|0:0,0:0:0:0:
261,196,375814,2,0,L|347:238,1,85,8|0,2:0|0:0,0:0:0:0:
407,185,376127,6,0,P|422:242|377:309,2,127.5,2|0|2,2:0|0:0|2:0,0:0:0:0:
332,149,376752,2,0,L|155:62,1,170,4|0,2:0|0:0,0:0:0:0:
185,159,377220,1,0,0:0:0:0:
186,180,377298,1,0,0:0:0:0:
187,201,377377,6,0,L|193:301,1,85,2|0,2:0|0:0,0:0:0:0:
277,239,377689,2,0,L|360:183,1,85,8|0,2:0|0:0,0:0:0:0:
276,336,378002,2,0,L|192:391,1,85,0|0,0:0|0:0,0:0:0:0:
360,288,378314,2,0,L|454:288,1,85,8|0,2:0|0:0,0:0:0:0:
501,201,378627,5,2,2:0:0:0:
453,109,378784,1,0,0:0:0:0:
293,189,378939,1,8,0:0:0:0:
395,195,379095,1,0,0:0:0:0:
350,103,379252,1,8,3:1:0:0:
334,102,379330,1,0,3:1:0:0:
318,101,379408,1,0,3:1:0:0:
302,100,379486,1,0,3:1:0:0:
286,99,379564,1,8,3:1:0:0:
270,98,379642,1,0,3:1:0:0:
254,97,379720,1,0,3:1:0:0:
238,96,379798,1,0,3:1:0:0:
223,95,379877,6,0,L|173:92,2,42.5,4|0|0,2:0|0:0|0:0,0:0:0:0:
293,189,380189,2,0,L|337:166,2,42.5,8|0|0,0:0|0:0|0:0,0:0:0:0:
176,202,380502,2,0,L|131:224,2,42.5,2|0|0,0:2|0:0|0:0,0:0:0:0:
246,296,380814,2,0,L|296:299,2,42.5,8|0|0,0:0|0:0|0:0,0:0:0:0:
129,309,381127,6,0,B|67:304|67:304|34:281|29:247,2,127.5,2|0|0,0:2|0:0|0:0,0:0:0:0:
246,296,381752,2,0,L|336:301,1,85,2|0,2:0|0:0,0:0:0:0:
415,219,382064,2,0,L|324:213,1,85,8|0,0:0|0:0,0:0:0:0:
318,195,382298,1,0,0:0:0:0:
307,178,382377,6,0,P|303:119|363:60,2,127.5,2|0|0,0:2|0:0|0:0,0:0:0:0:
352,306,383002,2,0,L|399:406,1,85,2|0,2:0|0:0,0:0:0:0:
463,297,383314,2,0,L|526:206,1,85,8|0,0:0|0:0,0:0:0:0:
399,206,383627,6,0,P|310:204|256:252,2,127.5,2|0|0,0:2|0:0|0:0,0:0:0:0:
463,297,384252,1,8,3:1:0:0:
434,310,384330,1,0,3:1:0:0:
403,316,384408,1,0,3:1:0:0:
371,313,384486,1,0,3:1:0:0:
344,310,384564,1,8,3:1:0:0:
315,324,384642,1,0,3:1:0:0:
284,328,384720,1,0,3:1:0:0:
252,324,384798,1,0,3:1:0:0:
224,309,384877,6,0,P|189:273|181:195,2,127.5,4|0|0,2:0|0:0|0:0,0:0:0:0:
344,310,385502,2,0,P|373:272|386:220,1,85,2|0,2:0|0:0,0:0:0:0:
229,132,385814,2,0,P|198:160|180:199,1,85,8|0,0:0|0:0,0:0:0:0:
279,222,386127,6,0,L|398:237,1,85,2|0,0:2|0:0,0:0:0:0:
178,43,386439,2,0,L|59:28,1,85,8|0,0:0|0:0,0:0:0:0:
90,222,386752,2,0,P|144:286|248:264,1,170,2|8,0:2|0:0,0:0:0:0:
334,162,387220,1,0,0:0:0:0:
175,127,387377,6,0,L|56:112,1,85,4|0,2:0|0:0,0:0:0:0:
279,222,387689,1,8,0:0:0:0:
310,84,387845,1,0,0:0:0:0:
199,205,388002,2,0,P|201:250|244:296,1,85,4|0,2:0|0:0,0:0:0:0:
334,162,388314,1,8,0:0:0:0:
229,66,388470,1,0,0:0:0:0:
229,66,388548,1,0,0:0:0:0:
229,66,388627,6,0,P|187:48|144:51,1,85,8|0,0:0|0:0,0:0:0:0:
279,222,388939,2,0,P|321:240|364:237,1,85,8|0,0:0|0:0,0:0:0:0:
389,100,389252,1,8,3:1:0:0:
361,83,389330,1,0,3:1:0:0:
330,78,389408,1,0,3:1:0:0:
299,85,389486,1,0,3:1:0:0:
274,104,389564,1,8,3:1:0:0:
252,127,389642,1,0,3:1:0:0:
225,144,389720,1,0,3:1:0:0:
194,152,389798,1,0,3:1:0:0:
162,149,389877,6,0,L|63:133,1,85,4|0,2:0|2:0,2:0:0:0:
184,46,390189,2,0,L|283:62,1,85,0|0,0:0|0:0,0:0:0:0:
277,78,390423,1,0,0:0:0:0:
286,97,390502,2,0,L|329:188,1,85,8|2,0:0|0:2,0:0:0:0:
369,298,390814,1,8,0:0:0:0:
238,277,390970,2,0,L|202:201,1,85,2|0,0:2|0:0,0:0:0:0:
184,46,391283,5,0,0:0:0:0:
107,181,391439,1,8,0:0:0:0:
248,117,391595,1,0,0:0:0:0:
248,117,391673,1,0,0:0:0:0:
248,117,391752,1,0,0:0:0:0:
96,85,391908,1,0,0:0:0:0:
202,201,392064,1,8,0:0:0:0:
184,46,392220,1,0,0:0:0:0:
107,181,392377,6,0,P|113:238|167:292,1,127.5,2|0,0:2|0:0,0:0:0:0:
158,288,392689,2,0,L|265:288,1,85,8|0,0:0|0:0,0:0:0:0:
394,206,393002,1,0,0:0:0:0:
248,117,393158,2,0,L|141:117,1,85,2|8,0:2|0:0,0:0:0:0:
296,204,393470,6,0,P|340:153|337:74,1,127.5,4|0,1:0|2:0,0:0:0:0:
337,75,393783,1,0,0:0:0:0:
202,201,393939,1,8,0:0:0:0:
202,201,394252,6,0,L|156:211,4,28.3333333333333,8|0|0|0|0,3:1|3:0|3:0|3:0|3:0,3:0:0:0:
296,204,394564,2,0,L|309:159,4,28.3333333333333,8|0|0|0|0,3:1|3:0|3:0|3:0|3:0,3:0:0:0:
270,296,394877,5,4,0:0:0:0:
362,272,395033,1,0,0:0:0:0:
387,180,395189,2,0,L|412:85,1,85,8|0,0:0|0:0,0:0:0:0:
296,204,395502,1,2,0:2:0:0:
362,272,395658,1,0,0:0:0:0:
453,248,395814,1,8,0:0:0:0:
477,157,395970,2,0,L|502:62,1,85,0|2,0:0|2:0,0:0:0:0:
387,180,396283,5,0,0:0:0:0:
296,204,396439,1,8,0:0:0:0:
271,294,396595,1,0,0:0:0:0:
336,360,396752,2,0,P|393:360|439:324,1,85,2|0,0:2|0:0,0:0:0:0:
387,180,397064,2,0,P|330:180|284:216,1,85,8|0,0:0|0:0,0:0:0:0:
453,248,397377,5,2,0:2:0:0:
477,157,397533,1,0,0:0:0:0:
410,90,397689,2,0,L|311:63,1,85,8|0,0:0|0:0,0:0:0:0:
205,228,398002,1,2,0:2:0:0:
296,204,398158,1,0,0:0:0:0:
362,272,398314,1,8,0:0:0:0:
453,248,398470,2,0,P|435:209|402:183,1,85,0|2,0:0|2:0,0:0:0:0:
271,294,398783,6,0,P|288:332|321:358,1,85,0|8,0:0|0:0,0:0:0:0:
362,272,399095,1,0,0:0:0:0:
229,137,399252,1,0,0:0:0:0:
178,319,399408,1,0,0:0:0:0:
178,319,399486,1,0,0:0:0:0:
178,319,399564,1,8,0:0:0:0:
296,204,399720,1,0,0:0:0:0:
137,159,399877,5,4,1:0:0:0:
271,294,400033,1,0,0:0:0:0:
320,110,400189,1,8,0:0:0:0:
205,228,400345,1,0,0:0:0:0:
387,180,400502,2,0,P|410:142|415:94,1,85,2|0,2:0|0:0,0:0:0:0:
407,82,400736,1,0,0:0:0:0:
399,62,400814,1,8,0:0:0:0:
229,137,400970,1,0,0:0:0:0:
362,272,401127,6,0,L|450:279,1,85,2|0,3:0|0:0,0:0:0:0:
205,228,401439,2,0,L|117:235,1,85,8|0,0:0|0:0,0:0:0:0:
320,110,401752,2,0,L|408:103,1,85,2|0,0:2|0:0,0:0:0:0:
163,66,402064,2,0,L|75:59,1,85,8|0,0:0|0:0,0:0:0:0:
60,246,402377,5,2,3:0:0:0:
251,44,402689,1,8,1:0:0:0:
251,44,402845,1,4,0:0:0:0:
331,310,403158,1,8,0:0:0:0:
96,89,403470,1,8,0:0:0:0:
367,153,403783,5,8,0:0:0:0:
367,153,403939,1,4,0:0:0:0:
176,355,404252,1,8,3:1:0:0:
154,355,404330,1,0,3:1:0:0:
134,350,404408,1,0,3:1:0:0:
115,340,404486,1,0,3:1:0:0:
101,324,404564,1,8,3:1:0:0:
91,305,404642,1,0,3:1:0:0:
87,285,404720,1,0,3:1:0:0:
89,264,404798,1,0,3:1:0:0:
94,243,404877,5,4,0:0:0:0:
192,157,405033,1,0,0:0:0:0:
163,284,405189,1,8,0:0:0:0:
111,164,405345,1,0,0:0:0:0:
223,230,405502,2,0,L|312:230,1,85,8|2,1:0|0:2,1:0:0:0:
308,230,405736,2,0,P|289:160|312:105,1,127.5
396,170,406127,5,8,0:0:0:0:
444,332,406283,1,0,0:0:0:0:
308,230,406439,1,8,0:0:0:0:
477,232,406595,1,0,0:0:0:0:
339,331,406752,2,0,L|236:332,1,85,8|2,0:0|0:2,0:0:0:0:
254,331,406986,2,0,P|270:267|230:188,1,127.5,0|0,0:0|0:0,0:0:0:0:
164,274,407377,6,0,L|68:274,1,85,8|2,0:0|0:2,0:0:0:0:
79,274,407611,2,0,P|63:209|103:130,1,127.5,0|0,0:0|0:0,0:0:0:0:
226,109,408002,2,0,L|311:109,1,85,8|2,0:0|0:2,0:0:0:0:
311,109,408236,2,0,P|327:170|308:230,1,127.5,0|0,0:0|0:0,0:0:0:0:
136,168,408627,6,0,P|119:107|139:47,2,127.5,8|0|2,0:0|0:0|2:0,2:0:0:0:
164,274,409252,1,8,3:1:0:0:
186,296,409330,1,0,3:1:0:0:
213,312,409408,1,0,3:1:0:0:
245,314,409486,1,0,3:1:0:0:
274,303,409564,1,8,3:1:0:0:
303,289,409642,1,0,3:1:0:0:
334,285,409720,1,0,3:1:0:0:
364,296,409798,1,0,3:1:0:0:
387,318,409877,6,0,L|454:373,1,85,4|0,0:0|0:0,0:0:0:0:
477,239,410189,2,0,L|491:154,1,85,8|0,0:0|0:0,0:0:0:0:
363,201,410502,1,2,0:2:0:0:
256,260,410658,1,0,0:0:0:0:
183,359,410814,1,8,0:0:0:0:
183,235,410970,1,0,0:0:0:0:
135,122,411127,6,0,P|85:83|23:72,2,127.5,8|0|0,0:0|0:0|0:0,0:0:0:0:
241,184,411752,1,2,2:0:0:0:
118,196,411908,1,0,0:0:0:0:
210,113,412065,1,8,0:0:0:0:
183,235,412220,1,0,0:0:0:0:
183,235,412298,1,0,0:0:0:0:
183,235,412377,6,0,P|151:262|109:269,1,85,0|0,0:0|0:0,0:0:0:0:
135,122,412689,2,0,P|143:79|174:47,1,85,8|0,0:0|0:0,0:0:0:0:
341,49,413002,2,0,P|369:80|377:122,1,85,0|0,0:0|0:0,0:0:0:0:
328,235,413314,2,0,P|360:262|402:269,1,85,8|0,0:0|0:0,0:0:0:0:
302,113,413627,5,8,0:0:0:0:
183,235,413783,1,0,0:0:0:0:
288,338,413939,1,8,0:0:0:0:
242,174,414095,1,0,0:0:0:0:
100,213,414252,1,8,0:0:0:0:
265,255,414408,1,0,0:0:0:0:
218,91,414564,1,8,0:0:0:0:
122,295,414720,1,0,0:0:0:0:
122,295,414798,1,0,0:0:0:0:
122,295,414877,6,0,L|227:323,1,85,4|0,1:0|0:0,0:0:0:0:
242,174,415189,1,8,0:0:0:0:
100,213,415345,2,0,P|58:234|40:300,1,85
265,255,415658,1,0,0:0:0:0:
160,153,415814,1,8,0:0:0:0:
204,316,415970,1,0,0:0:0:0:
204,316,416048,1,0,0:0:0:0:
204,316,416127,6,0,P|257:341|311:330,1,85,4|0,0:0|0:0,0:0:0:0:
242,174,416439,1,8,0:0:0:0:
122,295,416595,2,0,L|147:401,1,85,0|2,0:0|0:2,0:0:0:0:
265,255,416908,1,0,0:0:0:0:
218,91,417064,1,8,0:0:0:0:
183,235,417220,1,0,0:0:0:0:
183,235,417298,1,0,0:0:0:0:
183,235,417377,5,0,0:0:0:0:
325,193,417533,1,0,0:0:0:0:
160,153,417689,1,8,0:0:0:0:
265,255,417845,1,0,0:0:0:0:
265,255,417923,1,0,0:0:0:0:
265,255,418002,1,8,0:0:0:0:
300,113,418158,1,0,0:0:0:0:
136,72,418314,1,8,0:0:0:0:
204,316,418470,1,0,0:0:0:0:
220,328,418548,1,0,0:0:0:0:
240,337,418627,5,8,3:1:0:0:
261,340,418704,1,0,3:1:0:0:
282,338,418782,1,0,3:1:0:0:
302,331,418860,1,0,3:1:0:0:
320,320,418938,1,8,3:1:0:0:
334,304,419016,1,0,3:1:0:0:
344,285,419095,1,0,3:1:0:0:
350,265,419173,1,0,3:1:0:0:
351,245,419252,6,0,L|343:168,1,42.5,8|0,3:1|3:1,3:1:0:0:
265,255,419408,2,0,L|257:332,1,42.5,0|0,3:1|3:1,3:1:0:0:
242,174,419564,2,0,L|234:97,1,42.5,8|0,3:1|3:1,3:1:0:0:
163,205,419720,2,0,L|155:282,1,42.5,0|0,3:1|3:1,3:1:0:0:
136,72,419877,5,4,1:0:0:0:
402,195,429877,6,0,L|516:176,1,85,2|0,0:2|0:0,0:0:0:0:
386,294,430189,2,0,L|302:280,1,85,8|0,0:0|0:0,0:0:0:0:
194,164,430502,2,0,L|277:150,1,85,0|0,0:0|0:0,0:0:0:0:
179,263,430814,1,8,0:0:0:0:
95,249,430970,1,0,0:0:0:0:
65,169,431127,6,0,B|43:136|48:108|48:108|80:90|89:42,2,127.5,2|0|0,0:2|0:0|0:0,0:0:0:0:
95,249,431752,2,0,L|195:266,1,85,0|0,0:0|0:0,0:0:0:0:
277,150,432064,2,0,L|194:164,1,85,8|0,0:0|0:0,0:0:0:0:
302,280,432377,5,2,0:2:0:0:
386,294,432533,1,0,0:0:0:0:
440,228,432689,1,8,0:0:0:0:
409,148,432845,1,0,0:0:0:0:
324,134,433002,1,2,0:2:0:0:
389,186,433158,1,0,0:0:0:0:
469,156,433314,1,8,0:0:0:0:
482,71,433470,1,0,0:0:0:0:
414,18,433627,6,0,B|355:7|325:34|325:34|302:91,2,127.5,2|0|0,0:2|0:0|0:0,0:0:0:0:
482,71,434252,2,0,L|467:171,1,85,2|0,2:0|0:0,0:0:0:0:
389,186,434564,1,8,0:0:0:0:
385,207,434642,1,0,0:0:0:0:
382,228,434720,1,0,0:0:0:0:
379,249,434798,1,0,0:0:0:0:
375,270,434877,6,0,L|275:300,1,85,2|0,0:2|0:0,0:0:0:0:
188,217,435189,2,0,L|288:187,1,85,8|0,0:0|0:0,0:0:0:0:
150,294,435502,2,0,L|68:269,1,85,2|0,0:2|0:0,0:0:0:0:
48,186,435814,1,8,0:0:0:0:
28,103,435970,1,0,0:0:0:0:
89,44,436127,6,0,B|134:28|174:50|174:50|194:33|225:28,2,127.5,2|0|0,0:2|0:0|0:0,0:0:0:0:
28,103,436752,2,0,L|53:209,1,85,2|0,0:2|0:0,0:0:0:0:
147,279,437064,1,8,0:0:0:0:
131,196,437220,1,0,0:0:0:0:
73,319,437377,6,0,P|124:360|214:334,2,127.5,2|0|0,0:2|0:0|0:0,0:0:0:0:
47,186,438002,2,0,P|69:136|116:112,1,85,2|0,0:2|0:0,0:0:0:0:
147,279,438314,1,8,0:0:0:0:
12,260,438470,1,0,0:0:0:0:
130,196,438627,6,0,P|192:207|229:257,2,127.5,2|0|2,0:2|2:0|2:0,0:0:0:0:
147,279,439252,1,8,2:0:0:0:
157,303,439330,1,0,2:0:0:0:
175,322,439408,1,0,2:0:0:0:
198,336,439486,1,0,2:0:0:0:
224,341,439564,1,8,2:0:0:0:
250,339,439642,1,0,2:0:0:0:
274,328,439720,1,0,2:0:0:0:
294,311,439798,1,0,2:0:0:0:
308,288,439877,5,2,3:0:0:0:
215,171,440033,1,0,0:0:0:0:
228,256,440189,1,8,0:0:0:0:
377,231,440345,1,0,0:0:0:0:
282,116,440502,2,0,P|234:86|175:94,1,85,2|0,3:0|0:0,0:0:0:0:
215,171,440814,1,8,0:0:0:0:
308,288,440970,6,0,P|356:318|415:310,1,85,0|0,0:0|0:0,0:0:0:0:
363,146,441283,1,0,0:0:0:0:
228,256,441439,1,8,0:0:0:0:
377,231,441595,1,0,0:0:0:0:
429,89,441752,1,8,0:0:0:0:
412,75,441830,1,0,0:0:0:0:
394,65,441908,1,0,0:0:0:0:
373,59,441986,1,0,0:0:0:0:
352,58,442064,1,8,0:0:0:0:
282,116,442220,1,0,0:0:0:0:
377,231,442377,5,0,0:0:0:0:
352,58,442533,1,0,0:0:0:0:
308,288,442689,1,8,0:0:0:0:
363,146,442845,1,0,0:0:0:0:
458,263,443002,2,0,P|433:298|395:317,1,85,0|0,0:0|0:0,0:0:0:0:
228,256,443314,2,0,P|252:221|293:204,1,85,8|0,0:0|0:0,0:0:0:0:
311,200,443548,1,0,0:0:0:0:
332,195,443626,5,8,0:0:0:0:
308,288,443783,1,0,0:0:0:0:
282,116,443939,1,8,0:0:0:0:
228,256,444095,1,0,0:0:0:0:
352,58,444252,1,4,0:0:0:0:
240,341,444564,1,4,0:0:0:0:
52,102,444877,6,0,L|147:88,1,85,4|2,0:0|0:2,0:0:0:0:
136,89,445111,2,0,P|173:139|176:202,1,127.5
74,175,445502,2,0,L|-20:188,1,85,2|0,0:2|2:0,2:0:0:0:
101,277,445814,2,0,L|185:289,1,85,8|0,0:0|0:0,0:0:0:0:
288,143,446127,6,0,L|193:156,1,85,2|0,0:2|2:0,0:0:0:0:
315,245,446439,2,0,L|399:257,1,85,8|0,0:0|2:0,0:0:0:0:
502,111,446752,2,0,L|407:124,1,85,2|0,0:2|2:0,0:0:0:0:
213,217,447064,1,8,0:0:0:0:
365,183,447220,1,0,0:0:0:0:
151,164,447377,6,0,L|56:177,1,85,2|0,0:2|2:0,0:0:0:0:
275,270,447689,2,0,L|369:256,1,85,8|0,0:0|0:0,0:0:0:0:
227,136,448002,2,0,L|249:43,1,85,2|0,0:2|2:0,0:0:0:0:
197,296,448314,2,0,L|174:388,1,85,8|0,0:0|0:0,0:0:0:0:
350,241,448627,6,0,B|359:244|359:244|362:237|362:237|375:239|375:239|379:232|379:232|391:234|391:234|395:227|395:227|407:228|407:228|411:221|411:221|423:223|423:223|427:216|427:216|440:218|440:218|443:211|443:211|456:213|456:213|459:206|459:206|472:207|472:207|475:200|475:200|488:201|488:201,1,170,4|8,0:0|0:0,0:0:0:0:
376,100,449095,1,0,0:0:0:0:
376,100,449173,1,0,0:0:0:0:
376,100,449252,1,4,0:0:0:0:
197,296,449486,1,4,0:0:0:0:
456,353,449720,1,4,0:0:0:0:
456,353,450033,5,0,0:0:0:0:
456,353,450111,1,0,0:0:0:0:
456,353,450189,1,8,0:0:0:0:
350,241,450345,1,0,0:0:0:0:
350,241,450423,1,0,0:0:0:0:
350,241,450502,1,8,0:0:0:0:
197,296,450658,1,0,0:0:0:0:
225,135,450814,1,8,0:0:0:0:
99,29,450970,6,0,P|64:40|17:93,1,85
18,182,451283,1,0,0:0:0:0:
18,182,451361,1,0,0:0:0:0:
18,182,451439,1,8,0:0:0:0:
109,246,451595,1,0,0:0:0:0:
200,310,451752,2,0,L|279:276,1,85,0|0,0:0|0:0,0:0:0:0:
387,118,452064,2,0,L|309:152,1,85,8|0,0:0|0:0,0:0:0:0:
128,228,452377,6,0,P|89:301|115:380,1,170,4|8,2:0|0:0,0:0:0:0:
200,310,452845,1,0,0:0:0:0:
180,191,453002,2,0,P|108:233|80:311,1,170,4|8,2:0|0:0,0:0:0:0:
200,310,453470,1,0,0:0:0:0:
232,154,453627,6,0,P|158:158|67:230,1,170,4|8,2:0|0:0,0:0:0:0:
200,310,454095,1,0,0:0:0:0:
284,117,454252,2,0,P|213:100|98:128,1,170,4|8,2:0|0:0,0:0:0:0:
200,310,454720,1,0,0:0:0:0:
336,80,454877,6,0,B|246:16|211:112|120:67|120:67|186:113|180:181|134:254|54:248|-8:217|-20:128|18:90,1,595,4|0,0:0|0:0,0:0:0:0:
81,138,456127,6,0,B|101:167|128:177|158:177|158:177|202:221,2,127.5,12|0|2,0:0|2:0|0:2,0:0:0:0:
157,84,456752,2,0,B|137:55|110:45|80:45|80:45|36:1,2,127.5,2|0|2,0:2|2:0|0:2,0:0:0:0:
241,122,457377,5,4,0:0:0:0:
201,289,459408,5,0,0:0:0:0:
311,289,459564,1,0,0:0:0:0:
256,194,459720,1,0,0:0:0:0:
91,288,459877,6,0,P|98:329|122:364,1,85,2|0,0:2|0:0,0:0:0:0:
389,365,460189,2,0,P|412:330|420:288,1,85,8|0,0:0|0:0,0:0:0:0:
145,194,460502,1,0,0:0:0:0:
311,289,460658,1,0,0:0:0:0:
201,289,460814,1,8,0:0:0:0:
367,194,460970,6,0,P|403:231|421:298,1,85,0|2,0:0|0:2,0:0:0:0:
256,384,461283,1,0,0:0:0:0:
145,194,461439,1,8,0:0:0:0:
256,194,461595,1,0,0:0:0:0:
91,288,461752,2,0,L|-9:289,1,85,0|0,0:0|0:0,0:0:0:0:
145,194,462064,1,8,0:0:0:0:
201,289,462220,1,0,0:0:0:0:
256,384,462377,6,0,L|352:384,1,85,2|0,0:2|0:0,0:0:0:0:
256,194,462689,2,0,L|160:194,1,85,8|0,0:0|0:0,0:0:0:0:
311,289,463002,2,0,L|407:289,1,85,0|0,0:0|0:0,0:0:0:0:
367,194,463314,1,8,0:0:0:0:
201,289,463470,6,0,L|156:369,2,85,0|2|0,0:0|0:2|0:0,0:0:0:0:
256,194,463939,1,8,0:0:0:0:
311,289,464095,1,0,0:0:0:0:
311,97,464252,1,0,0:0:0:0:
145,194,464408,1,0,0:0:0:0:
145,194,464486,1,0,0:0:0:0:
145,194,464564,1,8,0:0:0:0:
257,2,464720,1,8,0:0:0:0:
256,194,464877,6,0,L|212:271,1,85,2|0,0:2|0:0,0:0:0:0:
201,97,465189,2,0,L|156:20,1,85,8|0,0:0|0:0,0:0:0:0:
311,97,465502,2,0,L|397:97,1,85,0|0,0:0|0:0,0:0:0:0:
145,194,465814,1,8,0:0:0:0:
256,194,465970,6,0,L|431:194,1,170,2|0,0:2|0:0,0:0:0:0:
201,289,466439,1,8,0:0:0:0:
311,289,466595,2,0,L|516:289,1,170,2|0,0:2|0:0,0:0:0:0:
311,97,467064,1,8,0:0:0:0:
145,194,467220,6,0,P|91:282|122:367,1,170,2|0,0:2|0:0,0:0:0:0:
201,289,467689,1,8,0:0:0:0:
201,97,467845,2,0,B|116:62|116:126|36:98,1,170,2|0,0:2|0:0,0:0:0:0:
145,194,468314,1,8,0:0:0:0:
311,289,468470,6,0,B|396:324|396:260|476:288,1,170,2|0,0:2|0:0,0:0:0:0:
367,194,468939,1,8,0:0:0:0:
201,289,469095,2,0,L|110:331,1,85,2|8,0:2|0:0,0:0:0:0:
97,329,469330,1,0,3:1:0:0:
72,322,469408,1,0,3:1:0:0:
54,303,469486,1,0,3:1:0:0:
48,277,469564,1,8,3:1:0:0:
53,251,469642,1,0,3:1:0:0:
62,226,469720,1,0,3:1:0:0:
65,200,469798,1,0,3:1:0:0:
58,174,469877,6,0,P|45:136|-6:81,1,85,4|0,2:0|0:0,0:0:0:0:
145,194,470189,2,0,P|183:202|257:184,1,85,8|0,0:0|0:0,0:0:0:0:
275,115,470502,2,0,P|232:106|162:124,1,85,0|0,0:0|0:0,0:0:0:0:
322,197,470814,1,8,0:0:0:0:
369,115,470970,6,0,P|355:65|326:36,1,85,0|2,0:0|0:2,0:0:0:0:
275,115,471283,1,0,0:0:0:0:
228,196,471439,1,8,0:0:0:0:
275,277,471595,2,0,L|275:328,2,42.5,0|0|0,0:0|0:0|0:0,0:0:0:0:
322,197,471908,1,0,0:0:0:0:
275,115,472064,1,8,0:0:0:0:
180,114,472220,1,0,0:0:0:0:
180,114,472298,1,0,0:0:0:0:
180,114,472377,5,2,0:2:0:0:
322,197,472533,1,0,0:0:0:0:
228,33,472689,1,8,0:0:0:0:
132,196,472845,1,0,0:0:0:0:
275,115,473002,1,2,0:2:0:0:
369,279,473158,1,0,0:0:0:0:
228,196,473314,1,8,0:0:0:0:
226,358,473470,1,0,0:0:0:0:
322,197,473627,6,0,P|363:184|413:196,1,85,2|0,0:2|0:0,0:0:0:0:
275,277,473939,1,8,0:0:0:0:
275,115,474095,2,0,L|359:26,1,85,0|8,0:0|0:0,0:0:0:0:
343,51,474330,1,0,3:1:0:0:
354,50,474408,1,0,3:1:0:0:
364,48,474486,1,0,3:1:0:0:
375,47,474564,1,8,3:1:0:0:
385,45,474642,1,0,3:1:0:0:
396,44,474720,1,0,3:1:0:0:
406,42,474798,1,0,3:1:0:0:
417,41,474877,6,0,L|510:27,1,85,2|0,0:2|0:0,0:0:0:0:
406,209,475189,2,0,L|321:197,1,85,8|0,0:0|0:0,0:0:0:0:
160,81,475502,1,2,0:2:0:0:
244,69,475658,1,0,0:0:0:0:
128,159,475814,1,8,0:0:0:0:
75,92,475970,1,0,0:0:0:0:
211,147,476127,5,2,0:2:0:0:
180,227,476283,1,0,0:0:0:0:
160,81,476439,1,8,0:0:0:0:
295,133,476595,1,0,0:0:0:0:
128,159,476752,1,2,0:2:0:0:
244,69,476908,1,0,0:0:0:0:
379,124,477064,1,8,0:0:0:0:
284,361,477377,5,2,0:2:0:0:
264,215,477533,1,0,0:0:0:0:
379,124,477689,1,8,0:0:0:0:
152,309,478002,5,2,0:2:0:0:
319,282,478158,1,0,0:0:0:0:
379,124,478314,1,8,0:0:0:0:
128,159,478627,5,8,0:0:0:0:
264,215,478783,1,0,0:0:0:0:
244,69,478939,1,0,0:0:0:0:
180,227,479095,1,0,0:0:0:0:
180,227,479408,1,0,0:0:0:0:
182,241,479486,1,0,0:0:0:0:
184,255,479564,1,8,0:0:0:0:
186,269,479642,1,0,0:0:0:0:
188,283,479720,1,0,0:0:0:0:
190,297,479798,1,0,0:0:0:0:
192,311,479877,6,0,L|306:328,1,85,4|0,2:0|0:0,0:0:0:0:
348,227,480189,2,0,L|264:215,1,85,8|0,0:0|0:0,0:0:0:0:
379,306,480502,1,2,0:2:0:0:
432,240,480658,1,0,0:0:0:0:
401,161,480814,2,0,L|369:81,1,85,8|0,0:0|0:0,0:0:0:0:
264,215,481127,5,2,0:2:0:0:
379,306,481283,1,0,0:0:0:0:
316,147,481439,1,8,0:0:0:0:
209,281,481595,1,0,0:0:0:0:
348,227,481752,1,2,0:2:0:0:
238,361,481908,1,0,0:0:0:0:
177,198,482064,2,0,L|138:99,1,85,8|0,0:0|0:0,0:0:0:0:
209,281,482377,6,0,L|142:364,1,85,2|0,0:2|0:0,0:0:0:0:
264,215,482689,2,0,L|369:230,1,85,8|0,0:0|0:0,0:0:0:0:
235,131,483002,1,2,0:2:0:0:
293,299,483158,2,0,L|325:391,1,85,0|8,0:0|0:0,0:0:0:0:
316,147,483470,6,0,L|284:55,1,85,0|2,0:0|0:2,0:0:0:0:
209,281,483783,1,0,0:0:0:0:
348,227,483939,2,0,P|381:203|401:159,1,85,8|0,0:0|0:0,0:0:0:0:
177,198,484252,2,0,P|144:222|124:266,1,85,2|0,0:2|0:0,0:0:0:0:
120,285,484486,1,0,0:0:0:0:
124,310,484564,2,0,P|148:348|184:368,1,85,8|0,0:0|0:0,0:0:0:0:
293,299,484877,6,0,L|334:249,2,42.5,2|0|0,0:2|0:0|0:0,0:0:0:0:
209,281,485189,2,0,L|168:331,2,42.5,8|0|0,0:0|0:0|0:0,0:0:0:0:
264,215,485502,2,0,L|340:126,1,85,2|2,0:2|2:0,0:0:0:0:
319,150,485736,2,0,P|378:171|439:150,1,127.5,0|0,0:0|0:0,0:0:0:0:
379,78,486127,5,2,0:2:0:0:
286,62,486283,1,0,0:0:0:0:
225,134,486439,2,0,L|135:160,1,85,8|2,0:0|0:2,0:0:0:0:
143,157,486673,2,0,P|165:224|133:290,1,127.5
73,218,487064,1,8,0:0:0:0:
55,127,487220,1,0,0:0:0:0:
124,65,487377,6,0,P|168:67|221:109,1,85,2|0,0:2|0:0,0:0:0:0:
162,249,487689,2,0,P|118:247|65:205,1,85,8|0,0:0|0:0,0:0:0:0:
143,157,488002,1,0,0:0:0:0:
232,186,488158,1,0,0:0:0:0:
251,277,488314,1,8,0:0:0:0:
181,338,488470,6,0,B|144:358|98:327|98:327|69:327|69:327|64:299|10:299,2,170,0|0|0,0:0|0:0|0:0,0:0:0:0:
251,277,489252,1,8,3:1:0:0:
271,275,489331,1,0,3:1:0:0:
290,281,489409,1,0,3:1:0:0:
306,292,489487,1,0,3:1:0:0:
322,304,489565,1,8,3:1:0:0:
340,314,489643,1,0,3:1:0:0:
359,318,489721,1,0,3:1:0:0:
379,319,489799,1,0,3:1:0:0:
399,317,489877,5,4,2:0:0:0:
485,262,490033,1,0,0:0:0:0:
303,168,490189,1,8,0:0:0:0:
394,215,490345,1,0,0:0:0:0:
222,325,490502,1,2,0:2:0:0:
308,270,490659,1,0,0:0:0:0:
126,176,490814,1,8,0:0:0:0:
217,223,490970,1,0,0:0:0:0:
45,333,491127,5,2,0:2:0:0:
131,278,491284,1,0,0:0:0:0:
35,128,491439,1,8,0:0:0:0:
40,231,491595,1,0,0:0:0:0:
217,223,491752,2,0,B|264:227|292:195|292:195|321:198|321:198|362:142|389:173|415:170|456:147,1,255,2|0,0:2|0:0,0:0:0:0:
300,100,492377,6,0,B|247:94|247:94|201:102,1,85,4|0,2:0|0:0,0:0:0:0:
133,222,492689,2,0,B|186:228|186:228|232:220,1,85,8|0,0:0|0:0,0:0:0:0:
126,112,493002,1,0,0:0:0:0:
34,173,493158,1,0,0:0:0:0:
40,283,493314,2,0,P|88:326|140:329,1,85,8|0,0:0|0:0,0:0:0:0:
299,237,493627,6,0,B|276:226|276:226|217:222,1,85,2|0,0:2|0:0,0:0:0:0:
255,368,493939,2,0,B|278:379|278:379|337:383,1,85,8|0,0:0|0:0,0:0:0:0:
361,375,494173,1,0,3:1:0:0:
383,362,494251,1,8,3:1:0:0:
400,343,494329,1,0,3:1:0:0:
409,319,494407,1,0,3:1:0:0:
409,294,494485,1,0,3:1:0:0:
404,269,494563,1,8,3:1:0:0:
397,244,494641,1,0,3:1:0:0:
395,219,494720,1,0,3:1:0:0:
401,194,494798,1,0,3:1:0:0:
413,172,494877,6,0,P|424:115|341:33,1,170,4|8,2:0|0:0,0:0:0:0:
156,35,495345,1,0,0:0:0:0:
156,35,495423,1,0,0:0:0:0:
156,35,495502,2,0,P|94:89|99:172,1,170,2|8,0:2|0:0,0:0:0:0:
256,263,495970,1,0,0:0:0:0:
256,263,496048,1,0,0:0:0:0:
256,263,496127,5,2,0:2:0:0:
311,168,496283,1,0,0:0:0:0:
146,263,496439,1,8,0:0:0:0:
366,263,496595,1,0,0:0:0:0:
201,168,496752,2,0,P|139:152|78:176,2,127.5,2|0|0,0:2|0:0|0:0,0:0:0:0:
311,358,497377,5,2,0:2:0:0:
146,263,497533,1,0,0:0:0:0:
366,263,497689,1,8,0:0:0:0:
201,358,497845,1,0,0:0:0:0:
36,262,498002,2,0,P|60:189|122:155,2,127.5,2|0|0,0:2|0:0|0:0,0:0:0:0:
201,358,498627,5,8,0:0:0:0:
439,122,498939,1,8,0:0:0:0:
109,170,499252,1,8,0:0:0:0:
404,326,499564,1,8,2:0:0:0:
257,25,499877,5,4,0:0:0:0:
256,192,508627,12,0,509720,0:0:0:0:
391,203,509877,6,0,L|474:217,1,85,4|0,2:0|0:0,0:0:0:0:
362,94,510189,2,0,L|278:108,1,85,8|0,0:0|0:0,0:0:0:0:
200,189,510502,2,0,L|283:203,1,85,2|0,0:2|0:0,0:0:0:0:
171,80,510814,2,0,L|87:94,1,85,8|0,0:0|0:0,0:0:0:0:
114,223,511127,6,0,P|144:264|204:282,1,85,2|0,0:2|0:0,0:0:0:0:
287,155,511439,2,0,P|257:114|197:96,1,85,8|0,0:0|0:0,0:0:0:0:
270,254,511752,2,0,L|368:255,1,85,2|0,0:2|0:0,0:0:0:0:
448,95,512064,2,0,L|350:94,1,85,8|0,0:0|0:0,0:0:0:0:
200,189,512377,6,0,P|174:244|308:340,1,255,2|0,0:2|0:0,0:0:0:0:
287,155,513002,2,0,P|257:114|197:96,1,85,0|0,0:0|0:0,0:0:0:0:
270,254,513314,1,8,0:0:0:0:
364,219,513470,1,0,0:0:0:0:
380,120,513627,6,0,L|446:39,1,85,2|0,0:2|0:0,0:0:0:0:
457,183,513939,2,0,L|493:280,1,85,8|0,0:0|0:0,0:0:0:0:
364,219,514252,2,0,L|261:201,1,85,0|0,0:0|0:0,0:0:0:0:
245,111,514564,1,8,0:0:0:0:
308,33,514720,1,0,0:0:0:0:
407,48,514877,6,0,B|448:67|456:116|456:116|445:150|445:150|492:210|468:272|429:299,1,255,2|0,0:2|0:0,0:0:0:0:
265,256,515502,2,0,P|257:222|268:173,1,85
364,219,515814,1,8,0:0:0:0:
346,323,515970,1,0,0:0:0:0:
246,359,516127,6,0,L|154:338,1,85,2|0,0:2|0:0,0:0:0:0:
62,310,516439,2,0,L|126:240,1,85,8|0,0:0|0:0,0:0:0:0:
196,175,516752,2,0,L|223:265,1,85,0|0,0:0|0:0,0:0:0:0:
320,283,517064,1,8,0:0:0:0:
392,210,517220,1,0,0:0:0:0:
364,111,517377,5,2,0:2:0:0:
292,184,517533,1,0,0:0:0:0:
462,136,517689,1,8,0:0:0:0:
266,86,517845,1,0,0:0:0:0:
392,210,518002,1,0,0:0:0:0:
336,12,518158,1,0,0:0:0:0:
192,159,518314,1,8,0:0:0:0:
320,283,518470,1,0,0:0:0:0:
491,234,518627,6,0,P|486:168|428:113,1,127.5,2|0,0:2|0:0,0:0:0:0:
435,116,518939,1,8,0:0:0:0:
320,283,519095,2,0,P|366:310|418:309,1,85
392,210,519408,2,0,P|344:182|292:183,1,85,0|8,0:0|0:0,0:0:0:0:
346,381,519720,6,0,B|376:370|408:343|418:303|418:303|476:284|493:230|486:185,1,255,2|8,0:2|0:0,0:0:0:0:
364,111,520345,1,0,0:0:0:0:
233,176,520502,2,0,B|149:209|205:255|111:283|111:283|132:352|206:336,1,255,2|0,0:2|0:0,0:0:0:0:
270,304,521127,5,8,3:1:0:0:
300,299,521205,1,0,3:1:0:0:
327,286,521283,1,0,3:1:0:0:
344,261,521361,1,0,3:1:0:0:
347,231,521439,1,8,3:1:0:0:
366,210,521517,1,0,3:1:0:0:
382,185,521595,1,0,3:1:0:0:
388,155,521673,1,0,3:1:0:0:
383,125,521752,5,8,3:1:0:0:
367,99,521830,1,0,3:1:0:0:
343,81,521908,1,0,3:1:0:0:
314,73,521986,1,0,3:1:0:0:
284,78,522064,1,8,3:1:0:0:
257,93,522142,1,0,3:1:0:0:
239,117,522220,1,0,3:1:0:0:
231,146,522298,1,0,3:1:0:0:
233,176,522377,5,4,1:0:0:0:
233,176,523470,1,4,0:0:0:0:
233,176,523783,2,0,P|232:222|211:266,1,85,4|2,0:0|0:2,0:0:0:0:
23,222,524252,2,0,P|24:176|45:132,1,85,2|0,0:2|0:0,0:0:0:0:
59,135,524486,1,0,0:0:0:0:
80,129,524564,1,8,0:0:0:0:
128,200,524720,1,0,0:0:0:0:
175,270,524877,6,0,L|276:284,1,85,2|0,0:2|0:0,0:0:0:0:
275,267,525111,1,0,0:0:0:0:
291,253,525189,2,0,L|392:267,1,85,8|0,0:0|0:0,0:0:0:0:
445,147,525502,2,0,L|360:158,1,85,2|0,0:2|0:0,0:0:0:0:
345,143,525736,1,0,0:0:0:0:
329,130,525814,2,0,L|244:141,1,85,8|0,0:0|0:0,0:0:0:0:
128,200,526127,5,2,0:2:0:0:
236,271,526284,1,0,0:0:0:0:
190,150,526439,1,8,0:0:0:0:
156,274,526595,1,0,0:0:0:0:
256,193,526752,1,2,0:2:0:0:
108,194,526908,1,0,0:0:0:0:
248,286,527065,1,8,0:0:0:0:
189,129,527220,1,0,0:0:0:0:
189,129,527298,1,0,0:0:0:0:
189,129,527377,6,0,P|148:99|104:90,1,85,2|0,0:2|0:0,0:0:0:0:
29,260,527689,2,0,P|70:290|114:299,1,85,8|0,0:0|0:0,0:0:0:0:
274,185,528002,2,0,L|166:214,1,85,2|0,0:2|0:0,0:0:0:0:
348,257,528314,2,0,L|456:285,1,85,8|0,0:0|0:0,0:0:0:0:
299,85,528627,6,0,P|243:85|203:111,1,85,2|0,0:2|0:0,0:0:0:0:
215,118,528861,1,0,0:0:0:0:
212,139,528939,2,0,L|103:167,1,85,8|0,0:0|0:0,0:0:0:0:
126,181,529174,1,0,0:0:0:0:
122,201,529252,2,0,L|13:229,1,85,2|0,0:2|0:0,0:0:0:0:
19,313,529564,2,0,L|97:393,1,85,8|0,0:0|0:0,0:0:0:0:
167,346,529877,6,0,L|196:237,1,85,2|0,0:2|0:0,0:0:0:0:
210,260,530111,1,0,0:0:0:0:
231,257,530189,2,0,L|260:148,1,85,8|0,0:0|0:0,0:0:0:0:
274,171,530423,1,0,0:0:0:0:
295,168,530502,2,0,L|324:59,1,85,2|0,0:2|0:0,0:0:0:0:
338,0,530814,2,0,L|416:80,1,85,8|0,0:0|0:0,0:0:0:0:
461,121,531127,6,0,L|352:149,1,85,2|0,0:2|0:0,0:0:0:0:
373,163,531361,1,0,0:0:0:0:
369,184,531439,2,0,L|260:212,1,85,8|8,0:0|0:0,0:0:0:0:
291,225,531673,1,0,3:1:0:0:
291,247,531752,1,8,3:1:0:0:
288,268,531829,1,0,3:1:0:0:
281,288,531907,1,8,3:1:0:0:
271,306,531985,1,0,3:1:0:0:
257,322,532064,1,8,3:1:0:0:
241,336,532141,1,0,3:1:0:0:
222,346,532220,1,8,3:1:0:0:
202,353,532298,1,0,3:1:0:0:
181,356,532377,6,0,P|131:351|87:310,1,85,4|0,2:0|0:0,0:0:0:0:
165,117,532689,2,0,P|215:122|259:163,1,85,8|0,0:0|0:0,0:0:0:0:
248,260,533002,2,0,P|206:258|170:237,1,85,2|0,0:2|0:0,0:0:0:0:
236,22,533314,2,0,P|278:24|315:46,1,85,8|0,0:0|0:0,0:0:0:0:
449,131,533627,6,0,P|424:220|357:269,1,170,2|8,0:2|0:0,0:0:0:0:
228,247,534095,1,0,0:0:0:0:
313,138,534252,2,0,B|341:107|341:107|403:88,1,85,2|0,0:2|0:0,0:0:0:0:
365,266,534564,2,0,B|337:297|337:297|295:309,1,85,8|0,0:0|0:0,0:0:0:0:
160,184,534877,6,0,P|196:159|263:159,1,85,2|0,0:2|0:0,0:0:0:0:
296,310,535189,2,0,P|260:335|193:335,1,85,8|0,0:0|0:0,0:0:0:0:
112,181,535502,2,0,P|140:147|205:130,1,85,2|0,0:2|0:0,0:0:0:0:
344,313,535814,2,0,P|315:346|250:363,1,85,8|0,0:0|0:0,0:0:0:0:
64,384,536127,6,0,P|17:345|27:230,1,170,2|8,0:2|0:0,0:0:0:0:
111,152,536595,1,0,0:0:0:0:
237,120,536752,2,0,L|331:133,1,85,2|0,0:2|0:0,0:0:0:0:
285,256,537064,2,0,L|201:245,1,85,8|0,0:0|0:0,0:0:0:0:
111,152,537377,6,0,P|110:95|133:46,1,85,2|2,0:2|0:2,0:0:0:0:
237,120,537689,1,8,0:0:0:0:
327,213,537845,2,0,P|278:242|224:246,1,85,0|2,0:0|2:0,0:0:0:0:
362,88,538158,2,0,P|410:58|464:54,1,85,0|8,0:0|0:0,0:0:0:0:
452,180,538470,1,0,0:0:0:0:
466,306,538627,6,0,L|353:356,1,85,2|2,0:2|0:2,0:0:0:0:
292,384,538939,1,8,0:0:0:0:
302,278,539095,2,0,L|315:155,1,85,0|2,0:0|0:2,0:0:0:0:
407,135,539408,2,0,L|393:257,1,85,0|8,0:0|0:0,0:0:0:0:
206,336,539720,1,0,0:0:0:0:
201,111,539877,6,0,L|314:61,1,85,2|0,0:2|0:0,0:0:0:0:
302,278,540189,1,8,0:0:0:0:
104,169,540345,2,0,L|117:46,1,85,2|0,0:2|0:0,0:0:0:0:
299,165,540658,1,8,3:0:0:0:
206,336,540814,1,8,0:0:0:0:
201,111,540970,1,4,0:0:0:0:
201,111,541439,6,0,P|263:57|346:62,2,170,2|2|2,2:0|2:0|2:0,2:0:0:0:
201,111,542377,5,4,0:0:0:0:
221,193,542533,1,0,0:0:0:0:
302,216,542689,2,0,L|394:242,1,85,8|0,0:0|0:0,0:0:0:0:
420,98,543002,1,0,0:0:0:0:
361,157,543158,1,0,0:0:0:0:
383,239,543314,1,8,0:0:0:0:
465,260,543470,6,0,P|509:228|527:175,1,85,0|0,0:0|0:0,0:0:0:0:
361,157,543783,1,0,0:0:0:0:
321,297,543939,1,8,0:0:0:0:
383,239,544095,1,0,0:0:0:0:
242,275,544251,1,0,0:0:0:0:
404,319,544408,1,0,0:0:0:0:
302,216,544564,2,0,P|245:190|196:204,1,85,8|0,0:0|0:0,0:0:0:0:
262,354,544877,6,0,P|319:380|368:366,1,85,8|0,0:0|0:0,0:0:0:0:
383,239,545189,1,0,0:0:0:0:
242,275,545345,2,0,P|190:311|178:360,1,85,8|0,0:0|0:0,0:0:0:0:
404,319,545658,1,0,0:0:0:0:
361,157,545814,1,0,0:0:0:0:
321,297,545970,6,0,P|326:359|363:394,1,85,8|0,0:0|0:0,0:0:0:0:
465,260,546283,1,0,0:0:0:0:
420,98,546439,1,0,0:0:0:0:
383,239,546595,2,0,L|412:349,1,85,8|0,0:0|0:0,0:0:0:0:
441,178,546908,1,0,0:0:0:0:
281,136,547064,1,8,0:0:0:0:
164,253,547220,1,0,0:0:0:0:
164,253,547298,1,0,0:0:0:0:
164,253,547377,6,0,L|92:324,1,85,4|0,1:0|0:0,0:0:0:0:
242,275,547689,1,8,0:0:0:0:
86,231,547845,1,0,0:0:0:0:
181,334,548002,2,0,P|217:355|264:358,1,85,0|0,0:0|0:0,0:0:0:0:
302,216,548314,2,0,P|245:190|196:204,1,85,8|0,0:0|0:0,0:0:0:0:
105,309,548627,5,2,0:2:0:0:
242,275,548783,1,0,0:0:0:0:
203,117,548939,1,8,0:0:0:0:
164,253,549095,1,0,0:0:0:0:
321,297,549252,2,0,P|363:272|384:231,1,85,0|0,0:0|0:0,0:0:0:0:
281,136,549564,2,0,P|243:114|199:118,1,85,8|0,0:0|0:0,0:0:0:0:
242,275,549877,6,0,L|270:393,1,85,2|0,0:2|0:0,0:0:0:0:
302,216,550189,1,8,0:0:0:0:
164,253,550345,2,0,L|75:336,1,85
321,297,550658,2,0,L|409:213,1,85,0|8,0:0|0:0,0:0:0:0:
223,194,550970,6,0,P|166:168|117:182,1,85,0|2,0:0|0:2,0:0:0:0:
181,334,551283,1,0,0:0:0:0:
302,216,551439,1,8,0:0:0:0:
203,117,551595,1,0,0:0:0:0:
164,253,551752,1,8,0:0:0:0:
321,297,551908,1,0,0:0:0:0:
281,136,552064,1,8,0:0:0:0:
242,275,552220,1,0,0:0:0:0:
242,275,552298,1,0,0:0:0:0:
242,274,552377,6,0,P|241:319|263:354,1,85,4|0,1:0|0:0,0:0:0:0:
302,216,552689,2,0,P|257:192|222:194,1,85,8|0,0:0|0:0,0:0:0:0:
321,297,553002,2,0,P|362:276|381:239,1,85
420,98,553314,1,8,0:0:0:0:
281,136,553470,6,0,P|240:157|221:194,1,85,0|2,0:0|0:2,0:0:0:0:
383,239,553783,1,0,0:0:0:0:
339,77,553939,1,8,0:0:0:0:
302,216,554095,1,0,0:0:0:0:
404,319,554252,1,0,0:0:0:0:
361,157,554408,1,0,0:0:0:0:
321,297,554564,2,0,L|344:393,1,85,8|0,0:0|0:0,0:0:0:0:
465,260,554877,6,0,L|442:164,1,85,2|0,0:2|0:0,0:0:0:0:
302,216,555189,2,0,L|206:239,1,85,8|0,0:0|0:0,0:0:0:0:
404,319,555502,2,0,P|472:345|534:309,2,127.5,2|2|0,0:2|2:0|0:0,0:0:0:0:
360,156,556127,6,0,P|329:137|281:134,1,85,2|0,0:2|0:0,0:0:0:0:
321,297,556439,1,8,0:0:0:0:
441,178,556595,2,0,P|440:134|420:97,1,85
302,216,556908,1,0,3:1:0:0:
277,230,556986,1,0,3:1:0:0:
250,237,557064,1,8,3:1:0:0:
222,231,557142,1,0,3:1:0:0:
196,220,557220,1,0,3:1:0:0:
168,218,557298,1,0,3:1:0:0:
142,229,557377,6,0,P|106:256|88:304,1,85,4|0,1:0|0:0,0:0:0:0:
179,314,557689,1,8,0:0:0:0:
105,144,557845,2,0,L|60:41,1,85
49,218,558158,1,0,0:0:0:0:
142,229,558314,1,8,0:0:0:0:
198,153,558470,1,0,0:0:0:0:
198,153,558548,1,0,0:0:0:0:
198,153,558627,6,0,P|240:145|295:167,1,85,4|0,1:0|0:0,0:0:0:0:
235,239,558939,1,8,0:0:0:0:
86,304,559095,2,0,P|58:271|49:212,1,85
142,229,559408,1,0,0:0:0:0:
235,239,559564,1,8,0:0:0:0:
272,324,559720,1,0,0:0:0:0:
272,324,559798,1,0,0:0:0:0:
272,324,559877,5,4,1:0:0:0:
86,304,560033,1,0,0:0:0:0:
198,153,560189,1,8,0:0:0:0:
179,314,560345,1,4,1:0:0:0:
179,314,560658,1,8,0:0:0:0:
105,144,560814,1,0,0:0:0:0:
275,70,560970,1,12,0:0:0:0:
275,70,561283,5,8,0:0:0:0:
142,229,561439,1,0,0:0:0:0:
156,22,561595,1,0,0:0:0:0:
266,197,561752,2,0,P|268:261|242:305,1,85,8|0,0:0|0:0,0:0:0:0:
74,120,562064,1,8,3:1:0:0:
92,108,562142,1,0,3:1:0:0:
111,101,562220,1,0,3:1:0:0:
132,98,562298,1,0,3:1:0:0:
154,100,562377,6,0,P|198:111|232:135,1,85,4|0,1:0|0:0,0:0:0:0:
142,229,562689,1,8,0:0:0:0:
36,154,562845,2,0,P|23:110|27:68,1,85,0|0,0:0|0:0,0:0:0:0:
154,100,563158,1,0,0:0:0:0:
259,175,563314,1,8,0:0:0:0:
246,303,563470,1,0,0:0:0:0:
246,303,563548,1,0,0:0:0:0:
246,303,563627,6,0,P|205:338|164:354,1,85,4|0,0:0|0:0,0:0:0:0:
259,175,563939,1,8,0:0:0:0:
364,251,564095,2,0,P|373:304|367:347,1,85,4|0,0:0|0:0,0:0:0:0:
259,175,564408,1,8,0:0:0:0:
377,122,564564,1,0,3:1:0:0:
386,117,564642,1,0,3:1:0:0:
396,113,564720,1,0,3:1:0:0:
406,109,564798,1,0,3:1:0:0:
416,105,564876,5,4,2:0:0:0:
425,191,565033,1,0,0:0:0:0:
364,251,565189,2,0,L|271:296,1,85,8|2,0:0|0:2,0:0:0:0:
287,288,565423,2,0,P|244:242|182:234,1,127.5,0|0,0:0|0:0,0:0:0:0:
203,326,565814,1,8,0:0:0:0:
292,354,565970,1,0,0:0:0:0:
313,353,566048,1,0,0:0:0:0:
334,353,566127,5,2,0:2:0:0:
410,316,566283,1,0,0:0:0:0:
418,232,566439,2,0,L|509:188,1,85,8|2,0:0|0:2,0:0:0:0:
494,195,566673,2,0,P|504:130|467:72,1,127.5,0|0,0:0|0:0,0:0:0:0:
383,61,567064,1,8,0:0:0:0:
321,130,567220,1,0,0:0:0:0:
306,145,567298,1,0,0:0:0:0:
291,160,567377,5,2,0:2:0:0:
230,220,567533,1,0,0:0:0:0:
148,198,567689,1,8,0:0:0:0:
87,258,567845,1,0,0:0:0:0:
71,273,567923,1,0,0:0:0:0:
56,288,568001,1,0,0:0:0:0:
41,303,568079,1,0,0:0:0:0:
26,318,568157,1,0,0:0:0:0:
65,175,568314,1,8,0:0:0:0:
126,114,568470,1,0,0:0:0:0:
126,114,568548,1,0,0:0:0:0:
126,114,568627,5,2,0:2:0:0:
209,136,568783,1,0,0:0:0:0:
230,220,568939,1,8,0:0:0:0:
313,243,569095,1,0,3:1:0:0:
338,245,569173,1,0,3:1:0:0:
362,238,569251,1,8,3:1:0:0:
381,222,569329,1,0,3:1:0:0:
393,199,569407,1,0,3:1:0:0:
394,174,569485,1,0,3:1:0:0:
386,150,569563,1,8,3:1:0:0:
369,131,569641,1,0,3:1:0:0:
345,121,569720,1,0,3:1:0:0:
320,121,569798,1,0,3:1:0:0:
297,131,569877,6,0,L|195:158,1,85,4|0,2:0|0:0,0:0:0:0:
132,173,570189,1,8,0:0:0:0:
108,255,570345,1,0,0:0:0:0:
108,255,570423,2,0,L|71:387,1,127.5
156,356,570814,1,8,0:0:0:0:
238,334,570970,1,0,0:0:0:0:
259,251,571127,5,2,0:2:0:0:
341,227,571283,1,0,0:0:0:0:
341,227,571361,2,0,L|473:191,1,127.5,0|0,0:0|0:0,0:0:0:0:
469,173,571673,1,0,0:0:0:0:
475,152,571751,1,0,0:0:0:0:
497,70,571908,1,0,0:0:0:0:
437,9,572064,1,8,0:0:0:0:
353,30,572220,1,0,0:0:0:0:
269,51,572377,6,0,L|156:79,1,85,2|0,0:2|0:0,0:0:0:0:
109,86,572611,2,0,L|222:114,1,85
269,121,572845,2,0,L|156:149,1,85,2|0,0:2|0:0,0:0:0:0:
109,156,573080,2,0,L|222:184,1,85,0|0,0:0|0:0,0:0:0:0:
269,191,573314,1,8,0:0:0:0:
306,314,573470,1,0,0:0:0:0:
306,314,573548,1,0,0:0:0:0:
306,314,573627,5,2,0:2:0:0:
348,192,573783,1,0,0:0:0:0:
242,266,573939,1,8,0:0:0:0:
371,268,574095,1,0,0:0:0:0:
269,191,574252,1,8,3:1:0:0:
237,187,574330,1,0,3:1:0:0:
206,195,574408,1,0,3:1:0:0:
180,214,574486,1,0,3:1:0:0:
155,233,574564,1,8,3:1:0:0:
126,246,574642,1,0,3:1:0:0:
94,249,574720,1,0,3:1:0:0:
64,241,574798,1,0,3:1:0:0:
38,222,574877,5,4,2:0:0:0:
11,141,575033,1,0,0:0:0:0:
66,76,575189,1,8,0:0:0:0:
120,10,575345,1,0,0:0:0:0:
120,10,575423,2,0,L|246:31,1,127.5,0|0,0:0|0:0,0:0:0:0:
274,109,575814,1,8,0:0:0:0:
302,187,575970,1,0,0:0:0:0:
387,202,576127,5,2,0:2:0:0:
442,135,576283,1,0,0:0:0:0:
356,120,576439,1,8,0:0:0:0:
302,187,576595,1,0,0:0:0:0:
302,187,576673,2,0,L|220:285,1,127.5,0|0,0:0|0:0,0:0:0:0:
165,350,577064,1,8,0:0:0:0:
81,334,577220,1,0,0:0:0:0:
52,253,577377,5,2,0:2:0:0:
136,267,577533,1,0,0:0:0:0:
220,281,577689,1,8,0:0:0:0:
249,360,577845,1,0,0:0:0:0:
249,360,577923,2,0,L|409:378,1,127.5,0|0,0:0|0:0,0:0:0:0:
425,305,578314,1,8,0:0:0:0:
391,226,578470,1,0,0:0:0:0:
304,216,578627,5,2,0:2:0:0:
269,135,578783,1,0,0:0:0:0:
321,64,578939,1,8,0:0:0:0:
408,73,579095,1,0,0:0:0:0:
408,73,579173,2,0,L|462:192,1,127.5,0|0,0:0|0:0,0:0:0:0:
411,257,579564,1,8,0:0:0:0:
361,326,579720,1,0,0:0:0:0:
276,316,579877,6,0,L|166:304,1,85,2|0,0:2|0:0,0:0:0:0:
327,247,580189,2,0,L|437:258,1,85,8|0,0:0|0:0,0:0:0:0:
361,326,580502,1,0,0:0:0:0:
242,237,580658,1,0,0:0:0:0:
344,99,580814,1,8,0:0:0:0:
327,247,580970,1,0,0:0:0:0:
157,227,581127,6,0,L|47:215,1,85,2|0,0:2|0:0,0:0:0:0:
208,158,581439,2,0,L|318:169,1,85,8|0,0:0|0:0,0:0:0:0:
242,237,581752,1,0,0:0:0:0:
123,148,581908,1,0,0:0:0:0:
225,10,582064,1,8,0:0:0:0:
293,167,582220,1,0,0:0:0:0:
293,167,582298,1,0,0:0:0:0:
293,167,582377,5,2,0:2:0:0:
191,307,582533,1,0,0:0:0:0:
123,148,582689,1,8,0:0:0:0:
242,237,582845,1,0,0:0:0:0:
344,97,583002,1,2,0:2:0:0:
208,158,583158,1,0,0:0:0:0:
225,10,583314,1,8,0:0:0:0:
293,167,583471,1,0,0:0:0:0:
394,29,583627,6,0,P|425:77|422:128,1,85,2|0,0:2|0:0,0:0:0:0:
327,247,583939,1,8,3:1:0:0:
305,253,584017,1,0,3:1:0:0:
282,253,584095,1,0,3:1:0:0:
260,248,584173,1,0,3:1:0:0:
241,237,584251,1,8,3:1:0:0:
225,221,584329,1,0,3:1:0:0:
213,202,584407,1,0,3:1:0:0:
207,180,584485,1,0,3:1:0:0:
206,158,584564,1,8,3:1:0:0:
258,88,584720,1,0,0:0:0:0:
344,97,584877,6,0,L|436:106,1,85,4|0,0:0|0:0,0:0:0:0:
379,175,585189,2,0,L|417:259,1,85,8|0,0:0|0:0,0:0:0:0:
327,247,585502,2,0,L|273:322,1,85,0|0,0:0|0:0,0:0:0:0:
242,237,585814,2,0,L|150:228,1,85,8|0,0:0|0:0,0:0:0:0:
152,208,586048,1,0,0:0:0:0:
147,187,586127,6,0,L|55:178,1,85,2|0,0:2|0:0,0:0:0:0:
129,98,586439,2,0,L|221:107,1,85,8|0,0:0|0:0,0:0:0:0:
218,126,586673,1,0,0:0:0:0:
224,148,586752,1,0,0:0:0:0:
242,237,586908,1,0,0:0:0:0:
246,257,586986,1,0,0:0:0:0:
250,278,587064,1,8,0:0:0:0:
327,247,587220,6,0,L|419:256,1,85,4|2,2:0|0:2,0:0:0:0:
379,175,587533,1,0,0:0:0:0:
346,94,587689,2,0,L|254:84,1,85,8|0,0:0|0:0,0:0:0:0:
123,148,588002,1,0,0:0:0:0:
293,167,588158,1,0,0:0:0:0:
89,69,588314,1,8,0:0:0:0:
157,227,588470,1,0,0:0:0:0:
326,247,588627,6,0,P|360:221|377:182,1,85,2|0,0:2|0:0,0:0:0:0:
208,158,588939,1,8,0:0:0:0:
276,314,589095,2,0,P|315:329|356:325,1,85,0|0,0:0|0:0,0:0:0:0:
293,167,589408,1,0,0:0:0:0:
157,227,589564,1,8,0:0:0:0:
225,380,589720,1,4,0:0:0:0:
225,380,590189,5,0,0:0:0:0:
346,94,590502,1,0,0:0:0:0:
37,132,590814,1,0,0:0:0:0:
157,227,590970,1,0,0:0:0:0:
157,227,591048,1,0,0:0:0:0:
157,227,591127,5,8,0:0:0:0:
242,237,591283,1,0,0:0:0:0:
208,158,591439,1,0,0:0:0:0:
191,307,591595,2,0,L|229:388,1,85,4|0,0:0|0:0,0:0:0:0:
293,167,591908,2,0,L|348:92,1,85,4|0,0:0|0:0,0:0:0:0:
123,148,592220,2,0,L|34:134,1,85,4|0,0:0|0:0,0:0:0:0:
52,173,602377,6,0,P|56:218|97:271,1,85,4|0,0:0|0:0,0:0:0:0:
124,192,602611,2,0,P|149:228|217:246,1,85
195,172,602845,1,8,0:0:0:0:
283,114,603002,2,0,P|279:69|240:16,1,85,8|0,0:0|0:0,0:0:0:0:
211,95,603236,2,0,P|185:58|117:40,1,85,0|0,0:0|0:0,0:0:0:0:
140,115,603470,1,8,0:0:0:0:
69,249,603627,5,2,0:2:0:0:
195,172,603783,1,0,0:0:0:0:
85,58,603939,1,8,0:0:0:0:
124,192,604095,1,0,0:0:0:0:
259,225,604252,2,0,L|359:201,1,85
362,202,604486,1,0,3:1:0:0:
383,206,604564,1,8,3:1:0:0:
402,216,604642,1,0,3:1:0:0:
417,230,604720,1,0,3:1:0:0:
427,249,604798,1,0,3:1:0:0:
430,270,604876,5,4,0:0:0:0:
406,350,605033,1,0,0:0:0:0:
261,315,605189,1,8,0:0:0:0:
345,290,605345,1,0,0:0:0:0:
322,374,605502,1,0,0:0:0:0:
179,338,605658,1,0,0:0:0:0:
179,338,605736,2,0,L|55:372,1,127.5,0|0,0:0|0:0,0:0:0:0:
77,290,606127,6,0,L|97:207,1,85,2|0,0:2|0:0,0:0:0:0:
238,242,606439,1,8,0:0:0:0:
158,264,606595,1,0,0:0:0:0:
258,162,606752,1,0,0:0:0:0:
316,219,606908,1,0,0:0:0:0:
316,219,606986,2,0,L|421:322,1,127.5,0|0,0:0|0:0,0:0:0:0:
396,199,607377,6,0,L|336:140,1,85,4|0,0:0|0:0,0:0:0:0:
238,242,607689,1,8,0:0:0:0:
374,275,607845,1,0,0:0:0:0:
374,275,607923,2,0,P|437:266|475:202,1,127.5,0|0,0:0|0:0,0:0:0:0:
258,162,608314,1,8,0:0:0:0:
297,299,608470,1,0,0:0:0:0:
335,139,608627,5,0,0:0:0:0:
326,120,608705,1,0,0:0:0:0:
313,103,608783,1,0,0:0:0:0:
296,90,608861,1,0,0:0:0:0:
276,83,608939,1,8,0:0:0:0:
178,183,609095,1,0,0:0:0:0:
178,183,609173,2,0,P|155:234|194:314,1,127.5,0|0,0:0|0:0,0:0:0:0:
316,219,609564,6,0,L|427:215,1,85,8|0,0:0|0:0,0:0:0:0:
200,105,609877,2,0,L|141:8,1,85,8|0,1:0|0:0,0:0:0:0:
238,242,610189,2,0,L|184:339,1,85,8|0,0:0|0:0,0:0:0:0:
335,139,610502,2,0,L|446:137,1,85,8|0,1:0|0:0,0:0:0:0:
178,183,610814,2,0,L|67:185,1,85,8|0,0:0|0:0,0:0:0:0:
297,299,611127,5,8,0:0:0:0:
278,82,611361,1,8,0:0:0:0:
99,206,611595,2,0,B|115:253|159:264|159:264|180:318|229:321,1,170,8|0,0:0|0:0,0:0:0:0:
242,312,611986,1,0,3:1:0:0:
269,305,612064,1,0,3:1:0:0:
296,298,612142,1,0,3:1:0:0:
323,291,612220,1,0,3:1:0:0:
350,284,612298,1,0,3:1:0:0:
376,278,612377,5,2,3:0:0:0:
377,173,612533,1,0,0:0:0:0:
286,119,612689,1,8,0:0:0:0:
193,170,612845,1,0,0:0:0:0:
161,164,612923,1,0,0:0:0:0:
133,149,613001,1,8,3:0:0:0:
110,127,613079,1,0,0:0:0:0:
95,99,613157,1,0,0:0:0:0:
195,63,613314,1,8,0:0:0:0:
286,119,613470,1,0,0:0:0:0:
190,276,613627,5,8,3:0:0:0:
193,170,613783,1,0,0:0:0:0:
283,225,613939,1,8,0:0:0:0:
280,330,614095,1,0,0:0:0:0:
260,354,614173,1,0,0:0:0:0:
233,372,614251,1,8,3:0:0:0:
203,381,614329,1,0,0:0:0:0:
171,381,614407,1,0,0:0:0:0:
190,276,614564,1,8,0:0:0:0:
283,225,614720,1,0,0:0:0:0:
369,384,614877,5,8,3:0:0:0:
280,330,615033,1,0,0:0:0:0:
371,279,615189,1,8,0:0:0:0:
462,228,615345,1,0,0:0:0:0:
474,198,615423,1,0,0:0:0:0:
477,167,615501,1,8,3:0:0:0:
471,136,615579,1,0,0:0:0:0:
455,108,615657,1,0,0:0:0:0:
286,119,615814,2,0,L|219:78,2,42.5,8|0|0,0:0|0:0|0:0,0:0:0:0:
371,279,616127,5,8,3:0:0:0:
377,173,616283,1,0,0:0:0:0:
280,330,616439,1,8,0:0:0:0:
369,384,616595,1,0,3:1:0:0:
406,376,616673,1,0,3:1:0:0:
439,357,616751,1,8,3:1:0:0:
462,327,616829,1,0,3:1:0:0:
473,290,616907,1,0,3:1:0:0:
471,252,616985,1,0,3:1:0:0:
457,217,617063,1,8,3:1:0:0:
429,191,617141,1,0,3:1:0:0:
396,172,617220,1,0,3:1:0:0:
369,146,617298,1,0,3:1:0:0:
355,111,617376,5,4,1:0:0:0:
461,85,617533,1,0,0:0:0:0:
429,191,617689,1,8,0:0:0:0:
320,217,617845,1,0,0:0:0:0:
288,223,617923,1,0,0:0:0:0:
257,230,618001,1,8,3:0:0:0:
226,237,618079,1,0,0:0:0:0:
195,244,618157,1,0,0:0:0:0:
161,351,618314,1,8,0:0:0:0:
270,327,618470,1,0,0:0:0:0:
85,268,618627,5,8,3:0:0:0:
161,351,618783,1,0,0:0:0:0:
195,244,618939,1,8,0:0:0:0:
119,160,619095,1,0,0:0:0:0:
87,153,619173,1,0,0:0:0:0:
56,156,619251,1,8,3:0:0:0:
27,169,619329,1,0,0:0:0:0:
3,189,619407,1,0,0:0:0:0:
85,268,619564,1,8,0:0:0:0:
161,351,619720,1,0,0:0:0:0:
303,220,619877,5,8,3:0:0:0:
195,244,620033,1,0,0:0:0:0:
378,300,620189,1,8,0:0:0:0:
228,140,620345,2,0,L|248:78,2,42.5,0|0|8,0:0|0:0|0:0,0:0:0:0:
85,268,620658,1,0,3:1:0:0:
97,301,620736,1,0,3:1:0:0:
118,328,620814,1,8,3:1:0:0:
148,348,620892,1,0,3:1:0:0:
182,357,620970,1,0,3:1:0:0:
217,356,621048,1,0,3:1:0:0:
250,343,621127,5,2,3:0:0:0:
378,300,621283,2,0,L|494:260,1,85,4|0,0:0|0:0,0:0:0:0:
228,140,621595,1,0,0:0:0:0:
303,220,621752,2,0,L|419:180,1,85,8|0,0:0|0:0,0:0:0:0:
259,35,622064,2,0,L|143:75,1,85,4|0,0:0|0:0,0:0:0:0:
195,244,622377,6,0,P|221:293|260:320,1,85,4|0,1:0|0:0,0:0:0:0:
303,220,622689,1,8,0:0:0:0:
228,140,622845,2,0,P|171:138|129:158,1,85,0|0,0:0|0:0,0:0:0:0:
113,252,623158,2,0,P|169:253|211:233,1,85,0|8,0:0|0:0,0:0:0:0:
335,114,623470,1,0,0:0:0:0:
335,114,623548,1,0,0:0:0:0:
335,114,623627,6,0,P|372:134|399:166,1,85,2|0,3:0|0:0,0:0:0:0:
303,220,623939,1,8,0:0:0:0:
259,35,624095,2,0,P|295:12|336:5,1,85,0|0,0:0|0:0,0:0:0:0:
411,193,624408,1,0,0:0:0:0:
228,140,624564,1,8,0:0:0:0:
335,114,624720,1,0,0:0:0:0:
194,243,624877,6,0,P|131:191|124:108,1,170,2|8,3:0|0:0,0:0:0:0:
303,220,625345,2,0,P|301:274|268:329,1,85,0|8,0:0|0:0,0:0:0:0:
266,328,625580,1,0,0:0:0:0:
236,346,625658,1,0,0:0:0:0:
201,353,625736,1,0,0:0:0:0:
166,350,625814,1,8,0:0:0:0:
134,336,625892,1,0,0:0:0:0:
107,313,625970,1,0,0:0:0:0:
121,164,626127,6,0,P|124:103|221:31,1,170,2|8,3:0|0:0,0:0:0:0:
194,243,626595,2,0,L|97:285,1,85
14,188,626908,1,0,0:0:0:0:
11,152,626986,1,0,0:0:0:0:
19,118,627064,1,8,0:0:0:0:
38,88,627142,1,0,0:0:0:0:
66,66,627220,1,0,0:0:0:0:
99,54,627298,1,0,0:0:0:0:
134,53,627377,5,12,0:0:0:0:
275,148,627533,1,0,0:0:0:0:
193,269,627689,1,8,0:0:0:0:
205,101,627845,1,0,0:0:0:0:
349,111,628002,1,8,0:0:0:0:
198,184,628158,1,0,0:0:0:0:
198,184,628236,1,0,0:0:0:0:
198,184,628314,1,8,0:0:0:0:
280,65,628470,1,0,0:0:0:0:
342,195,628627,5,8,0:0:0:0:
205,101,628783,1,0,0:0:0:0:
193,269,628939,1,8,0:0:0:0:
349,111,629095,1,0,0:0:0:0:
198,184,629252,1,8,0:0:0:0:
336,278,629408,1,0,0:0:0:0:
357,296,629486,1,0,0:0:0:0:
383,306,629564,1,8,0:0:0:0:
411,305,629642,1,0,0:0:0:0:
439,303,629720,1,0,0:0:0:0:
466,312,629798,1,0,0:0:0:0:
489,329,629877,5,8,0:0:0:0:
349,111,630189,1,8,0:0:0:0:
336,278,630345,1,0,0:0:0:0:
336,278,630658,1,0,0:0:0:0:
198,184,630814,1,8,0:0:0:0:
280,65,630970,1,0,0:0:0:0:
269,229,631127,6,0,L|303:292,1,42.5,8|0,3:1|3:1,3:1:0:0:
246,259,631283,2,0,L|262:327,1,42.5,0|0,3:1|3:1,3:1:0:0:
218,283,631439,2,0,L|216:353,1,42.5,8|0,3:1|3:1,3:1:0:0:
185,300,631595,2,0,L|165:367,1,42.5,0|0,3:1|3:1,3:1:0:0:
149,310,631752,5,8,3:1:0:0:
112,313,631830,1,0,3:1:0:0:
75,307,631908,1,8,3:1:0:0:
41,293,631986,1,0,3:1:0:0:
10,273,632065,1,8,3:1:0:0:
344,56,642377,6,0,B|424:24|424:100|508:60,2,170,2|8|0,2:0|2:0|2:0,2:0:0:0:
256,192,643314,1,8,2:0:0:0:
168,328,643627,6,0,B|88:360|88:284|4:324,2,170,2|8|0,2:0|2:0|2:0,2:0:0:0:
256,192,644564,1,8,2:0:0:0:
416,192,644877,6,0,P|453:241|454:295,1,85,2|0,2:0|2:0,2:0:0:0:
365,270,645189,2,0,P|372:330|346:378,1,85,8|0,2:0|2:0,2:0:0:0:
281,312,645502,1,0,2:0:0:0:
202,260,645658,1,0,2:0:0:0:
123,208,645814,2,0,L|32:253,1,85,8|0,2:0|2:0,2:0:0:0:
118,303,646127,6,0,P|149:337|211:356,1,85,2|0,2:0|2:0,2:0:0:0:
285,217,646439,1,8,2:0:0:0:
202,260,646595,1,0,2:0:0:0:
281,312,646752,2,0,L|365:313,1,85,0|0,2:0|2:0,2:0:0:0:
288,123,647064,2,0,L|204:122,1,85,8|0,2:0|2:0,2:0:0:0:
285,217,647377,6,0,P|347:197|379:102,2,170,4|8|0,0:0|0:0|0:0,0:0:0:0:
128,113,648158,1,0,0:0:0:0:
288,123,648314,1,8,0:0:0:0:
202,260,648470,1,0,0:0:0:0:
212,71,648627,6,0,P|246:39|299:30,1,85,2|0,0:2|0:0,0:0:0:0:
288,123,648939,2,0,P|333:135|367:177,1,85,8|0,0:0|0:0,0:0:0:0:
285,217,649252,2,0,P|296:262|277:312,1,85,0|0,0:0|0:0,0:0:0:0:
202,260,649564,2,0,P|168:292|115:301,1,85,8|0,0:0|0:0,0:0:0:0:
123,208,649877,6,0,P|119:137|204:71,1,170,2|8,0:2|0:0,0:0:0:0:
367,172,650345,1,0,0:0:0:0:
281,312,650502,2,0,B|228:341|228:341|174:336|174:336|116:366,2,170,0|8|2,0:0|0:0|2:0,0:0:0:0:
367,172,651283,5,0,0:0:0:0:
205,168,651439,1,8,0:0:0:0:
324,241,651595,1,0,3:1:0:0:
348,251,651673,1,0,3:1:0:0:
373,252,651751,1,8,3:1:0:0:
398,246,651829,1,0,3:1:0:0:
419,233,651907,1,0,3:1:0:0:
435,213,651985,1,0,3:1:0:0:
445,190,652063,1,8,3:1:0:0:
446,164,652141,1,0,3:1:0:0:
440,140,652220,1,0,3:1:0:0:
427,118,652298,1,0,3:1:0:0:
407,102,652377,6,0,P|366:89|326:101,1,85,4|0,1:0|0:0,0:0:0:0:
205,168,652689,2,0,P|245:180|285:168,1,85,8|0,0:0|0:0,0:0:0:0:
248,98,653002,1,0,0:0:0:0:
168,95,653159,1,0,0:0:0:0:
125,162,653314,2,0,L|75:240,1,85,8|0,0:0|0:0,0:0:0:0:
34,304,653627,6,0,L|126:308,1,85,2|0,0:2|0:0,0:0:0:0:
247,239,653939,2,0,L|162:235,1,85,8|0,0:0|0:0,0:0:0:0:
283,315,654252,2,0,L|367:318,1,85,0|0,0:0|0:0,0:0:0:0:
375,170,654564,1,8,0:0:0:0:
212,163,654720,1,0,0:0:0:0:
330,246,654877,5,2,0:2:0:0:
254,95,655033,1,0,0:0:0:0:
162,235,655189,1,8,0:0:0:0:
293,166,655345,1,0,0:0:0:0:
283,315,655502,1,2,0:2:0:0:
212,163,655658,1,0,0:0:0:0:
115,300,655814,1,8,0:0:0:0:
247,239,655970,6,0,P|281:209|298:159,1,85,0|2,0:0|3:0,0:0:0:0:
162,235,656283,1,0,0:0:0:0:
199,310,656439,2,0,L|316:316,1,85,8|0,0:0|0:0,0:0:0:0:
300,303,656673,1,0,0:0:0:0:
318,291,656751,1,0,0:0:0:0:
125,162,656908,2,0,P|87:203|131:311,1,170,0|0,0:3|0:3,0:3:0:0:
162,235,657377,6,0,L|279:241,1,85,4|0,1:0|0:0,0:0:0:0:
293,166,657689,1,8,0:0:0:0:
339,92,657845,2,0,L|456:98,2,85,0|0|0,0:0|0:0|0:0,0:0:0:0:
251,89,658314,1,8,0:0:0:0:
163,86,658470,1,0,0:0:0:0:
116,160,658627,6,0,L|52:258,1,85,2|0,0:2|0:0,0:0:0:0:
22,305,658939,2,0,L|139:310,1,85,8|0,0:0|0:0,0:0:0:0:
194,313,659252,2,0,L|140:208,1,85,0|0,0:0|0:0,0:0:0:0:
75,83,659564,1,8,0:0:0:0:
122,9,659720,1,0,0:0:0:0:
209,12,659877,6,0,L|308:15,1,85,2|0,0:2|0:0,0:0:0:0:
293,166,660189,2,0,L|194:163,1,85,8|0,0:0|0:0,0:0:0:0:
339,92,660502,2,0,L|438:95,1,85,0|0,0:0|0:0,0:0:0:0:
423,246,660814,2,0,L|324:243,1,85,8|0,0:0|0:0,0:0:0:0:
162,235,661127,5,2,0:2:0:0:
293,166,661283,1,0,0:0:0:0:
194,313,661439,1,8,0:0:0:0:
130,157,661595,1,0,0:0:0:0:
130,157,661673,1,0,0:0:0:0:
130,157,661752,1,0,0:0:0:0:
246,238,661908,2,0,P|275:269|284:310,1,85,0|8,0:0|0:0,0:0:0:0:
110,301,662220,1,0,0:0:0:0:
212,163,662377,6,0,P|252:156|309:185,1,85,4|0,1:0|0:0,0:0:0:0:
423,246,662689,2,0,P|383:253|326:224,1,85,8|0,0:0|0:0,0:0:0:0:
438,152,663002,1,0,0:0:0:0:
512,213,663158,1,0,0:0:0:0:
496,307,663314,1,8,0:0:0:0:
406,340,663470,6,0,B|325:368|325:368|287:338|232:358,2,170,0|0|0,0:0|0:0|0:0,0:0:0:0:
423,246,664252,2,0,L|517:211,1,85,0|0,0:0|0:0,0:0:0:0:
438,152,664564,2,0,L|454:53,1,85,8|0,0:0|0:0,0:0:0:0:
364,92,664877,6,0,L|270:127,1,85,2|0,0:2|0:0,0:0:0:0:
204,150,665189,1,8,0:0:0:0:
124,179,665345,1,0,0:0:0:0:
188,234,665502,1,0,0:0:0:0:
139,94,665658,1,0,0:0:0:0:
109,264,665814,1,8,0:0:0:0:
271,204,665970,6,0,P|289:150|278:107,1,85,0|2,0:0|0:2,0:0:0:0:
188,234,666283,1,0,0:0:0:0:
255,290,666439,2,0,P|305:283|342:253,1,85,8|0,0:0|0:0,0:0:0:0:
204,150,666752,1,0,0:0:0:0:
124,179,666908,1,0,0:0:0:0:
172,316,667064,1,8,0:0:0:0:
188,234,667220,1,0,0:0:0:0:
43,207,667377,6,0,P|24:250|32:306,1,85,4|0,1:0|0:0,0:0:0:0:
255,290,667689,2,0,P|274:247|266:191,1,85,8|0,0:0|0:0,0:0:0:0:
124,179,668002,1,0,0:0:0:0:
172,316,668158,1,0,0:0:0:0:
204,150,668314,1,8,0:0:0:0:
109,264,668470,6,0,P|92:325|103:363,1,85,0|2,0:0|0:2,0:0:0:0:
236,374,668783,1,0,0:0:0:0:
337,264,668939,2,0,L|357:174,1,85,8|0,0:0|0:0,0:0:0:0:
303,38,669252,2,0,L|284:121,1,85,0|0,0:0|0:0,0:0:0:0:
429,242,669564,2,0,L|449:152,1,85,8|0,0:0|0:0,0:0:0:0:
271,204,669877,6,0,L|250:293,1,85,2|0,0:2|0:0,0:0:0:0:
402,332,670189,2,0,L|490:304,1,85,8|0,0:0|0:0,0:0:0:0:
356,181,670502,1,0,0:0:0:0:
317,346,670658,1,0,0:0:0:0:
429,242,670814,1,8,0:0:0:0:
283,120,670970,6,0,P|233:126|200:158,1,85,4|0,2:0|0:0,0:0:0:0:
337,264,671283,1,0,0:0:0:0:
375,98,671439,1,8,0:0:0:0:
271,204,671595,1,0,0:0:0:0:
402,325,671752,1,0,0:0:0:0:
356,181,671908,1,0,0:0:0:0:
317,346,672064,1,8,0:0:0:0:
429,242,672220,1,0,0:0:0:0:
429,242,672298,1,0,0:0:0:0:
429,242,672377,6,0,P|452:191|440:140,1,85,4|0,1:0|0:0,0:0:0:0:
283,120,672689,2,0,P|260:171|272:222,1,85,8|0,0:0|0:0,0:0:0:0:
375,98,673002,1,0,0:0:0:0:
309,29,673158,1,0,0:0:0:0:
216,51,673314,1,8,0:0:0:0:
188,142,673470,1,0,0:0:0:0:
160,233,673627,6,0,L|129:334,1,85,2|0,0:2|0:0,0:0:0:0:
95,163,673939,1,8,0:0:0:0:
253,211,674095,2,0,L|222:311,1,85,0|0,0:0|0:0,0:0:0:0:
188,142,674408,1,0,0:0:0:0:
283,120,674564,1,8,0:0:0:0:
375,98,674720,1,0,0:0:0:0:
467,76,674877,6,0,L|436:176,1,85,2|0,0:2|0:0,0:0:0:0:
253,211,675189,2,0,L|283:110,1,85,8|0,0:0|0:0,0:0:0:0:
309,29,675502,1,0,0:0:0:0:
375,98,675658,1,0,0:0:0:0:
348,189,675814,1,8,0:0:0:0:
321,280,675970,1,0,0:0:0:0:
294,371,676127,6,0,L|198:388,1,85,2|0,0:2|0:0,0:0:0:0:
253,211,676439,2,0,L|356:191,1,85,8|0,0:0|0:0,0:0:0:0:
228,302,676752,1,0,0:0:0:0:
161,234,676908,1,0,0:0:0:0:
186,141,677064,1,8,0:0:0:0:
279,116,677220,1,0,0:0:0:0:
347,184,677377,6,0,P|350:226|335:265,1,85,4|0,1:0|0:0,0:0:0:0:
253,211,677689,1,8,0:0:0:0:
372,91,677845,2,0,B|418:104|444:146|442:183|442:183|414:247,1,170
321,280,678314,1,8,0:0:0:0:
253,211,678470,2,0,P|249:168|264:129,1,85,0|2,0:0|0:2,0:0:0:0:
347,184,678783,5,0,0:0:0:0:
161,234,678939,1,8,0:0:0:0:
294,371,679095,1,0,0:0:0:0:
253,211,679252,1,0,0:0:0:0:
135,326,679408,1,0,0:0:0:0:
321,280,679564,1,8,0:0:0:0:
161,234,679720,1,0,0:0:0:0:
294,371,679877,6,0,P|351:369|398:336,1,85,2|0,0:2|0:0,0:0:0:0:
441,157,680189,1,8,0:0:0:0:
321,280,680345,1,0,0:0:0:0:
487,322,680502,1,0,0:0:0:0:
347,184,680658,1,0,0:0:0:0:
228,302,680814,1,8,0:0:0:0:
414,258,680970,6,0,L|514:236,1,85,4|2,0:0|2:0,0:0:0:0:
372,91,681283,1,0,0:0:0:0:
321,280,681439,1,8,0:0:0:0:
487,322,681595,1,0,0:0:0:0:
347,184,681752,2,0,L|272:108,1,85
321,280,682064,2,0,L|292:381,1,85,8|0,0:0|0:0,0:0:0:0:
413,258,682377,6,0,P|444:203|436:141,1,127.500004863739,4|0,2:2|2:0,2:0:0:0:
347,184,682845,2,0,P|316:238|324:300,1,127.500004863739,2|0,2:0|2:0,2:0:0:0:
414,258,683314,1,2,2:0:0:0:
414,258,684252,1,0,2:0:0:0:
223,196,684564,1,2,2:0:0:0:
297,129,684720,1,0,0:0:0:0:
297,129,684798,1,0,0:0:0:0:
297,129,684877,6,0,L|378:56,1,85,8|0,3:0|0:0,0:0:0:0:
318,227,685189,1,8,0:0:0:0:
202,98,685345,2,0,L|283:25,1,85,8|0,3:0|0:0,0:0:0:0:
223,196,685657,1,2,0:2:0:0:
107,67,685814,2,0,L|188:-6,1,85,4|0,0:0|0:0,0:0:0:0:
170,10,686283,5,0,3:1:0:0:
190,14,686361,1,0,3:1:0:0:
211,20,686439,1,8,3:1:0:0:
229,30,686517,1,0,3:1:0:0:
245,45,686595,1,0,3:1:0:0:
256,63,686673,1,0,3:1:0:0:
266,81,686751,5,8,3:1:0:0:
278,99,686829,1,0,3:1:0:0:
293,114,686908,1,0,3:1:0:0:
311,126,686986,1,0,3:1:0:0:
330,134,687064,1,8,3:1:0:0:
351,138,687142,1,0,3:1:0:0:
373,137,687220,1,0,3:1:0:0:
393,133,687298,1,0,3:1:0:0:
413,125,687377,6,0,P|442:92|457:47,1,85,4|0,2:0|0:0,0:0:0:0:
358,39,687689,1,8,0:0:0:0:
358,39,687845,1,0,0:0:0:0:
343,324,688158,1,0,0:0:0:0:
418,285,688314,1,8,0:0:0:0:
272,277,688470,1,0,0:0:0:0:
107,84,688783,5,0,0:0:0:0:
190,69,688939,1,8,0:0:0:0:
162,148,689095,1,0,0:0:0:0:
162,148,689173,2,0,L|110:288,1,127.5,0|0,0:0|0:0,0:0:0:0:
216,212,689564,1,8,0:0:0:0:
244,133,689720,1,0,0:0:0:0:
80,163,689877,5,2,0:2:0:0:
188,291,690033,1,0,0:0:0:0:
162,148,690189,1,8,0:0:0:0:
106,306,690345,2,0,P|136:357|176:373,1,85,0|0,0:0|0:0,0:0:0:0:
298,196,690658,1,0,0:0:0:0:
216,212,690814,1,8,0:0:0:0:
352,259,690970,6,0,L|437:243,1,85,0|2,0:0|0:2,0:0:0:0:
244,133,691283,2,0,L|158:148,1,85,0|8,0:0|0:0,0:0:0:0:
272,277,691595,2,0,P|301:326|345:339,1,85,0|2,0:0|0:2,0:0:0:0:
325,116,691908,2,0,P|296:67|252:54,1,85,0|8,0:0|0:0,0:0:0:0:
216,212,692220,1,0,0:0:0:0:
380,180,692377,6,0,P|407:130|401:85,2,85,4|0|8,2:0|0:0|0:0,0:0:0:0:
272,277,692845,1,0,0:0:0:0:
133,231,693002,2,0,B|48:250|48:250|2:294,2,127.5
298,196,693627,5,2,0:2:0:0:
435,243,693783,1,0,0:0:0:0:
435,243,693861,1,0,0:0:0:0:
435,243,693939,1,8,0:0:0:0:
272,277,694095,1,0,0:0:0:0:
325,116,694252,2,0,P|362:142|382:191,1,85,0|0,0:0|0:0,0:0:0:0:
216,212,694564,2,0,P|179:186|159:137,1,85,8|0,0:0|0:0,0:0:0:0:
352,36,694877,6,0,P|405:64|452:134,2,127.5,2|0|2,0:2|0:0|2:0,0:0:0:0:
298,196,695502,2,0,B|284:243|284:243|290:277|290:277|277:320,2,127.5,2|0|2,0:2|0:0|2:0,0:0:0:0:
269,52,696127,5,2,0:2:0:0:
380,180,696283,2,0,L|444:201,2,42.5,0|0|8,0:0|0:0|0:0,0:0:0:0:
216,212,696595,1,0,0:0:0:0:
325,116,696752,1,8,3:1:0:0:
347,102,696830,1,0,3:1:0:0:
373,97,696908,1,0,3:1:0:0:
400,99,696986,1,0,3:1:0:0:
424,110,697064,1,8,3:1:0:0:
444,127,697142,1,0,3:1:0:0:
457,150,697220,1,0,3:1:0:0:
463,176,697298,1,0,3:1:0:0:
460,202,697377,5,4,2:0:0:0:
433,282,697533,2,0,L|338:304,1,85,0|8,0:0|0:0,0:0:0:0:
293,238,697845,1,0,0:0:0:0:
209,256,698002,2,0,L|113:277,1,85,2|0,0:2|0:0,0:0:0:0:
68,211,698314,1,8,0:0:0:0:
93,129,698470,1,0,0:0:0:0:
176,109,698627,6,0,B|225:100|225:100|316:137,2,127.5,2|0|0,0:2|0:0|0:0,0:0:0:0:
93,129,699252,2,0,L|-2:150,1,85,2|0,0:2|0:0,0:0:0:0:
69,211,699564,1,8,0:0:0:0:
126,274,699720,1,0,0:0:0:0:
185,335,699877,6,0,B|218:369|218:369|322:378,2,127.5,2|0|0,0:2|0:0|0:0,0:0:0:0:
209,256,700502,1,2,0:2:0:0:
235,174,700658,2,0,L|269:69,1,85,0|8,0:0|0:0,0:0:0:0:
150,192,700970,1,0,0:0:0:0:
293,236,701127,6,0,L|400:212,2,85,2|0|8,0:2|0:0|0:0,0:0:0:0:
126,274,701595,1,0,0:0:0:0:
126,274,701673,1,0,0:0:0:0:
126,274,701752,2,0,P|83:244|68:169,2,127.5
268,320,702377,6,0,L|375:296,1,85,4|0,2:0|0:0,0:0:0:0:
235,174,702689,1,8,0:0:0:0:
209,256,702845,2,0,L|175:360,1,85,0|0,0:0|0:0,0:0:0:0:
293,236,703158,1,0,0:0:0:0:
317,154,703314,1,8,0:0:0:0:
341,72,703470,6,0,L|442:47,1,85,0|2,0:0|0:2,0:0:0:0:
401,134,703783,1,0,0:0:0:0:
377,216,703939,1,8,0:0:0:0:
353,298,704095,2,0,L|189:339,1,170,0|0,0:0|0:0,0:0:0:0:
209,256,704564,1,8,0:0:0:0:
235,174,704720,1,0,0:0:0:0:
261,92,704877,5,2,0:2:0:0:
150,192,705033,1,0,0:0:0:0:
317,154,705189,1,8,0:0:0:0:
205,30,705345,1,0,0:0:0:0:
235,174,705502,1,2,0:2:0:0:
344,76,705658,1,0,0:0:0:0:
176,109,705814,1,8,0:0:0:0:
293,236,705970,6,0,P|355:232|398:131,1,170,0|0,0:0|0:0,0:0:0:0:
385,129,706361,1,0,3:1:0:0:
370,114,706439,1,8,3:1:0:0:
354,100,706517,1,0,3:1:0:0:
339,85,706595,1,0,3:1:0:0:
323,71,706673,1,0,3:1:0:0:
308,57,706752,5,8,3:1:0:0:
308,94,706830,1,0,3:1:0:0:
297,129,706908,1,0,3:1:0:0:
275,159,706986,1,0,3:1:0:0:
246,181,707064,1,8,3:1:0:0:
211,194,707142,1,0,3:1:0:0:
174,195,707220,1,0,3:1:0:0:
138,185,707298,1,0,3:1:0:0:
107,164,707377,6,0,P|79:124|70:76,2,85,4|0|8,0:0|0:0|0:0,0:0:0:0:
178,269,707845,2,0,L|291:270,1,85,0|0,0:0|0:0,0:0:0:0:
306,196,708158,1,0,0:0:0:0:
391,194,708314,2,0,L|447:97,1,85,8|0,0:0|0:0,0:0:0:0:
421,103,708548,1,0,0:0:0:0:
411,84,708627,6,0,L|355:-12,2,85,2|0|8,0:2|0:0|0:0,0:0:0:0:
476,192,709095,2,0,P|461:244|416:278,1,85,0|0,0:0|0:0,0:0:0:0:
263,269,709408,1,0,0:0:0:0:
261,121,709564,2,0,L|315:24,1,85,8|0,0:0|0:0,0:0:0:0:
306,196,709877,6,0,L|250:294,1,85,2|0,0:2|0:0,0:0:0:0:
221,196,710189,1,8,0:0:0:0:
347,121,710345,2,0,P|386:170|388:219,1,85,0|0,0:0|0:0,0:0:0:0:
263,269,710658,1,0,0:0:0:0:
261,121,710814,2,0,P|283:62|325:36,1,85,8|0,0:0|0:0,0:0:0:0:
433,121,711127,5,2,0:2:0:0:
306,196,711283,1,0,0:0:0:0:
388,46,711439,2,0,P|445:35|488:54,1,85,8|0,0:0|0:0,0:0:0:0:
391,194,711752,1,8,3:1:0:0:
377,216,711830,1,0,3:1:0:0:
360,236,711908,1,0,3:1:0:0:
336,249,711986,1,0,3:1:0:0:
310,253,712064,1,8,3:1:0:0:
284,254,712142,1,0,3:1:0:0:
258,259,712220,1,0,3:1:0:0:
236,274,712298,1,0,3:1:0:0:
221,296,712377,6,0,P|185:332|83:337,2,127.5,4|0|2,1:0|0:0|0:2,0:0:0:0:
249,128,713002,2,0,L|265:31,1,85
169,158,713314,2,0,L|76:192,1,85,8|0,0:0|0:0,0:0:0:0:
235,212,713627,6,0,L|311:274,2,85,2|0|8,0:2|0:0|0:0,0:0:0:0:
183,73,714095,1,0,0:0:0:0:
183,73,714173,1,0,0:0:0:0:
182,73,714252,2,0,P|216:47|257:41,1,85
388,150,714564,2,0,P|355:175|314:182,1,85,8|0,0:0|0:0,0:0:0:0:
408,62,714877,6,0,P|464:102|462:200,1,170,2|8,0:2|0:0,0:0:0:0:
461,281,715345,1,0,0:0:0:0:
386,321,715502,2,0,P|323:349|239:298,1,170,0|8,0:0|0:0,0:0:0:0:
169,259,715970,1,0,0:0:0:0:
172,173,716127,6,0,P|178:104|264:57,1,170,2|8,0:2|0:0,0:0:0:0:
388,150,716595,1,0,0:0:0:0:
244,218,716752,1,8,3:1:0:0:
234,222,716830,1,0,3:1:0:0:
225,227,716908,1,8,3:1:0:0:
215,232,716986,1,0,3:1:0:0:
206,237,717064,1,8,3:1:0:0:
197,242,717142,1,0,3:1:0:0:
187,247,717220,1,8,3:1:0:0:
178,252,717298,1,0,3:1:0:0:
169,259,717377,6,0,L|68:257,1,85,4|0,1:0|0:0,0:0:0:0:
260,113,717689,2,0,L|361:115,1,85,8|0,0:0|0:0,0:0:0:0:
214,186,718002,2,0,L|113:184,1,85,2|0,0:2|0:0,0:0:0:0:
305,40,718314,2,0,L|406:42,1,85,8|0,0:0|0:0,0:0:0:0:
476,180,718627,6,0,B|496:220|452:272|452:272|449:312|449:312|424:352|375:358|333:328,1,255,2|0,2:0|0:0,0:0:0:0:
229,214,719252,2,0,P|230:172|252:136,1,85,0|0,0:0|0:0,0:0:0:0:
393,176,719564,2,0,P|392:219|368:258,1,85,8|0,0:0|0:0,0:0:0:0:
264,356,719877,6,0,L|157:345,1,85,2|0,0:2|0:0,0:0:0:0:
312,195,720189,2,0,L|419:206,1,85,8|0,0:0|0:0,0:0:0:0:
288,276,720502,2,0,L|181:265,1,85,2|0,0:2|0:0,0:0:0:0:
336,115,720814,2,0,L|443:126,1,85,8|0,0:0|0:0,0:0:0:0:
370,255,721127,6,0,P|291:277|231:219,2,170,2|8|0,0:2|0:0|0:0,0:0:0:0:
475,156,721908,1,0,0:0:0:0:
312,195,722064,1,8,0:0:0:0:
427,316,722220,1,0,0:0:0:0:
393,175,722377,6,0,P|374:139|241:150,1,170,4|8,1:0|0:0,0:0:0:0:
370,255,722845,1,0,0:0:0:0:
475,156,723002,2,0,L|446:41,1,85,0|0,0:0|0:0,0:0:0:0:
312,195,723314,2,0,L|226:277,1,85,8|0,0:0|0:0,0:0:0:0:
427,316,723627,6,0,L|541:348,1,85,2|0,0:2|0:0,0:0:0:0:
393,175,723939,1,8,0:0:0:0:
253,134,724095,2,0,P|198:137|158:254,1,170,0|0,0:0|0:0,0:0:0:0:
312,195,724564,1,8,0:0:0:0:
276,52,724720,1,0,0:0:0:0:
231,215,724877,6,0,L|203:320,1,85,2|0,0:2|0:0,0:0:0:0:
370,255,725189,1,8,0:0:0:0:
253,134,725345,2,0,L|148:162,1,85,0|0,0:0|0:0,0:0:0:0:
288,276,725658,1,0,0:0:0:0:
393,175,725814,1,8,0:0:0:0:
276,52,725970,1,0,0:0:0:0:
312,195,726127,5,4,1:0:0:0:
358,30,726283,1,0,0:0:0:0:
192,72,726439,1,8,0:0:0:0:
415,94,726595,2,0,P|454:118|477:168,1,85
370,255,726908,1,0,3:1:0:0:
349,261,726986,1,0,3:1:0:0:
328,266,727064,1,8,3:1:0:0:
308,271,727142,1,0,3:1:0:0:
287,276,727220,1,0,3:1:0:0:
266,281,727298,1,0,3:1:0:0:
246,286,727377,6,0,L|130:274,1,85,4|0,1:0|0:0,0:0:0:0:
175,129,727689,2,0,L|291:141,1,85,8|0,0:0|0:0,0:0:0:0:
126,199,728002,1,0,0:0:0:0:
90,121,728159,1,0,0:0:0:0:
139,50,728314,2,0,P|190:44|249:81,1,85,8|0,0:0|0:0,0:0:0:0:
212,206,728627,6,0,L|149:294,1,85,2|0,0:2|0:0,0:0:0:0:
40,190,728939,2,0,L|103:103,1,85,8|0,0:0|0:0,0:0:0:0:
126,199,729252,1,0,0:0:0:0:
77,269,729409,1,0,0:0:0:0:
112,346,729564,2,0,P|149:361|224:338,1,85,8|0,0:0|0:0,0:0:0:0:
212,206,729877,6,0,L|107:198,1,85,2|0,0:2|0:0,0:0:0:0:
280,362,730189,2,0,L|385:370,1,85,8|0,0:0|0:0,0:0:0:0:
411,297,730501,1,0,0:0:0:0:
458,226,730658,1,0,0:0:0:0:
420,149,730814,2,0,B|400:112|400:112|341:109,1,85,8|0,0:0|0:0,0:0:0:0:
212,206,731127,6,0,L|317:214,1,85,2|0,0:2|0:0,0:0:0:0:
222,58,731439,2,0,L|117:50,1,85,8|0,0:0|0:0,0:0:0:0:
3,113,731752,1,0,0:0:0:0:
124,198,731908,1,0,0:0:0:0:
52,44,732064,1,8,0:0:0:0:
38,189,732220,1,0,0:0:0:0:
156,273,732377,6,0,L|261:281,1,85,4|0,1:0|0:0,0:0:0:0:
166,125,732689,2,0,L|61:117,1,85,8|0,0:0|0:0,0:0:0:0:
212,206,733002,1,0,0:0:0:0:
300,214,733158,1,0,0:0:0:0:
312,60,733314,1,8,0:0:0:0:
262,133,733470,1,0,0:0:0:0:
388,221,733627,6,0,L|495:230,1,85,2|0,0:2|0:0,0:0:0:0:
397,67,733939,2,0,L|289:59,1,85,8|0,0:0|0:0,0:0:0:0:
300,214,734252,1,0,0:0:0:0:
351,140,734408,1,0,0:0:0:0:
166,125,734564,1,8,0:0:0:0:
212,206,734720,1,0,0:0:0:0:
213,44,734877,6,0,P|151:33|111:49,1,85,2|0,0:2|0:0,0:0:0:0:
117,204,735189,2,0,P|179:215|219:199,1,85,8|0,0:0|0:0,0:0:0:0:
351,140,735502,1,0,0:0:0:0:
262,133,735658,1,0,0:0:0:0:
249,288,735814,1,8,0:0:0:0:
300,214,735970,1,0,0:0:0:0:
166,125,736127,5,2,0:2:0:0:
155,285,736283,1,0,0:0:0:0:
262,133,736439,1,8,0:0:0:0:
117,204,736595,1,0,0:0:0:0:
249,288,736752,1,2,0:2:0:0:
351,140,736908,1,0,0:0:0:0:
212,206,737064,1,8,3:1:0:0:
193,216,737142,1,0,3:1:0:0:
178,231,737220,1,0,3:1:0:0:
167,249,737298,1,0,3:1:0:0:
161,270,737377,6,0,P|163:325|184:355,1,85,4|0,0:0|0:0,0:0:0:0:
300,214,737689,2,0,P|298:159|277:129,1,85,8|0,0:0|0:0,0:0:0:0:
117,204,738002,2,0,L|11:206,1,85,0|0,0:0|0:0,0:0:0:0:
249,288,738314,2,0,L|355:286,1,85,8|0,0:0|0:0,0:0:0:0:
435,138,738627,6,0,L|351:140,1,85,2|0,0:2|0:0,0:0:0:0:
286,370,738939,2,0,L|370:368,1,85,8|0,0:0|0:0,0:0:0:0:
388,222,739252,1,0,0:0:0:0:
212,206,739408,1,0,0:0:0:0:
338,295,739564,1,8,0:0:0:0:
262,133,739720,1,0,0:0:0:0:
159,279,739877,6,0,L|202:377,1,85,2|0,0:2|0:0,0:0:0:0:
300,214,740189,2,0,L|256:115,1,85,8|0,0:0|0:0,0:0:0:0:
117,204,740502,2,0,P|83:230|72:296,1,85,0|0,0:0|0:0,0:0:0:0:
338,295,740814,2,0,P|372:269|389:204,1,85,8|0,0:0|0:0,0:0:0:0:
166,125,741127,6,0,L|79:119,1,85,2|0,0:2|0:0,0:0:0:0:
249,288,741439,2,0,L|340:295,1,85,8|0,0:0|0:0,0:0:0:0:
262,133,741752,1,0,0:0:0:0:
159,279,741908,1,0,0:0:0:0:
300,214,742064,1,8,0:0:0:0:
224,52,742220,1,0,0:0:0:0:
211,206,742377,6,0,P|243:281|323:299,1,170,4|8,0:0|0:0,0:0:0:0:
351,140,742845,1,0,0:0:0:0:
134,44,743002,2,0,L|22:35,2,85,0|0|8,0:0|0:0|0:0,0:0:0:0:
262,133,743470,1,0,0:0:0:0:
388,222,743627,6,0,L|500:231,1,85,2|0,0:2|0:0,0:0:0:0:
351,140,743939,1,8,0:0:0:0:
249,288,744095,2,0,L|185:380,1,85,0|0,0:0|0:0,0:0:0:0:
338,295,744408,2,0,L|450:303,1,85,0|8,0:0|0:0,0:0:0:0:
262,133,744720,1,0,0:0:0:0:
117,204,744877,6,0,P|83:230|72:296,1,85,4|0,2:0|0:0,0:0:0:0:
300,214,745189,2,0,P|334:188|345:122,1,85,8|0,0:0|0:0,0:0:0:0:
224,52,745502,2,0,P|190:78|179:144,1,85,0|0,0:0|0:0,0:0:0:0:
249,288,745814,1,8,0:0:0:0:
262,133,745970,1,0,0:0:0:0:
262,133,746048,1,0,0:0:0:0:
262,133,746127,5,4,0:0:0:0:
159,279,746283,1,0,0:0:0:0:
338,295,746439,1,8,0:0:0:0:
212,206,746595,6,0,B|163:174|109:190|85:228|85:228|22:217|35:132,1,255.000009727478,0|0,0:0|0:0,0:0:0:0:
46,124,747298,1,0,0:0:0:0:
59,104,747377,6,0,L|157:51,1,85,4|0,1:0|0:0,0:0:0:0:
159,279,747689,2,0,L|171:384,1,85,8|0,0:0|0:0,0:0:0:0:
262,133,748002,2,0,L|249:27,1,85,2|0,0:2|0:0,0:0:0:0:
117,204,748314,2,0,L|19:257,1,85,8|0,0:0|0:0,0:0:0:0:
249,288,748627,6,0,P|314:303|376:262,2,127.5,2|0|2,0:2|0:0|2:0,0:0:0:0:
166,124,749252,2,0,L|127:46,1,85
159,279,749564,1,8,0:0:0:0:
300,214,749720,1,0,0:0:0:0:
117,204,749877,6,0,P|83:230|72:296,1,85,2|0,0:2|0:0,0:0:0:0:
338,295,750189,2,0,P|372:269|388:212,1,85,8|0,0:0|0:0,0:0:0:0:
262,133,750502,2,0,P|213:200|231:270,2,127.5,2|0|2,0:2|0:0|2:0,0:0:0:0:
397,67,751127,6,0,L|505:75,1,85,2|0,0:2|0:0,0:0:0:0:
300,214,751439,2,0,L|192:206,1,85,8|0,0:0|0:0,0:0:0:0:
166,124,751752,1,8,3:1:0:0:
192,105,751830,1,0,3:1:0:0:
222,97,751908,1,0,3:1:0:0:
254,102,751986,1,0,3:1:0:0:
282,117,752064,1,8,3:1:0:0:
306,137,752142,1,0,3:1:0:0:
334,152,752220,1,0,3:1:0:0:
365,160,752298,1,0,3:1:0:0:
397,162,752377,6,0,P|461:141|489:52,2,127.5,4|0|2,1:0|0:0|0:2,0:0:0:0:
314,19,753002,1,0,0:0:0:0:
397,67,753159,1,2,0:2:0:0:
228,162,753314,1,8,0:0:0:0:
230,66,753470,1,2,0:2:0:0:
312,211,753627,5,0,0:0:0:0:
145,209,753783,1,2,0:2:0:0:
311,115,753939,1,8,0:0:0:0:
313,307,754095,1,2,0:2:0:0:
228,162,754252,5,8,0:0:0:0:
477,21,754486,1,8,0:0:0:0:
474,307,754720,2,0,B|429:328|393:320|393:320|369:336|369:336|310:306|299:391|199:326,1,255,8|0,0:0|0:0,0:0:0:0:
154,308,755345,1,0,0:0:0:0:
76,272,755502,2,0,P|55:201|104:117,1,170,0|8,0:0|0:0,0:0:0:0:
178,91,755970,1,0,0:0:0:0:
178,91,756048,1,0,0:0:0:0:
178,91,756127,6,0,P|229:87|280:115,1,85,2|0,0:2|0:0,0:0:0:0:
212,179,756439,1,8,0:0:0:0:
119,164,756595,2,0,P|90:122|88:64,1,85,0|0,0:0|0:0,0:0:0:0:
237,18,756908,1,0,0:0:0:0:
328,32,757064,1,8,0:0:0:0:
361,117,757220,1,0,0:0:0:0:
394,202,757377,6,0,L|429:297,1,85,4|0,1:0|0:0,0:0:0:0:
305,194,757689,2,0,L|204:176,1,85,8|2,0:0|2:0,0:0:0:0:
221,179,757923,2,0,B|177:173|177:173|129:191|129:191|68:184,1,127.5,0|0,0:0|0:0,0:0:0:0:
44,253,758314,1,8,0:0:0:0:
74,330,758470,1,0,0:0:0:0:
155,342,758627,6,0,L|252:357,1,85,2|0,0:2|0:0,0:0:0:0:
305,194,758939,2,0,L|208:209,1,85,8|0,0:0|0:0,0:0:0:0:
358,259,759252,2,0,L|455:274,1,85,0|0,0:0|0:0,0:0:0:0:
508,111,759564,2,0,L|411:126,1,85,8|0,0:0|0:0,0:0:0:0:
305,194,759877,6,0,P|276:241|287:303,1,85,2|0,0:2|0:0,0:0:0:0:
411,324,760189,2,0,P|440:277|429:215,1,85,8|0,0:0|0:0,0:0:0:0:
441,248,760423,2,0,B|436:203|436:203|406:161|406:161|397:101,1,127.5,0|0,0:0|0:0,0:0:0:0:
361,55,760814,1,8,0:0:0:0:
277,67,760970,1,0,0:0:0:0:
263,151,761127,6,0,B|269:196|250:225|229:241|229:241|223:268,2,127.5,2|0|2,0:2|0:0|0:2,0:0:0:0:
197,96,761752,1,8,3:1:0:0:
170,93,761830,1,0,3:1:0:0:
144,98,761908,1,0,3:1:0:0:
122,113,761986,1,0,3:1:0:0:
108,135,762064,1,8,3:1:0:0:
85,139,762142,1,0,3:1:0:0:
59,146,762220,1,0,3:1:0:0:
39,163,762298,1,0,3:1:0:0:
26,185,762377,6,0,P|13:235|34:280,1,85,4|0,1:0|0:0,0:0:0:0:
175,270,762689,2,0,P|147:239|107:228,1,85,8|0,0:0|0:0,0:0:0:0:
26,357,763002,2,0,P|67:348|97:319,1,85,0|0,0:0|0:0,0:0:0:0:
252,221,763314,1,8,0:0:0:0:
170,178,763470,1,0,0:0:0:0:
255,313,763627,6,0,P|311:291|344:213,2,127.5,2|0|2,0:2|0:0|0:2,0:0:0:0:
91,227,764252,1,0,0:0:0:0:
91,227,764330,1,0,0:0:0:0:
91,227,764408,1,0,0:0:0:0:
247,127,764564,1,8,0:0:0:0:
247,127,764642,1,0,0:0:0:0:
247,127,764720,1,0,0:0:0:0:
175,270,764877,6,0,P|118:319|11:280,1,170,2|8,0:2|0:0,0:0:0:0:
170,178,765345,2,0,L|257:121,1,85,0|0,0:0|0:0,0:0:0:0:
412,214,765658,1,0,0:0:0:0:
251,221,765814,1,8,0:0:0:0:
407,121,765970,1,0,0:0:0:0:
334,264,766127,6,0,L|321:332,3,42.5,8|0|0|0,3:1|3:1|3:1|3:1,3:1:0:0:
282,203,766439,2,0,L|293:124,3,42.5,8|0|0|0,3:1|3:1|3:1|3:1,3:1:0:0:
214,238,766752,5,8,3:1:0:0:
185,234,766830,1,0,3:1:0:0:
158,243,766908,1,0,3:1:0:0:
139,265,766986,1,0,3:1:0:0:
134,294,767064,1,8,3:1:0:0:
143,321,767142,1,0,3:1:0:0:
165,339,767220,1,0,3:1:0:0:
194,342,767298,1,0,3:1:0:0:
221,333,767377,5,4,0:0:0:0:
350,221,767533,1,0,0:0:0:0:
253,108,767689,1,8,0:0:0:0:
286,277,767845,1,0,0:0:0:0:
416,163,768002,1,2,2:0:0:0:
269,192,768158,1,0,0:0:0:0:
431,250,768314,1,8,0:0:0:0:
317,52,768470,1,0,0:0:0:0:
202,249,768627,5,4,0:0:0:0:
202,249,769720,1,0,0:0:0:0:
202,249,769798,1,0,0:0:0:0:
202,249,769877,5,4,0:0:0:0:
370,305,770033,1,0,0:0:0:0:
334,131,770189,1,0,0:0:0:0:
286,277,770345,1,4,0:0:0:0:
286,277,772220,1,0,0:0:0:0:
286,277,772298,1,0,0:0:0:0:
286,277,772377,5,4,0:0:0:0:
416,163,772533,1,0,0:0:0:0:
450,332,772689,1,0,0:0:0:0:
350,221,772845,1,4,0:0:0:0:
350,221,773470,1,0,0:0:0:0:
350,221,773548,1,0,0:0:0:0:
350,221,773627,5,0,0:0:0:0:
269,192,773783,1,0,0:0:0:0:
202,249,773939,1,0,0:0:0:0:
135,306,774095,2,0,L|69:283,2,42.5,0|0|0,0:0|0:0|0:0,0:0:0:0:
217,335,774408,2,0,L|229:403,2,42.5,0|0|0,0:0|0:0|0:0,0:0:0:0:
187,163,774720,6,0,P|224:118|270:107,1,85,4|2,0:0|0:2,0:0:0:0:
269,192,775033,1,0,0:0:0:0:
202,249,775189,2,0,P|144:239|112:205,1,85,8|0,0:0|0:0,0:0:0:0:
114,204,775423,1,0,0:0:0:0:
104,186,775502,1,0,0:0:0:0:
101,101,775658,1,0,0:0:0:0:
173,55,775814,1,8,0:0:0:0:
248,94,775970,6,0,L|346:145,1,85,0|2,0:0|0:2,0:0:0:0:
402,256,776283,1,0,0:0:0:0:
326,217,776439,1,8,0:0:0:0:
393,87,776595,1,0,0:0:0:0:
393,87,776673,1,0,0:0:0:0:
393,87,776752,1,0,0:0:0:0:
398,172,776908,1,0,0:0:0:0:
251,179,777064,1,8,0:0:0:0:
323,133,777220,1,0,0:0:0:0:
329,301,777377,6,0,L|242:354,1,85,12|0,0:0|0:0,0:0:0:0:
251,179,777689,1,0,0:0:0:0:
402,256,777845,2,0,P|414:304|400:350,1,85,8|0,0:0|0:0,0:0:0:0:
254,262,778158,1,2,0:2:0:0:
323,133,778314,1,0,0:0:0:0:
473,211,778470,6,0,L|514:320,1,85,8|0,0:0|0:0,0:0:0:0:
326,217,778783,1,0,0:0:0:0:
326,217,778861,1,0,0:0:0:0:
326,217,778939,1,2,0:2:0:0:
393,87,779095,2,0,P|442:98|477:145,1,85,8|0,0:0|0:0,0:0:0:0:
402,256,779408,1,0,0:0:0:0:
402,256,779486,1,0,0:0:0:0:
402,256,779564,1,8,0:0:0:0:
254,262,779720,6,0,P|239:214|262:160,1,85,4|2,0:0|0:2,0:0:0:0:
329,301,780033,1,0,0:0:0:0:
256,346,780189,2,0,P|206:334|171:288,1,85,8|0,0:0|0:0,0:0:0:0:
326,217,780502,1,0,0:0:0:0:
403,340,780658,1,0,0:0:0:0:
254,262,780814,1,8,0:0:0:0:
248,94,780970,6,0,P|199:58|145:61,1,85,0|2,0:0|0:2,0:0:0:0:
105,183,781283,2,0,P|154:219|208:216,1,85,0|8,0:0|0:0,0:0:0:0:
101,98,781595,2,0,P|45:122|20:170,1,85,0|0,0:0|0:0,0:0:0:0:
182,306,781908,1,0,0:0:0:0:
176,138,782064,1,8,0:0:0:0:
107,266,782220,6,0,P|96:317|122:367,1,85,4|2,0:0|0:2,0:0:0:0:
254,262,782533,1,0,0:0:0:0:
105,183,782689,2,0,P|49:207|24:255,1,85,8|0,0:0|0:0,0:0:0:0:
182,306,783002,1,0,0:0:0:0:
326,217,783158,1,0,0:0:0:0:
176,138,783314,1,8,0:0:0:0:
254,262,783470,6,0,P|303:298|356:295,1,85,0|2,0:0|0:2,0:0:0:0:
398,172,783783,1,0,0:0:0:0:
248,94,783939,1,8,0:0:0:0:
178,224,784095,1,0,0:0:0:0:
323,133,784252,1,0,0:0:0:0:
171,52,784408,1,0,0:0:0:0:
251,179,784564,1,8,0:0:0:0:
395,87,784720,6,0,L|476:37,1,85,4|2,0:0|0:2,0:0:0:0:
320,46,785033,1,0,0:0:0:0:
326,217,785189,2,0,L|328:312,1,85,8|0,0:0|0:0,0:0:0:0:
398,172,785502,1,0,0:0:0:0:
248,94,785658,1,0,0:0:0:0:
254,262,785814,1,8,0:0:0:0:
323,133,785970,1,0,0:0:0:0:
176,138,786127,6,0,P|132:150|103:184,1,85,2|0,0:2|0:0,0:0:0:0:
182,306,786439,2,0,P|226:294|255:260,1,85,8|0,0:0|0:0,0:0:0:0:
323,133,786752,1,0,0:0:0:0:
248,94,786908,1,0,0:0:0:0:
326,217,787064,2,0,P|381:191|405:154,1,85,8|0,0:0|0:0,0:0:0:0:
320,46,787377,6,0,L|227:0,1,85,2|0,0:2|0:0,0:0:0:0:
251,179,787689,2,0,L|256:281,1,85,8|0,0:0|0:0,0:0:0:0:
323,133,788002,1,0,0:0:0:0:
171,52,788158,1,0,0:0:0:0:
178,224,788314,1,8,0:0:0:0:
248,94,788470,1,0,0:0:0:0:
105,183,788627,5,8,0:0:0:0:
254,262,788783,1,0,0:0:0:0:
176,138,788939,1,8,0:0:0:0:
181,305,789095,1,0,3:1:0:0:
201,328,789173,1,0,3:1:0:0:
227,343,789251,1,8,3:1:0:0:
257,347,789329,1,0,3:1:0:0:
286,341,789407,1,0,3:1:0:0:
311,325,789485,1,0,3:1:0:0:
329,301,789563,1,8,3:1:0:0:
251,179,789720,6,0,P|213:190|174:239,1,85,4|0,0:0|0:0,0:0:0:0:
326,217,790033,1,0,0:0:0:0:
395,87,790189,2,0,P|366:59|304:50,1,85,8|0,0:0|0:0,0:0:0:0:
254,262,790502,1,0,0:0:0:0:
402,256,790658,1,0,0:0:0:0:
323,133,790814,1,8,0:0:0:0:
329,301,790970,6,0,P|371:336|417:341,1,85,0|2,0:0|0:2,0:0:0:0:
326,217,791283,2,0,P|274:235|247:273,1,85,0|8,0:0|0:0,0:0:0:0:
402,256,791595,2,0,P|411:202|392:159,1,85,0|0,0:0|0:0,0:0:0:0:
248,94,791908,1,0,0:0:0:0:
326,217,792064,1,8,0:0:0:0:
320,46,792220,1,0,0:0:0:0:
176,138,792377,6,0,L|94:189,1,85,2|0,0:2|0:0,0:0:0:0:
251,179,792689,1,8,0:0:0:0:
171,52,792845,1,0,0:0:0:0:
178,224,793002,1,0,0:0:0:0:
248,94,793158,1,0,0:0:0:0:
254,262,793314,1,8,0:0:0:0:
105,183,793470,6,0,P|93:152|107:91,1,85,0|2,0:0|0:2,0:0:0:0:
251,179,793783,2,0,P|283:184|329:226,1,85,0|8,0:0|0:0,0:0:0:0:
182,306,794095,2,0,P|161:331|101:350,1,85,0|0,0:0|0:0,0:0:0:0:
176,138,794408,1,0,0:0:0:0:
326,217,794564,1,8,0:0:0:0:
178,224,794720,1,0,0:0:0:0:
248,94,794877,6,0,L|302:-7,1,85,4|0,0:0|0:0,0:0:0:0:
326,217,795189,1,8,0:0:0:0:
176,138,795345,2,0,L|114:39,1,85,4|0,0:0|0:0,0:0:0:0:
323,133,795658,1,0,0:0:0:0:
254,262,795814,1,8,0:0:0:0:
248,94,795970,6,0,P|287:54|348:52,1,85,4|0,0:0|0:0,0:0:0:0:
402,256,796283,1,0,0:0:0:0:
251,179,796439,1,8,0:0:0:0:
395,87,796595,1,0,0:0:0:0:
254,262,796752,2,0,P|204:247|172:204,1,85,4|0,0:0|0:0,0:0:0:0:
398,172,797064,2,0,P|448:187|480:230,1,85,8|0,0:0|0:0,0:0:0:0:
329,301,797377,6,0,B|313:336|278:355|246:351|246:351|171:315,1,170,4|0,0:0|0:0,0:0:0:0:
105,183,797845,1,0,0:0:0:0:
251,179,798002,2,0,P|301:194|333:237,1,85,4|0,0:0|0:0,0:0:0:0:
178,224,798314,1,8,0:0:0:0:
247,93,798470,6,0,L|326:44,1,85,0|0,0:0|0:0,0:0:0:0:
254,262,798783,1,0,0:0:0:0:
177,138,798939,2,0,P|164:102|186:36,1,85,8|0,0:0|0:0,0:0:0:0:
326,217,799252,2,0,P|339:253|317:319,1,85,0|0,0:0|0:0,0:0:0:0:
178,224,799564,2,0,P|140:217|94:165,1,85,8|0,0:0|0:0,0:0:0:0:
323,133,799877,6,0,P|360:139|406:191,1,85,4|0,0:0|0:0,0:0:0:0:
254,262,800189,1,8,0:0:0:0:
247,93,800345,2,0,B|265:53|314:36|350:51|350:51|415:51,1,170
326,217,800814,2,0,P|288:252|234:259,1,85,8|0,0:0|0:0,0:0:0:0:
236,256,801048,1,0,0:0:0:0:
215,253,801127,5,8,0:0:0:0:
323,133,801283,1,0,0:0:0:0:
329,301,801439,1,0,0:0:0:0:
251,179,801595,2,0,P|238:128|260:78,1,85,4|0,0:0|0:0,0:0:0:0:
402,256,801908,2,0,P|414:306|392:356,1,85,4|0,0:0|0:0,0:0:0:0:
256,346,802220,1,0,0:0:0:0:
256,346,802298,1,0,0:0:0:0:
256,346,802377,6,0,P|243:295|265:245,1,85,4|0,0:0|0:0,0:0:0:0:
398,172,802689,2,0,P|448:187|480:230,1,85,8|0,0:0|0:0,0:0:0:0:
329,301,803002,1,0,0:0:0:0:
251,179,803158,1,0,0:0:0:0:
256,346,803314,1,8,0:0:0:0:
326,217,803470,1,0,0:0:0:0:
177,138,803627,6,0,P|132:151|104:270,1,170,2|8,0:2|0:0,0:0:0:0:
251,179,804095,2,0,P|262:133|173:49,1,170,2|0,0:2|0:0,0:0:0:0:
178,224,804564,2,0,P|221:261|252:265,1,85,8|0,0:0|0:0,0:0:0:0:
402,256,804877,5,0,0:0:0:0:
323,133,805033,1,0,0:0:0:0:
329,301,805189,2,0,P|368:335|419:342,1,85,8|0,0:0|0:0,0:0:0:0:
392,88,805502,2,0,P|353:54|302:47,1,85,0|0,0:0|0:0,0:0:0:0:
174,136,805814,1,8,0:0:0:0:
326,217,805970,1,0,0:0:0:0:
326,217,806048,1,0,0:0:0:0:
326,217,806127,5,0,3:0:0:0:
250,62,806283,1,0,0:0:0:0:
220,232,806439,1,0,0:0:0:0:
344,112,806595,1,0,0:0:0:0:
156,132,806752,1,0,0:0:0:0:
338,230,806908,1,0,0:0:0:0:
247,44,807064,1,0,0:0:0:0:
211,248,807220,1,4,0:0:0:0:
