osu file format v7

[General]
AudioFilename: Torinouta (M-Project Remix).mp3
AudioLeadIn: 0
PreviewTime: 131874
Countdown: 2
SampleSet: Soft
StackLeniency: 0.5
Mode: 0
LetterboxInBreaks: 1

[Editor]
Bookmarks: 12348,23930,38407,57227,86181,109345,132508,144089,171596
DistanceSpacing: 1
BeatDivisor: 4
GridSize: 8

[Metadata]
Title:Torinouta (M-Project Remix)
Artist:M-PROJECT
Creator:saymun
Version:[new]Insane
Source:
Tags:Air Remix Techno Tori Uta

[Difficulty]
HPDrainRate:6
CircleSize:4
OverallDifficulty:8
SliderMultiplier:1.6
SliderTickRate:1

[Events]
//Background and Video events
0,0,"bg.jpg"
//Break Periods
2,69009,73850
2,109363,114385
2,169986,170846
2,200704,205591
//Storyboard Layer 0 (Background)
//Storyboard Layer 1 (Fail)
//Storyboard Layer 2 (Pass)
//Storyboard Layer 3 (Foreground)
//Storyboard Sound Samples
//Background Colour Transformations
3,100,163,162,255

[TimingPoints]
12349,361.925443358668,4,2,0,100,1,0

[HitObjects]
48,56,12348,1,0
208,56,12710,1,0
48,120,13072,1,0
208,120,13434,1,0
48,184,13796,1,0
208,184,14158,1,0
48,248,14520,1,0
208,248,14882,1,0
304,328,15153,1,0
304,328,15244,5,0
464,328,15606,1,0
304,264,15968,1,0
464,264,16330,1,0
304,200,16692,1,0
464,200,17054,1,0
304,136,17415,1,0
464,136,17777,1,0
464,136,17868,1,0
464,136,17958,1,0
464,56,18139,5,0
376,192,18501,1,0
288,56,18863,1,0
200,192,19225,1,0
112,56,19587,1,0
24,192,19949,1,0
112,328,20311,1,0
200,192,20673,1,0
288,328,20944,1,0
288,328,21035,5,0
137,118,21397,1,0
392,160,21759,1,0
182,310,22120,1,0
224,56,22482,1,0
374,265,22844,1,0
120,224,23206,1,0
329,73,23568,1,0
329,73,23659,1,0
329,73,23749,1,0
88,96,23930,6,0,B|120:64|168:72,2,80,4|0|0
48,168,24473,1,0
40,208,24563,1,0
48,248,24654,1,0
88,320,24835,1,0
160,352,25016,1,0
232,312,25197,1,0
160,272,25378,1,0
232,232,25559,1,0
304,272,25740,6,0,B|336:304|328:360,2,80,0|0|0
208,112,26283,2,0,B|176:80|184:24,2,80,0|0|0
208,112,26735,1,0
208,112,26826,5,4
288,112,27006,1,0
368,112,27187,1,0
448,112,27368,1,0
408,184,27549,1,0
328,184,27730,1,0
248,184,27911,1,0
168,184,28092,1,0
128,256,28273,1,0
208,256,28454,1,0
288,256,28635,1,0
368,256,28816,2,0,B|416:256|448:288,2,80,0|0|0
328,184,29359,1,0
328,144,29449,1,0
328,104,29540,1,0
256,72,29721,6,0,B|216:48|160:80,2,80,4|0|0
216,144,30264,1,0
216,184,30354,1,0
216,224,30445,1,0
176,296,30626,1,0
104,264,30807,1,0
144,192,30988,1,0
368,192,31169,5,4
408,264,31350,1,0
336,296,31531,1,0
296,224,31712,1,0
296,184,31803,1,0
296,144,31893,1,0
256,72,32073,2,0,B|296:48|352:80,2,80,0|0|0
256,192,32526,12,4,34064
104,312,34426,5,0
256,72,34788,1,0
408,312,35150,1,0
256,192,35512,12,0,36598
48,48,36959,5,4
464,48,37321,1,4
464,336,37683,1,4
48,336,38045,1,4
256,64,38407,5,2
366,256,38588,1,0
145,256,38769,1,2
320,32,38950,5,2
362,327,39131,1,0
85,216,39312,1,2
418,294,39493,5,2
264,0,39674,1,0
85,281,39855,6,0,B|80:344|160:344,2,80,4|0|8
160,256,40398,2,0,B|184:232|256:240,2,80,0|0|0
152,176,40941,2,0,B|168:136|216:120,1,80,8|0
288,120,41303,6,0,B|336:120|352:64,2,80,0|0|8
296,200,41845,2,0,B|304:248|376:272,2,80,0|0|0
376,176,42388,2,0,B|472:176,1,80,8|0
432,96,42750,5,0
352,96,42931,1,0
272,96,43112,1,8
80,192,43293,1,0
160,192,43474,1,0
240,192,43655,1,0
432,288,43836,1,8
352,288,44017,1,0
112,288,44198,5,0
112,208,44379,1,0
112,128,44560,1,8
256,64,44741,1,0
256,144,44922,1,0
256,224,45103,1,0
400,288,45284,1,8
400,208,45465,1,0
208,352,45646,6,0,B|168:376|112:344,2,80,0|0|8
280,312,46189,2,0,B|320:288|376:320,2,80,0|0|0
208,280,46731,2,0,B|208:184,1,80,8|0
304,32,47093,6,0,B|344:8|400:40,2,80,0|0|8
232,72,47636,2,0,B|192:96|136:64,2,80,0|0|0
304,104,48178,2,0,B|304:200,1,80,8|0
56,192,48541,5,0
136,192,48722,1,0
216,192,48903,1,8
456,192,49084,1,0
376,192,49265,1,0
296,192,49446,1,0
56,192,49627,1,8
56,192,49808,1,0
296,192,49989,5,0
376,192,50170,1,0
456,192,50351,1,8
216,192,50532,1,0
136,192,50713,1,0
56,192,50894,1,0
296,192,51075,1,8
296,192,51255,1,0
56,192,51436,6,0,B|40:280,2,80,4|0|8
96,120,51979,2,0,B|112:40,2,80,0|0|0
136,192,52522,2,0,B|120:280,1,80,8|0
200,264,52884,6,0,B|224:352,2,80,0|0|8
240,192,53427,2,0,B|216:112,2,80,0|0|0
280,264,53970,2,0,B|304:352,1,80,8|0
416,80,54332,5,0
256,56,54513,1,0
96,80,54694,1,8
96,240,54875,1,0
256,264,55056,1,0
416,240,55237,1,0
416,80,55418,1,8
416,240,55599,1,0
416,80,55780,5,0
416,240,55961,1,0
256,264,56141,1,8
96,240,56322,1,0
96,80,56503,1,0
256,56,56684,1,0
416,80,56865,1,8
416,240,57046,1,0
136,256,57227,6,0,B|152:344,1,80
150,335,57589,2,0,B|199:249,1,80,8|0
190,266,57951,2,0,B|215:353,1,80
212,342,58313,2,0,B|263:273,1,80,8|0
384,128,58675,6,0,B|368:40,1,80
370,49,59037,2,0,B|320:135,1,80,8|0
330,118,59399,2,0,B|304:31,1,80
308,42,59761,2,0,B|256:111,1,80,8|0
280,344,60123,5,0
232,344,60304,1,0
312,296,60485,1,8
200,296,60666,1,0
344,240,60847,1,0
168,240,61027,1,0
376,184,61208,1,8
136,184,61389,1,0
376,184,61570,5,0
136,184,61751,1,0
344,144,61932,1,8
168,144,62113,1,0
304,88,62294,1,0
200,88,62475,1,0
280,40,62656,1,8
232,40,62837,1,0
464,48,63018,6,0,B|464:144,1,80,4|0
384,112,63380,1,8
304,128,63561,2,0,B|304:232,1,80
224,192,63923,1,0
144,208,64104,2,0,B|144:312,1,80,8|0
48,48,64466,6,0,B|48:144,1,80
128,112,64828,1,8
208,128,65009,2,0,B|208:232,1,80
288,192,65371,1,0
368,208,65552,2,0,B|368:312,1,80,8|0
296,320,65913,6,0,B|240:344|192:304,1,80
256,192,66275,1,8
128,232,66456,2,0,B|104:176|144:128,1,80
256,192,66818,1,0
216,64,66999,2,0,B|272:40|320:80,1,80,8|0
376,80,67361,6,0,B|392:120|448:128,1,80
256,192,67723,1,8
368,312,67904,2,0,B|328:328|320:384,1,80
256,192,68266,1,0
136,304,68447,2,0,B|120:264|64:256,1,80,8|0
256,192,68809,1,0
56,48,74600,5,4
136,48,74781,1,0
96,120,74962,1,8
176,120,75143,1,0
216,192,75324,1,0
136,192,75504,1,0
176,264,75685,1,8
256,264,75866,1,0
216,336,76047,5,0
296,336,76228,1,0
336,264,76409,1,8
256,264,76590,1,0
376,192,76771,1,0
296,192,76951,1,0
336,120,77132,1,8
416,120,77313,1,0
376,48,77495,6,0,B|328:48|288:24,1,80
256,192,77857,1,8
136,336,78038,2,0,B|184:336|224:360,1,80
256,192,78400,1,0
112,72,78581,2,0,B|112:120|88:160,1,80,8|0
400,312,78943,6,0,B|400:264|424:224,1,80
256,192,79305,1,8
112,72,79486,2,0,B|112:120|88:160,1,80
256,192,79848,1,0
376,48,80029,2,0,B|328:48|288:24,1,80,8|0
440,192,80390,5,0
392,256,80571,1,0
312,248,80752,2,0,B|248:272|200:240,2,80,8|0|0
296,328,81295,2,0,B|240:328|200:360,2,80,0|8|0
376,304,81838,6,0,B|416:280|416:216,1,80
384,168,82200,1,8
336,104,82381,1,0
288,168,82562,1,0
240,104,82743,1,0
192,168,82924,2,0,B|160:216|112:224,1,80,8|0
152,296,83286,6,0,B|184:328|240:312,2,80,0|0|8
72,280,83829,2,0,B|40:248|56:192,2,80
128,224,84372,1,8
208,232,84553,1,0
256,296,84734,5,0
360,192,84915,1,0
256,88,85096,1,8
152,192,85276,1,0
256,360,85457,5,0
424,192,85638,1,0
256,24,85819,1,8
88,192,86000,1,0
456,96,86181,5,0
456,248,86543,1,0
384,272,86724,1,0
312,296,86905,2,0,B|256:312|216:296,2,70
288,224,87448,1,0
216,208,87629,1,0
216,208,87719,1,0
184,136,87900,1,0
184,136,87991,1,0
176,56,88172,1,0
104,40,88353,2,0,B|40:80|40:168,1,140
112,296,89077,5,0
248,336,89258,1,0
248,336,89348,2,0,B|304:342|344:302,1,105,0|0
256,192,89801,1,0
264,48,89982,1,0
264,48,90072,2,0,B|207:41|167:81,1,105
256,192,90524,1,0
400,200,90705,1,0
400,200,90796,2,0,B|406:143|366:103,1,105
256,192,91248,1,0
112,184,91429,1,0
112,184,91520,2,0,B|105:240|145:280,1,105
216,312,91972,5,0
368,272,92334,1,0
296,304,92515,1,0
368,272,92696,1,0
256,168,93058,1,0
200,112,93239,1,0
256,64,93420,1,0
256,64,93510,1,0
312,112,93691,1,0
312,112,93782,1,0
376,152,93963,1,0
432,96,94144,2,0,B|472:152|440:216|392:224,1,140
256,192,94868,5,0
248,336,95048,1,0
248,336,95138,2,0,B|304:342|344:302,1,105
256,192,95591,1,0
400,200,95772,1,0
400,200,95863,2,0,B|406:143|366:103,1,105
256,192,96315,1,0
264,48,96496,1,0
264,48,96586,2,0,B|207:41|167:81,1,105
256,192,97038,1,0
112,184,97219,1,0
112,184,97310,2,0,B|105:240|145:280,1,105
208,320,97763,5,0
280,344,97944,1,0
352,320,98125,1,0
392,304,98215,1,0
416,272,98306,1,0
432,200,98487,1,0
424,120,98668,2,0,B|432:80|488:56,2,70
352,80,99211,5,0
280,112,99392,1,0
208,80,99573,1,0
168,72,99663,1,0
128,80,99753,1,0
96,104,99844,1,0
80,136,99934,1,0
56,208,100115,1,0
96,224,100206,1,0
136,232,100296,1,0
176,224,100387,1,0
208,208,100477,1,0
248,200,100568,1,0
288,208,100658,5,0
352,168,100839,1,0
408,224,101020,1,0
408,224,101111,1,0
408,224,101201,1,0
408,224,101292,1,0
408,224,101382,1,0
376,296,101563,2,0,B|320:288|304:240,1,70
240,272,101925,1,0
264,200,102106,5,0
192,216,102287,1,0
112,208,102468,1,0
88,176,102558,1,0
80,136,102649,1,0
88,96,102739,1,0
112,64,102830,1,0
192,64,103011,1,0
208,96,103101,1,0
216,136,103192,1,0
296,136,103373,1,0
304,96,103464,1,0
328,72,103554,5,0
400,96,103735,1,0
456,152,103916,1,0
472,184,104006,1,0
480,224,104097,1,0
472,264,104187,1,0
456,296,104278,1,0
384,264,104459,1,0
312,296,104639,1,0
296,264,104730,1,0
288,224,104820,1,0
296,184,104911,1,0
312,152,105001,5,0
312,72,105182,1,0
240,48,105363,1,0
200,40,105454,1,0
160,48,105544,1,0
128,64,105635,1,0
104,96,105725,1,0
56,160,105906,1,0
128,192,106087,5,0
134,231,106177,1,0
152,267,106268,1,0
180,295,106358,1,0
216,313,106449,1,0
256,320,106540,1,0
295,313,106630,1,0
331,295,106721,1,0
359,267,106811,1,0
377,231,106902,1,0
384,192,106992,5,0
377,152,107082,1,0
359,116,107173,1,0
331,88,107263,1,0
295,70,107354,1,0
256,64,107444,1,0
216,70,107534,1,0
180,88,107625,1,0
152,116,107715,1,0
134,152,107806,1,0
128,192,107897,6,0,B|128:248|144:288|184:328|256:328|272:360|336:296|376:304|384:256|376:232|414:197|392:144|368:112|352:80|272:64,1,560
96,112,115135,5,0
160,152,115316,1,0
216,104,115497,1,0
216,104,115588,1,0
216,104,115678,2,0,B|264:72|312:96,2,70
240,176,116221,2,0,B|192:192|184:232,1,70
256,248,116583,1,0
320,288,116764,1,0
256,328,116945,6,0,B|224:344|184:344,1,70
120,192,117307,2,0,B|104:160|104:120,1,70,0|0
256,56,117669,2,0,B|288:40|328:40,1,70,0|0
392,192,118031,5,0
392,272,118212,1,0
320,256,118393,2,0,B|288:272|288:296,1,35
256,256,118574,1,0
248,216,118664,2,0,B|208:200|224:168,1,35
264,128,118936,1,0
184,128,119117,1,0
104,128,119297,1,0
104,208,119478,1,0
104,288,119659,1,0
184,288,119840,6,0,B|224:304|216:336,4,35,0|0|0|0|0
184,208,120383,1,0
200,176,120474,1,0
232,160,120564,1,0
312,160,120745,1,0
344,176,120836,1,0
360,208,120926,5,0
320,272,121107,1,0
400,272,121288,2,0,B|432:264|440:240,4,35
360,336,121831,2,0,B|312:360|272:328,1,70
216,320,122193,1,0
216,320,122374,1,0
216,320,122555,1,0
192,256,122736,5,0
168,216,122826,1,0
176,176,122917,1,0
96,184,123098,1,0
128,112,123279,2,0,B|104:80|72:96,5,35
100,91,123822,5,0
96,168,124002,1,0
96,248,124183,1,0
96,264,124274,1,0
104,280,124364,1,0
120,296,124455,1,0
136,304,124545,2,0,B|168:328|216:328,2,70
176,240,125088,1,0
256,232,125269,1,0
336,224,125450,1,0
336,144,125631,5,0
336,128,125722,1,0
344,112,125812,1,0
360,96,125903,1,0
376,88,125993,1,0
448,72,126174,1,0
448,72,126265,1,0
448,72,126355,1,0
432,144,126536,1,0
432,144,126626,1,0
432,144,126717,5,0
432,224,126898,1,0
416,296,127079,1,0
408,312,127169,1,0
392,328,127260,1,0
376,336,127350,1,0
360,336,127441,1,0
304,280,127622,2,0,B|296:232|344:192,1,70
256,176,127984,1,0
256,176,128165,1,0
256,176,128346,1,0
216,112,128527,5,0
208,96,128617,1,0
200,80,128708,1,0
192,64,128798,1,0
184,48,128888,1,0
112,64,129069,1,0
104,80,129160,1,0
96,96,129250,1,0
88,112,129341,1,0
80,128,129431,1,0
72,144,129522,1,0
64,160,129612,5,0
72,240,129793,1,0
104,312,129974,1,0
112,328,130065,1,0
128,336,130155,1,0
144,328,130246,1,0
152,312,130336,1,0
232,312,130517,1,0
304,280,130698,1,0
240,240,130879,1,0
304,200,131060,1,0
368,240,131241,1,0
432,200,131422,5,0
448,192,131512,1,0
456,176,131603,1,0
448,160,131693,1,0
432,152,131784,1,0
432,72,131965,1,0
432,72,132055,1,0
432,72,132146,1,0
368,112,132327,1,0
312,64,132508,5,0
160,64,132870,1,0
160,216,133232,1,0
120,280,133413,1,0
48,256,133594,1,0
48,176,133774,1,0
120,152,133955,5,0
272,152,134317,1,0
368,272,134679,1,0
408,208,134860,1,0
368,272,135041,1,0
288,264,135222,1,0
216,296,135403,5,0
344,168,135765,1,0
216,40,136127,1,0
88,168,136489,2,0,B|0:168,2,70,0|0|8
152,312,137213,5,0
152,160,137575,1,0
232,160,137756,1,0
272,224,137937,1,0
312,160,138118,1,0
352,224,138299,5,0
352,72,138660,1,0
200,72,139022,1,0
120,72,139203,1,0
56,112,139384,1,0
120,160,139565,1,0
56,200,139746,5,0
208,200,140108,1,0
208,352,140470,1,0
288,352,140651,1,0
288,272,140832,1,0
360,304,141013,1,0
360,224,141194,5,0
216,168,141556,1,0
72,224,141918,5,0
216,168,142280,1,0
256,192,142642,12,0,143727
112,112,144089,6,0,B|96:160|128:184,1,70,2|0
184,136,144451,1,0
256,160,144632,1,0
256,160,144723,1,0
256,160,144813,1,0
200,208,144994,1,0
184,280,145175,1,0
248,320,145356,1,0
264,248,145537,1,0
320,296,145718,1,0
336,224,145899,6,0,B|336:176|376:168,1,70,2|0
336,96,146261,2,0,B|280:96|256:136,2,70,2|0|2
416,104,146804,1,0
416,104,146894,1,0
416,104,146985,1,0
464,168,147166,1,0
448,240,147347,2,0,B|448:280|408:296,1,70,2|0
368,232,147709,2,0,B|320:232|304:288,1,70,2|0
352,336,148071,2,0,B|320:352|264:344,1,70,2|0
232,288,148432,5,0
216,216,148613,1,0
160,264,148794,1,0
144,192,148975,1,0
152,152,149066,1,0
168,120,149156,1,0
192,88,149247,1,0
224,64,149337,1,0
264,56,149428,1,0
304,64,149518,1,0
336,88,149609,1,0
360,120,149699,1,0
376,152,149790,1,0
384,192,149880,5,0
336,248,150061,1,0
288,192,150242,1,0
232,248,150423,1,0
232,248,150514,1,0
232,248,150604,1,0
176,192,150785,1,0
136,128,150966,2,0,B|96:128|80:88,1,70,2|0
40,160,151328,6,0,B|48:208|112:208,1,70,2|0
136,264,151690,2,0,B|176:304|136:352,4,70,2|0|2|0|2
160,192,152595,1,0
112,128,152776,2,0,B|168:112|192:48,2,105,2|0|0
416,80,154042,5,0
416,80,154223,5,0
96,304,154585,1,0
448,64,154947,1,0
64,320,155309,1,0
480,48,155671,5,0
456,120,155852,1,0
400,64,156033,1,0
344,112,156214,1,0
344,112,156304,1,0
344,112,156395,1,0
288,64,156576,2,0,B|240:96|272:144,1,70,0|2
312,184,156938,1,0
392,184,157119,2,0,B|408:224|352:264,1,70,2|0
304,280,157481,5,0
232,312,157662,1,0
288,216,157843,1,0
176,272,158023,1,0
272,152,158204,1,0
120,232,158385,1,0
256,88,158566,6,0,B|288:64|352:80,1,70,6|0
400,88,158928,2,0,B|432:64|496:80,1,70,2|0
464,152,159290,2,0,B|432:128|368:144,1,70,2|0
320,152,159652,2,0,B|288:128|224:144,1,70,2|0
176,152,160014,6,0,B|136:176|96:160,2,70,2|0|2
224,208,160557,1,0
224,208,160647,1,0
224,208,160738,1,0
296,232,160919,1,0
240,280,161100,1,0
208,304,161190,1,0
168,312,161281,1,0
128,304,161371,1,0
96,280,161462,5,0
96,200,161643,1,0
160,160,161824,1,0
160,240,162005,1,0
232,120,162186,1,0
232,200,162367,1,0
296,160,162548,1,0
296,80,162729,1,0
360,120,162909,5,0
440,120,163090,1,0
400,184,163271,2,0,B|392:240|336:256,1,70,2|0
304,288,163633,2,0,B|272:320|208:304,3,70,2|0|0|0
168,280,164357,5,0
128,216,164538,1,0
112,144,164719,1,0
104,104,164810,1,0
168,64,164991,1,0
200,80,165081,1,0
264,120,165262,1,0
328,80,165443,1,0
328,80,165533,1,0
328,80,165624,1,0
336,160,165805,6,0,B|336:216|288:240,2,70,2|0|2
336,160,166257,1,0
416,160,166438,1,0
416,160,166529,2,0,B|416:216|464:240,1,70,2|0
384,280,166891,1,0
384,280,166981,1,0
384,280,167072,1,0
312,312,167253,5,0
232,304,167434,1,0
192,296,167524,1,0
160,272,167615,1,0
224,224,167795,2,0,B|248:192|216:144,1,70,0|6
152,184,168157,1,0
152,184,168248,1,0
152,184,168338,1,0
80,152,168519,1,0
104,80,168700,5,0
408,80,169062,1,0
408,304,169424,1,0
104,304,169786,1,0
136,104,171596,6,0,B|96:80|88:24,2,70,12|0|0
112,176,172139,2,0,B|88:200|24:192,2,70,0|0|0
184,192,172682,2,0,B|224:184|256:200,1,70,0|0
320,240,173044,6,0,B|352:264|344:320,2,70,8|0|0
272,176,173586,2,0,B|240:152|248:96,2,70,0|0|0
248,248,174129,2,0,B|232:296|168:280,1,70,0|0
184,208,174491,6,0,B|144:176|160:120,1,70,8|0
232,120,174853,2,0,B|240:72|304:72,1,70
336,128,175215,2,0,B|392:128|384:192,1,70
328,224,175577,2,0,B|320:272|256:272,1,70
208,288,175939,5,0
128,288,176120,1,0
208,288,176301,1,0
208,208,176482,1,0
288,208,176663,1,0
208,208,176844,1,0
208,128,177025,1,0
128,128,177206,1,0
80,192,177387,6,0,B|88:240|152:240,2,70,8|0|0
80,112,177930,2,0,B|96:72|144:80,1,70,8|0
184,136,178291,1,0
208,208,178472,2,0,B|224:248|272:240,1,70
280,320,178834,6,0,B|328:296|368:328,1,70,8|0
408,272,179196,1,0
440,200,179377,2,0,B|424:160|472:120,2,70,8|0|0
360,208,179920,2,0,B|360:152|312:136,1,70
264,112,180282,6,0,B|232:80|232:24,2,70,8|0|0
240,184,180825,2,0,B|264:224|248:264,2,70,8|0|0
176,144,181368,2,0,B|128:120|80:160,1,70
112,216,181730,6,0,B|160:240|208:200,2,70,8|0|0
48,256,182273,1,0
48,176,182454,1,0
48,256,182635,1,0
96,320,182816,2,0,B|144:344|176:304,1,70
208,256,183177,6,0,B|248:224|296:256,1,70,8|0
273,244,183539,1,0
344,216,183720,2,0,B|360:152|328:128,1,70,8|0
343,147,184082,1,0
424,144,184263,2,0,B|408:184|432:224,1,70,8|0
416,288,184625,6,0,B|416:344|472:352,2,70,8|0|0
336,288,185168,2,0,B|336:344|280:352,2,70,8|0|0
376,224,185711,2,0,B|376:176|336:160,1,70,8|0
272,144,186073,5,0
192,144,186254,1,0
112,144,186435,1,0
112,224,186616,2,0,B|40:280,2,70,8|0|0
112,144,187159,1,0
112,64,187340,1,0
192,64,187521,5,0
272,64,187702,1,0
352,64,187882,1,0
352,144,188063,2,0,B|416:208,2,70,8|0|0
272,144,188606,1,0
352,144,188787,1,0
352,224,188968,5,0
208,280,189330,2,0,B|160:280|144:352,1,70,8|2
88,184,189873,1,0
88,104,190054,1,0
240,104,190416,5,0
360,208,190778,2,0,B|376:248|432:248,1,70,8|2
272,304,191321,1,0
192,304,191502,1,0
88,192,191864,5,0
240,192,192225,2,0,B|288:192|320:192,2,70,8|2|0
176,152,192768,1,0
176,232,192949,1,0
328,192,193311,5,0
216,88,193673,2,0,B|176:64|128:104,3,70,8|2|0|2
96,144,194397,1,0
240,200,194759,6,0,B|240:120,1,70,8|0
240,56,195121,1,0
320,200,195302,2,0,B|320:272,1,70,8|0
320,344,195664,1,0
400,200,195845,2,0,B|400:144|344:128,1,70,8|0
296,112,196207,6,0,B|208:112,2,70,8|0|8
296,192,196750,2,0,B|208:192,2,70,8|0|0
376,192,197293,2,0,B|376:248|320:264,1,70,8|0
280,288,197654,6,0,B|208:288,2,70,8|0|8
336,192,198197,2,0,B|408:192,2,70,8|0|0
280,96,198740,2,0,B|208:96,1,70,8|0
152,144,199102,6,0,B|152:224,2,70,8|0|8
304,184,199645,2,0,B|304:112,2,70,8|0|0
456,144,200188,2,0,B|456:224,2,70,8|0|8
184,80,206341,5,0
256,64,206522,1,0
328,80,206702,1,0
336,192,206883,5,0
256,192,207064,1,0
176,192,207245,1,0
216,304,207426,5,0
296,304,207607,1,0
376,304,207788,6,0,B|376:256|328:232,2,70,8|0|8
136,80,208331,2,0,B|136:128|184:152,2,70,8|0|0
256,192,208874,5,0
256,192,209055,1,0
336,192,209236,5,0
376,256,209417,1,0
416,192,209598,1,0
176,192,209779,5,0
136,256,209960,1,0
96,192,210141,1,0
256,64,210322,6,0,B|256:144,1,70,2|0
256,208,210684,2,0,B|256:304,2,70,8|0|8
256,208,211227,2,0,B|256:128,2,70,8|0|0
256,208,211769,2,0,B|256:296,1,70,2|0
320,320,212131,6,0,B|376:328|392:272,1,70,8|0
424,232,212493,1,0
424,152,212674,2,0,B|424:96|368:88,1,70,2|0
320,64,213036,1,0
240,56,213217,2,0,B|184:48|144:72,1,70,8|0
112,112,213579,5,0
72,176,213760,2,0,B|56:232|80:264,1,70,0|8
128,296,214122,1,0
200,328,214303,2,0,B|248:344|304:336,1,70,0|2
344,320,214665,2,0,B|392:320|424:272,1,70,8|0
424,216,215027,6,0,B|424:160|456:144,2,70,8|0|8
88,216,215570,2,0,B|88:160|56:144,2,70,2|0|2
424,216,216113,2,0,B|424:160|456:144,1,70,8|0
408,88,216474,5,0
328,88,216655,1,0
400,152,216836,1,0
272,120,217017,1,0
392,216,217198,1,0
216,152,217379,1,0
384,280,217560,1,0
160,184,217741,1,0
376,344,217922,5,0
224,344,218284,1,0
152,320,218465,1,0
80,344,218646,1,0
80,192,219008,1,0
152,216,219189,1,0
224,192,219370,6,0,B|264:168|240:144,1,35
296,112,219641,2,0,B|320:88|352:112,1,35
344,176,219913,2,0,B|376:248,1,70
224,272,220456,1,0
88,192,220818,5,0
160,160,220999,1,0
160,120,221089,1,0
248,192,221360,1,0
248,192,221541,1,0
320,160,221722,1,0
320,120,221813,1,0
408,192,222084,1,0
408,192,222265,5,0
344,232,222446,1,0
344,272,222537,1,0
248,192,222808,1,0
248,192,222989,1,0
184,232,223170,1,0
184,272,223261,1,0
96,192,223532,1,0
96,192,223713,5,0
208,88,224075,2,0,B|240:56|288:80,2,70
248,240,224799,2,0,B|248:288|296:320,2,70
248,200,225251,1,0
312,160,225432,1,0
352,168,225523,2,0,B|416:184|408:232,1,70
400,288,225885,5,0
112,96,226246,1,0
112,248,226608,5,0
184,96,226789,1,0
184,96,226880,1,0
184,96,226970,1,0
256,248,227151,1,0
256,248,227332,1,0
328,96,227513,1,0
328,96,227604,1,0
328,96,227694,1,0
400,248,227875,1,0
400,248,228056,5,0
328,96,228237,1,0
328,96,228328,1,0
328,96,228418,1,0
256,248,228599,1,0
256,248,228780,1,0
184,96,228961,1,0
184,96,229051,1,0
184,96,229142,1,0
112,248,229323,1,0
112,248,229504,5,0
248,328,229866,2,0,B|304:328|328:288,1,70
344,240,230228,2,0,B|360:192|344:160,2,70
344,240,230680,1,0
344,240,230771,1,0
272,216,230951,2,0,B|240:184|264:144,1,70
312,96,231313,1,0
240,72,231494,1,0
176,112,231675,2,0,B|144:136|144:184,3,70
168,248,232399,5,0
160,256,232490,1,0
152,264,232580,1,0
144,272,232671,1,0
136,280,232761,1,0
256,192,232942,1,0
344,248,233123,5,0
352,256,233214,1,0
360,264,233304,1,0
368,272,233395,1,0
376,280,233485,1,0
256,192,233666,1,0
168,136,233847,5,0
160,128,233938,1,0
152,120,234028,1,0
144,112,234119,1,0
136,104,234209,1,0
256,192,234390,1,0
344,136,234571,5,0
352,128,234662,1,0
360,120,234752,1,0
368,112,234843,1,0
376,104,234933,1,0
256,192,235114,1,0
256,192,235295,1,0
