osu file format v9

[General]
AudioFilename: reichi.mp3
AudioLeadIn: 500
PreviewTime: 49024
Countdown: 0
SampleSet: Normal
StackLeniency: 0.7
Mode: 0
LetterboxInBreaks: 1

[Editor]
Bookmarks: 20224,39574,77974,97174,135564,157014
DistanceSpacing: 1
BeatDivisor: 2
GridSize: 4

[Metadata]
Title:Solar Sect of Mystic Wisdom ~ Nuclear Fusion
Artist:Lyude
Creator:Saten-san
Version:Normal
Source:Touhou
Tags:nuclear fusion utsuho reiuji okuu caution OnosakiHito Nekoo[] Regou

[Difficulty]
HPDrainRate:3
CircleSize:3
OverallDifficulty:3
ApproachRate:6
SliderMultiplier:1.2
SliderTickRate:2

[Events]
//Background and Video events
0,-8,"reiuji_utsuho.jpg"
//Break Periods
2,10806,19156
2,68556,76756
2,126156,134356
//Storyboard Layer 0 (Background)
//Storyboard Layer 1 (Fail)
//Storyboard Layer 2 (Pass)
//Storyboard Layer 3 (Foreground)
Sprite,Foreground,Centre,"SB\White.jpg",320,240 S,0,-2444,,2.024911 C,0,-2444,,0,0,0 F,0,-2444,-44,1 F,0,-44,1006,1,0
Sprite,Foreground,Centre,"SB\White.jpg",320,240 M,0,1006,,320,240 S,0,1006,,2.018078 F,0,1006,1456,0.5251247,0 S,0,49156,,2.018078 F,0,49156,49606,0.7027759,0 F,0,106756,107206,0.7027759,0
Sprite,Foreground,Centre,"SB\epilepsy.png",320,240 F,0,-2444,-1844,0,1 F,0,-1844,-644,1 F,0,-644,-44,1,0
Sprite,Foreground,Centre,"SB\sign1.png",320,240 R,0,7718,,1.052242 F,0,7718,7868,1,0 C,0,7718,7868,255,255,89 R,0,9218,,0 F,0,9218,9368,1,0 C,0,9218,9368,0,0,0 M,0,10606,,320,240 F,0,10606,11056,0.5968683,0 S,0,10606,11056,1,2.735516 R,0,10606,11056,0,3.143061 C,0,10606,11056,255,255,89 S,0,17318,,1 C,0,17318,,255,255,89 F,0,17318,17468,1,0 R,0,44918,,0 F,0,44918,45068,1,0 C,0,44918,45068,255,255,89 R,0,66668,,1.052242 F,0,66668,66818,1,0 C,0,66668,66818,0,0,0 R,0,77018,,0 F,0,77018,77168,1,0 C,0,77018,77168,255,255,89 R,0,88568,,1.052242 F,0,88568,88718,1,0 C,0,88568,88718,0,0,0 R,0,90068,,0 F,0,90068,90218,1,0 C,0,90068,90218,255,255,89 R,0,108218,,1.052242 F,0,108218,108368,1,0 C,0,108218,108368,0,0,0 R,0,123818,,0 F,0,123818,123968,1,0 C,0,123818,123968,255,255,89 R,0,131018,,1.052242 F,0,131018,131168,1,0 C,0,131018,131168,0,0,0 R,0,150968,,0 F,0,150968,151118,1,0 C,0,150968,151118,255,255,89
Sprite,Foreground,Centre,"SB\sign1.png",320,240 S,0,46756,,2.298221 F,0,46756,47056,0,0.1719166 C,0,46756,48856,255,255,255,255,255,89 R,0,46756,49156,0,-2.104484 F,0,47056,48856,0.1719166 F,0,48856,49156,0.1719166,0 S,0,104356,,2.298221 F,0,104356,104656,0,0.1719166 C,0,104356,106456,255,255,255,255,255,89 R,0,104356,106756,0,-2.104484 F,0,104656,106456,0.1719166 F,0,106456,106756,0.1719166,0
Sprite,Foreground,Centre,"SB\CAUTION.png",320,240 F,0,46756,47056,0,1 M,0,46756,48856,1039,111,-399,111 C,0,46756,48856,255,255,255,215,0,0 F,0,47056,47806,1,0.3006406 F,0,47806,48556,0.3006406,1 F,0,48556,48856,1,0 F,0,104356,104656,0,1 M,0,104356,106456,1039,111,-399,111 C,0,104356,106456,255,255,255,215,0,0 F,0,104656,105406,1,0.3006406 F,0,105406,106156,0.3006406,1 F,0,106156,106456,1,0
Sprite,Foreground,Centre,"SB\CAUTION.png",320,240 F,0,46756,47056,0,1 M,0,46756,48856,-399,372,1038,372 C,0,46756,48856,255,255,255,215,0,0 F,0,47056,47806,1,0.3006406 F,0,47806,48556,0.3006406,1 F,0,48556,48856,1,0 F,0,104356,104656,0,1 M,0,104356,106456,-399,372,1038,372 C,0,104356,106456,255,255,255,215,0,0 F,0,104656,105406,1,0.3006406 F,0,105406,106156,0.3006406,1 F,0,106156,106456,1,0
Sprite,Foreground,Centre,"SB\sign1.png",320,240 F,0,48856,49156,0,0.2928114 C,0,48856,58756,255,255,255 F,0,49156,68356,0.2928114 R,0,49156,68356,0,24.11958 C,0,58756,68356,255,255,255,255,255,89 F,0,68356,68956,0.2928114,0 S,0,68356,68956,1,1.785765 R,0,68356,68956,24.11958,31.41695 C,0,68356,68956,255,255,89,215,0,0 S,0,106456,,1 F,0,106456,106756,0,0.2928114 C,0,106456,116356,255,255,255 F,0,106756,125956,0.2928114 R,0,106756,125956,0,24.11958 C,0,116356,125956,255,255,255,255,255,89 F,0,125956,126556,0.2928114,0 S,0,125956,126556,1,1.785765 R,0,125956,126556,24.11958,31.41695 C,0,125956,126556,255,255,89,215,0,0
Sprite,Foreground,Centre,"SB\nuke.png",320,240 M,0,49156,,320,240 S,0,49156,,1.157153 F,0,49156,68356,0.6037011 R,0,49156,68356,0,-7.297368 F,0,68356,68656,0.6037011,0 F,0,106756,125956,0.6037011 R,0,106756,125956,0,-7.297368 F,0,125956,126256,0.6037011,0
//Storyboard Sound Samples
Sample,46756,0,"caution.mp3",70
Sample,104356,0,"caution.mp3",70
//Background Colour Transformations
3,100,163,162,255

[TimingPoints]
1156,300,4,1,1,70,1,0
49156,-100,4,1,1,70,0,1
58718,-100,4,1,1,70,0,0
58756,-100,4,1,1,70,0,1
68356,-100,4,1,1,70,0,0
106756,-100,4,1,1,70,0,1
116318,-100,4,1,1,70,0,0
116356,-100,4,1,1,70,0,1
125956,-100,4,1,1,70,0,0
156931,-100,4,1,0,70,0,0

[Colours]
Combo1 : 255,255,89
Combo2 : 149,0,0
Combo3 : 0,128,128
Combo4 : 255,135,15

[HitObjects]
256,40,1006,2,0,B|328:40|368:84|368:152,1,180,4|0
256,192,1756,2,0,B|136:192,1,120
76,192,2206,2,0,B|76:256|124:304|192:304,1,180
312,304,2956,1,0
452,192,3406,1,4
316,72,3856,6,0,B|196:72,1,120
136,72,4306,2,0,B|136:140|188:176,2,120,4|4|0
196,72,5056,2,0,B|316:72,1,120,8|8
372,88,5506,1,8
396,144,5656,1,8
384,204,5806,6,0,B|372:272|312:300|248:288,1,180,4|0
128,180,6556,2,0,B|140:112|200:84|264:96,2,180
140,300,7756,1,0
312,356,8206,1,4
384,192,8656,6,0,B|376:128|312:104,1,120
252,108,9106,1,4
200,140,9256,1,0
180,196,9406,2,0,B|180:316,1,120,4|0
256,192,9856,12,4,10606
256,348,20206,6,0,B|320:356|376:328|400:264,1,180,4|0
280,264,20956,2,0,B|160:264,2,120
400,264,21856,1,0
400,264,22006,2,0,B|400:144,1,120
372,92,22456,6,0,B|312:100|284:164,1,120,8|4
256,280,23056,1,8
164,356,23356,1,0
44,336,23656,1,8
12,220,23956,2,0,B|12:160|48:100|116:76|192:84|248:124|256:192,1,360,8|8
256,312,25156,6,0,B|300:356|368:340,1,120,4|0
480,300,25756,1,0
500,180,26056,1,0
432,84,26356,2,0,B|376:40|304:60|268:128|296:192,2,240,0|0|4
500,180,27856,1,8
480,300,28156,1,0
368,340,28456,1,8
256,296,28756,6,0,B|224:232|240:168|304:112|384:112|448:160|476:236|440:312|368:340,1,480,8|4
256,296,30256,1,8
184,200,30556,2,0,B|200:140|256:108,2,120,0|8|0
256,296,31456,1,8
328,200,31756,6,0,B|312:140|256:108,2,120,0|8|0
256,296,32656,1,8
136,288,32956,2,0,B|76:256|52:192|76:128|136:96,2,240
204,192,34456,1,8
136,96,34756,6,0,B|16:96,2,120,4|8|0
256,116,35656,1,8
376,96,35956,2,0,B|496:96,2,120,0|8|0
256,116,36856,1,8
164,192,37156,6,0,B|200:252|268:236,2,120,0|8|0
256,116,38056,1,8
348,192,38356,2,0,B|312:252|244:236,2,120,8|8|8
256,116,39256,1,8
256,192,39556,5,4
256,196,40756,5,0
256,200,41956,5,4
256,204,43156,5,0
256,208,44356,6,0,B|200:180|184:112,1,120,4|8
256,20,44956,2,0,B|376:20,1,120,0|8
348,136,45556,2,0,B|316:188|256:208,1,120,0|8
256,88,46156,1,0
152,148,46456,1,8
164,268,46756,38,0,B|200:328|268:312,1,120,0|8
256,192,47356,1,0
367,233,47656,2,0,B|401:172|353:121,1,120,8|0
256,192,48256,1,0
236,74,48556,2,0,B|166:75|146:142,1,120,0|8
256,192,49156,6,0,B|316:216|392:200|424:132|396:72,1,240,4|0
256,192,50356,2,0,B|196:168|120:184|88:252|116:312,1,240
344,240,51556,6,0,B|384:184|360:128,1,120,0|8
256,68,52156,1,0
256,68,52306,2,0,B|248:140|312:164,1,120
359,126,52756,6,0,B|384:184|344:240,1,120,0|8
168,240,53356,2,0,B|128:184|152:126,1,120,0|8
256,68,53956,6,0,B|328:68|380:112|396:180|380:248|328:292|256:292,1,360,4|8
256,182,55156,6,0,B|256:110|300:58|368:42|436:58|480:110|480:182,1,360,0|8
368,192,56356,6,0,B|368:120|324:68|256:52|188:68|144:120|144:192,2,360,0|8|8
256,232,58456,1,8
144,192,58756,6,0,B|96:144|112:80,2,120,4|8|0
256,232,59656,1,8
368,192,59956,6,0,B|416:144|400:80,2,120,0|8|0
256,232,60856,1,8
256,112,61156,6,0,B|304:60|372:56|436:88|444:152,2,240,0|0|4
256,232,62656,1,8
188,136,62956,1,4
300,172,63256,1,8
184,212,63556,6,0,B|116:200|76:140|84:72|148:36,1,240,4|8
328,212,64756,6,0,B|396:200|436:140|428:72|364:36,1,240,8|8
184,212,65956,6,0,B|224:276|288:276|328:212,2,180,8|8|4
256,192,67156,12,4,68356
256,52,77806,6,0,B|196:36|140:64,1,120,4|0
156,124,78256,2,0,B|256:192,1,120
376,192,78856,1,0
496,192,79156,2,0,B|496:256|436:288,1,120
376,292,79606,2,0,B|256:292,1,120
256,292,80056,1,8
136,292,80356,6,0,B|80:256|60:192|80:128|136:92,2,240,4|0|4
256,292,81856,1,8
376,292,82156,2,0,B|432:256|452:192|432:128|376:92,1,240,8|4
256,112,83056,5,8
256,232,83356,2,0,B|320:240|364:192,1,120,0|8
324,148,83806,1,0
308,88,83956,2,0,B|348:40|416:44,1,120
444,96,84406,2,0,B|444:216,1,120
444,216,84856,1,8
412,332,85156,6,0,B|368:372|324:372|304:320|304:280|256:260|208:280|208:320|188:372|144:372|100:332,1,360,4|0
88,212,86356,1,8
196,156,86656,1,8
316,156,86956,1,8
424,212,87256,1,4
344,300,87556,6,0,B|276:296|256:232,2,120,4|8|0
256,380,88456,1,8
168,300,88756,2,0,B|236:296|256:232,2,120,0|8|0
112,192,89656,1,8
212,128,89956,6,0,B|272:140|308:72|308:72|348:120|420:104,1,240
500,192,90856,1,8
417,279,91156,2,0,B|348:264|308:312|308:312|272:244|212:256,1,240
112,192,92056,1,8
104,312,92356,6,0,B|152:352|216:344,1,120,4|8
256,232,92956,1,0
256,112,93256,1,8
256,112,93406,2,0,B|308:80|372:100,2,120
256,232,94306,5,0
256,232,94456,2,0,B|308:264|372:244,2,120,8|0|8
152,172,95356,1,0
188,56,95656,1,8
308,52,95956,2,0,B|384:40|404:104|404:104|472:108|478:181|478:181|532:216|512:288,1,360,8|8
400,336,97156,5,4
356,316,98356,5,0
332,276,99556,5,4
332,228,100756,5,0
336,180,101956,6,0,B|384:136|448:156,1,120,4|8
400,268,102556,2,0,B|356:316|292:312,1,120,0|8
176,280,103156,6,0,B|108:256|80:192|108:128|176:104,1,240
256,192,104056,1,0
336,280,104356,6,0,B|404:256|432:192|404:128|336:104,1,240
256,192,105256,1,8
176,280,105556,6,0,B|108:256|80:192|108:128|176:104,1,240,8|0
256,192,106456,1,12
256,312,106756,6,0,B|208:360|140:372|76:344|52:288,1,240,4|0
255,71,107956,2,0,B|208:24|140:12|76:40|52:94,1,240
256,192,109156,6,0,B|316:184|352:128,2,120,0|8|0
256,192,109906,1,0
256,312,110206,1,0
256,312,110356,2,0,B|196:304|159:247,2,120,0|8|0
376,296,111256,1,8
436,192,111556,6,0,B|396:140|328:168|328:168|292:112|224:128,1,240,4|0
120,192,112456,1,8
223,255,112756,2,0,B|292:272|328:216|328:216|396:244|436:192,1,240
376,88,113656,1,8
256,72,113956,6,0,B|192:76|156:128|156:128|92:128,2,180,0|0|8
256,192,115156,2,0,B|312:216|388:192|424:128|400:68,1,240,8|0
256,192,116356,6,0,B|256:256|312:292,2,120,4|8|0
284,140,117106,1,0
336,112,117256,1,8
200,92,117556,6,0,B|200:156|256:192,2,120,0|8|0
228,40,118306,1,0
280,12,118456,1,8
336,112,118756,6,0,B|364:168|328:228,1,120,0|8
256,324,119356,1,0
256,324,119506,2,0,B|196:304|180:236,1,120
220,192,119956,2,0,B|340:192,1,120,4|8
256,104,120556,2,0,B|136:104,1,120,4|8
52,192,121156,6,0,B|76:256|148:240|148:240|188:292|256:264,1,240,4|8
256,144,122056,1,8
255,263,122356,6,0,B|324:292|364:240|364:240|436:256|460:192,1,240,8|8
376,104,123256,1,8
256,120,123556,6,0,B|192:160|192:224|256:264,2,180,8|8|4
256,192,124756,12,4,125956
80,192,135406,6,0,B|80:252|80:252|108:304,1,120,4|0
156,268,135856,2,0,B|156:148,1,120
156,148,136456,1,0
256,84,136756,2,0,B|312:48|372:72|372:72|400:128|472:120,1,240
376,192,137656,1,8
256,192,137956,6,0,B|184:204|192:276|192:276|124:308|140:372,1,240,4|0
256,344,138856,1,8
371,372,139156,2,0,B|388:308|320:276|320:276|328:204|256:192,1,240,8|8
256,312,140056,1,4
360,256,140356,6,0,B|408:208|408:152|360:128|304:128|304:56,1,240,4|0
420,28,141256,1,0
436,148,141556,2,0,B|396:200|320:208|264:168|256:100,1,240
256,220,142456,1,8
256,100,142756,6,0,B|248:168|192:208|116:200|76:148,2,240,4|0|8
148,52,144256,1,8
76,148,144556,2,0,B|76:268,1,120,8|12
192,296,145156,6,0,B|264:312|312:276|316:192|256:192|196:192|200:108|248:72|320:88,1,360,4|8
348,100,146206,1,0
360,128,146356,2,0,B|376:200|340:248|256:252|256:192|256:132|172:136|136:184|152:256,1,360,0|8
256,312,147556,6,0,B|308:344|368:304|368:304|412:348|480:308,2,240,0|0|0
256,192,149056,1,8
256,72,149356,2,0,B|204:40|144:80|144:80|100:36|32:76,1,240,0|4
64,192,150256,5,8
176,152,150556,2,0,B|244:132|256:72,1,120,0|8
256,71,151006,1,0
256,71,151156,1,0
140,44,151456,1,8
140,44,151606,2,0,B|20:44,1,120
20,44,152056,1,8
36,164,152356,6,0,B|60:228|132:208|164:180|156:124|216:124|204:176|228:200|320:200|344:128,1,360,0|8
256,44,153556,2,8,B|200:16|132:24|88:72,2,180,8|8|0
256,192,154756,12,4,157006
