osu file format v6

[General]
AudioFilename: undermoon.mp3
AudioLeadIn: 993
PreviewTime: 106834
Countdown: 0
SampleSet: Soft
StackLeniency: 0.4
Mode: 0
LetterboxInBreaks: 1

[Editor]
DistanceSpacing: 1
BeatDivisor: 4
GridSize: 8

[Metadata]
Title:Under the Red Moon
Artist:Lyrical Crimson
Creator:Aakiha
Version:Hard
Source:Touhou
Tags:Frandle

[Difficulty]
HPDrainRate:6
CircleSize:5
OverallDifficulty:7
SliderMultiplier:1.4
SliderTickRate:2

[Events]
//Background and Video events
0,0,"29.jpg"
//Break Periods
2,16034,29534
2,119834,125534
2,177434,189534
//Storyboard Layer 0 (Background)
//Storyboard Layer 1 (Fail)
//Storyboard Layer 2 (Pass)
//Storyboard Layer 3 (Foreground)
//Storyboard Sound Samples
//Background Colour Transformations
3,100,0,0,0

[TimingPoints]
1634,400,4,2,1,60,1,0
93434,-100,4,2,1,0,0,0
93834,-100,4,2,1,72,0,0
106734,-100,4,2,1,79,0,0
119638,-100,4,2,1,100,0,0
126434,-200,4,2,1,31,0,0
139034,-200,4,2,1,80,0,0
151934,-100,4,2,1,74,0,0
177238,-100,4,2,1,100,0,0
228438,-100,4,2,1,100,0,0
297238,-100,4,2,1,100,0,0
324438,-100,4,2,1,100,0,0
324438,-100,4,2,1,100,0,0

[Colours]
Combo1 : 0,255,0
Combo2 : 0,128,192
Combo3 : 255,128,0
Combo4 : 255,0,128

[HitObjects]
208,80,10034,6,2,B|240:48,12,35,2|2|2|2|2|2|2|2|2|2|2|2|6
208,80,11534,1,4
208,80,11834,1,4
224,152,12034,6,2,B|264:192,12,35,2|2|2|2|2|2|2|2|2|2|2|2|6
224,152,13534,1,4
224,152,13834,1,4
176,104,14034,6,2,B|128:128,12,35,2|2|2|2|2|2|2|2|2|2|2|2|6
176,104,15534,1,4
176,104,15834,1,4
48,160,30434,5,0
184,160,30834,1,8
312,104,31234,1,0
352,160,31434,1,0
328,224,31634,1,8
208,296,32034,5,0
208,296,32434,1,8
208,160,32834,1,0
208,88,33034,1,0
208,24,33234,1,8
344,32,33634,5,0
344,168,34034,1,8
400,296,34434,1,0
344,336,34634,1,0
288,296,34834,1,8
160,248,35234,6,0,B|112:192|152:96,1,140,0|8
264,40,36034,1,0
320,88,36234,1,0
320,160,36434,1,8
248,280,36834,6,0,B|184:248|168:168,1,140,0|8
208,32,37634,2,0,B|240:56|256:96,1,70
256,152,38034,1,8
192,280,38434,5,0
120,160,38834,1,8
208,48,39234,2,0,B|280:48,2,70,0|0|8
160,184,40034,5,0
160,184,40234,1,0
216,144,40434,1,8
216,144,40634,1,0
264,192,40834,1,0
264,192,41034,1,0
336,192,41234,1,8
336,192,41434,1,0
256,208,41734,12,4,42834
88,240,43234,5,0
128,104,43634,1,8
176,56,43834,1,0
312,24,44234,2,0,B|360:24|384:80,1,70,0|8
400,120,44634,1,0
384,256,45034,2,0,B|384:304|344:312,2,70,0|8|0
376,184,45634,1,0
336,128,45834,1,0
272,96,46034,1,8
136,64,46434,5,0
88,192,46834,2,0,B|64:224|80:280,1,70,8|0
176,352,47434,1,0
232,312,47634,1,8
224,240,47834,1,0
240,104,48234,5,0
200,160,48434,1,8
136,128,48634,1,0
200,160,48834,1,0
168,224,49034,1,0
200,160,49234,1,8
264,192,49434,1,0
304,248,49634,5,0
345,151,50034,2,0,B|328:116|262:136,1,70,8|0
172,151,50634,1,0
172,151,50834,1,8
172,151,51034,1,0
172,151,51434,2,0,B|136:160|124:203,2,70,0|8|0
232,120,52034,1,0
304,112,52234,1,0
368,136,52434,1,8
408,272,52834,5,0
272,312,53234,1,8
224,264,53434,1,0
176,128,53834,2,0,B|176:80|240:72,1,70,0|8
288,64,54234,1,0
376,176,54634,1,0
376,248,54834,2,0,B|312:248,2,35,8|0|0
360,320,55234,2,0,B|328:344|272:288,2,70,0|0|8
440,208,56034,5,4
376,88,56434,1,8
320,48,56634,1,0
184,88,57034,2,0,B|147:105|185:148,1,70,0|8
224,200,57434,1,0
328,296,57834,2,0,B|354:324|427:313,1,70,0|8
456,288,58234,1,0
480,224,58434,1,0
456,288,58634,1,0
480,224,58834,1,8
464,88,59234,6,0,B|448:32|392:32,1,70
352,48,59634,1,8
288,80,59834,1,0
168,152,60234,2,0,B|104:112,2,70,0|8|0
144,288,61034,1,0
192,336,61234,1,8
264,344,61434,1,0
320,304,61634,2,0,B|390:242,3,70,0|0|8|8
344,192,62434,5,0
208,184,62834,1,8
272,216,63034,1,0
384,296,63434,2,0,B|320:360,2,70,0|8|0
384,296,64234,2,0,B|384:200,2,70,0|8|0
320,264,64834,1,0
256,232,65034,1,0
192,200,65234,1,8
56,200,65634,6,0,B|24:264,2,70,0|0|8
88,136,66234,1,0
192,40,66634,2,0,B|240:32|288:72,1,70,0|8
320,88,67034,1,0
360,144,67234,1,0
304,184,67434,1,0
360,144,67634,1,8
400,200,67834,1,0
360,144,68034,1,0
416,104,68234,1,0
360,144,68434,2,8,B|360:96,2,35,8|0|8
288,152,68834,5,0
192,48,69234,2,0,B|196:17|132:17,1,70,0|0
24,96,69834,1,0
24,96,70034,1,0
24,96,70234,1,0
48,160,70434,2,0,B|48:200|120:200,1,70
168,200,70834,2,0,B|216:200|232:152,1,70
256,104,71234,2,0,B|280:56|248:24,1,70
192,32,71634,2,0,B|168:64|192:112,1,70,0|0
208,168,72034,5,0
312,72,72434,1,0
312,72,72634,1,0
408,168,73034,1,0
408,304,73434,1,0
272,328,73834,1,0
208,312,74034,1,0
168,256,74234,1,0
136,120,74634,2,0,B|141:95|72:134,1,70
32,184,75034,1,2
32,256,75234,6,0,B|64:280|104:256,1,70
160,224,75634,2,0,B|184:184|160:128,1,70
152,88,76034,1,0
96,48,76234,1,0
32,72,76434,2,0,B|48:112|88:120,1,70
144,144,76834,5,0
144,144,77034,1,0
216,144,77234,2,0,B|312:144,1,70
352,144,77634,1,0
408,192,77834,1,0
400,264,78034,1,0
336,296,78234,1,0
272,280,78434,5,0
176,176,78834,1,0
336,40,79434,1,0
416,160,79834,1,0
304,248,80234,1,0
240,224,80434,1,0
208,160,80634,1,0
192,24,81034,2,0,B|195:-11|269:33,1,70
304,64,81434,1,2
352,120,81634,5,0
304,168,81834,1,0
352,224,82034,1,0
304,168,82234,1,0
256,224,82434,1,0
304,168,82634,1,0
256,120,82834,1,0
304,168,83034,1,0
296,240,83234,2,0,B|281:264|264:304,1,70
224,248,83634,2,0,B|140:244,1,70
184,184,84034,2,0,B|96:128,1,70
184,112,84434,2,0,B|152:48,1,70
224,48,84834,5,0
296,48,85034,2,0,B|328:24|373:48,2,70
256,104,85634,1,0
296,160,85834,2,0,B|328:184|377:159,2,70
256,104,86434,1,0
304,56,86634,2,0,B|336:24|368:56,1,70
408,104,87034,1,0
408,104,87234,2,0,B|332:105,2,70,0|0|0
272,144,88034,6,0,B|335:87,1,70
344,160,88434,2,0,B|396:208,1,70
336,248,88834,2,0,B|278:301,1,70
264,232,89234,2,0,B|202:169,1,70
280,160,89634,6,0,B|376:160,1,70
312,96,90034,2,0,B|312:24,1,70
248,48,90434,2,0,B|160:48,1,70,0|0
208,112,90834,2,0,B|208:208,1,70
256,232,91234,5,0
360,136,91634,1,0
360,136,91834,1,0
256,208,92034,12,0,93634
80,56,94034,5,0
64,192,94434,2,0,B|72:232|112:248,1,70
106,245,94834,1,0
168,280,95034,1,0
168,280,95234,2,0,B|240:304|312:248,1,140
352,208,95834,5,0
368,176,95934,1,0
384,144,96034,2,0,B|384:96|280:40,1,140
224,40,96634,1,0
160,72,96834,2,0,B|128:56|136:208,1,140
232,296,97634,6,0,B|288:280|288:224,1,70
216,224,98034,2,0,B|208:176|160:168,1,70
152,240,98434,2,0,B|112:240|96:288,1,70
168,304,98834,2,0,B|184:336|224:344,1,70
280,304,99234,5,0
344,272,99434,1,0
392,224,99634,1,0
424,160,99834,1,0
432,88,100034,2,0,B|376:32|296:56,1,140
240,88,100634,1,0
176,112,100834,6,0,B|128:112|112:64,1,70
168,32,101234,1,0
232,56,101434,1,0
280,104,101634,2,0,B|320:168|272:240,1,140
152,304,102434,2,0,B|120:272|152:168,1,140
216,136,103034,1,0
216,208,103234,2,0,B|184:248|104:120,1,140
200,24,104034,6,0,B|144:88,1,70
224,104,104434,2,0,B|280:160,1,70
216,192,104834,2,0,B|168:248,1,70
224,288,105234,2,0,B|288:344,1,70
336,288,105634,5,0
288,240,105834,1,0
344,192,106034,1,0
296,144,106234,1,0
256,88,106434,2,0,B|208:40|120:80,1,140
152,144,107034,5,0
208,104,107234,2,0,B|304:48|360:88,1,140
360,144,107834,1,0
360,216,108034,2,0,B|288:240|216:168,1,140,0|8
200,128,108634,1,0
192,96,108734,1,0
216,72,108834,2,0,B|256:48|280:40|352:80,1,140
400,128,109434,1,0
408,200,109634,2,0,B|376:264|288:264,1,140,0|8
152,240,110434,5,0
104,184,110634,1,0
120,120,110834,1,8
160,64,111034,1,0
224,32,111234,2,0,B|256:64|224:107,2,70,0|0|8
160,64,111834,1,0
120,120,112034,5,0
96,184,112234,1,0
152,232,112434,1,8
224,232,112634,1,0
224,232,112834,1,0
288,104,113234,5,8
336,48,113434,1,0
376,112,113634,2,0,B|376:256,1,140,0|8
328,304,114234,1,0
256,312,114434,1,0
128,256,114834,2,0,B|88:216|136:168,1,70,8|0
160,136,115234,2,0,B|200:96|248:80|304:104,1,140,0|8
352,128,115834,1,0
392,184,116034,1,0
280,104,116434,5,8
200,104,116634,1,0
192,176,116834,1,0
224,240,117034,1,0
288,264,117234,1,8
336,216,117434,1,0
344,144,117634,1,0
296,88,117834,1,0
240,40,118034,1,8
168,40,118234,1,8
256,208,118434,12,4,119634
104,64,126434,6,2,B|88:168|152:216,1,140
168,256,127634,1,2
232,280,128034,2,2,B|304:288|336:192,1,140
344,56,129634,1,2
208,56,130434,1,2
96,144,131234,1,2
208,224,132034,1,2
344,200,132834,6,2,B|416:112,2,105
288,248,134434,2,2,B|240:280|184:280|144:256,1,140
96,136,136034,1,2
216,64,136834,1,2
352,96,137634,1,2
400,224,138434,1,2
336,96,139234,6,2,B|264:48|184:72,1,140
136,88,140434,1,0
88,136,140834,2,2,B|24:184|56:264,1,140
104,312,142034,1,0
176,312,142434,6,0,B|248:280,1,70,2|0
239,283,143234,2,0,B|304:248,1,70,2|0
301,249,144034,2,2,B|368:200|360:128,1,140
240,64,145634,6,2,B|152:72|128:144,1,140
104,200,146834,1,0
128,264,147234,2,2,B|184:296|264:240,1,140
352,144,148834,2,2,B|312:80|216:96,1,140
176,144,150034,1,0
232,184,150434,2,2,B|304:176|344:96,1,140
392,96,151534,5,2
392,16,151834,1,2
392,16,152034,5,0
232,96,152434,1,8
288,56,152634,1,0
392,152,153034,1,0
336,200,153234,1,8
264,192,153434,1,0
256,56,153834,2,0,B|296:32|344:64,1,70,0|8
368,112,154234,1,0
320,168,154434,2,0,B|277:171|294:114,1,70
328,56,154834,1,8
224,152,155234,5,0
112,232,155634,1,8
112,232,155834,1,0
152,96,156234,2,0,B|155:69|210:53,2,70,0|8|0
208,224,157034,1,0
272,256,157234,1,8
336,224,157434,1,0
384,176,157634,2,0,B|416:152|432:96,1,70
423,119,158034,2,8,B|432:72|416:48,1,70
352,24,158434,5,0
224,88,158834,1,8
224,160,159034,1,0
152,280,159434,2,0,B|114:300|119:342,2,70,0|8|0
280,336,160234,2,0,B|282:277|220:279,2,70,0|8|0
208,344,160834,1,0
208,272,161034,1,0
208,200,161234,1,8
208,64,161634,5,0
336,120,162034,1,8
384,176,162234,1,0
296,280,162634,1,0
232,248,162834,1,8
176,208,163034,1,0
192,72,163434,2,0,B|209:16|274:27,2,70,0|8|0
248,112,164034,1,0
184,144,164234,1,0
128,104,164434,1,8
56,224,164834,5,0
184,280,165234,1,8
240,240,165434,1,0
328,128,165834,1,0
264,96,166034,1,8
200,120,166234,1,0
80,184,166634,2,8,B|64:224|96:248,1,70,0|8
72,312,167034,1,0
144,304,167234,1,0
160,232,167434,1,0
96,248,167634,1,8
120,112,168034,5,0
256,112,168434,2,0,B|216:88|173:111,1,70,8|0
320,64,169034,1,0
336,128,169234,1,8
296,184,169434,1,0
184,104,169834,1,0
184,176,170034,1,8
120,144,170234,1,0
80,88,170434,2,0,L|72:80|48:56,2,35
48,152,170834,1,8
48,152,171034,1,0
80,216,171234,5,0
208,272,171634,1,8
264,224,171834,1,0
312,96,172234,2,0,B|264:88|248:128,2,70,0|8|0
328,168,172834,2,0,B|360:200|405:168,1,70
384,104,173234,2,0,B|424:80|408:32,1,70,8|0
344,56,173634,1,0
320,120,173834,1,0
384,104,174034,1,8
248,104,174434,5,0
232,240,174834,2,0,B|264:272|296:208,1,70,8|0
184,128,175434,2,0,B|152:160|184:192,2,70,0|8|8
256,208,176234,12,4,177234
256,192,190434,6,0,B|216:152|240:96,1,70
256,192,190834,2,0,B|296:160|336:176,1,70
256,192,191234,2,0,B|288:248|256:272,1,70
256,192,191634,2,0,B|200:224|176:184,1,70
168,128,192034,6,0,B|216:48|304:96,1,140
264,152,192634,1,0
264,224,192834,2,0,B|208:296|128:200,1,140
184,160,193434,1,0
256,192,193634,5,0
216,248,193834,1,0
256,192,194034,1,0
184,184,194234,1,0
256,192,194434,1,0
224,128,194634,1,0
256,192,194834,1,0
288,128,195034,1,0
256,192,195234,1,0
328,192,195434,1,0
256,192,195634,1,0
296,248,195834,1,0
256,192,196034,1,0
216,248,196234,1,0
256,192,196434,1,0
256,192,196834,5,0
328,192,197034,2,0,L|424:192,1,70
256,192,197434,1,0
256,264,197634,2,0,L|256:360,1,70
256,192,198034,1,0
184,192,198234,2,0,L|88:192,1,70
256,192,198634,1,0
256,120,198834,2,0,L|256:24,1,70
256,192,199234,1,0
256,192,199434,1,0
256,192,199634,1,0
256,96,200034,5,0
224,192,200434,1,0
288,192,200634,1,0
256,208,201034,12,0,202234
