osu file format v5

[General]
AudioFilename: no princess.ogg
AudioLeadIn: 0
PreviewTime: -1
Countdown: 1
SampleSet: Soft
StackLeniency: 0.7
Mode: 0
LetterboxInBreaks: 1
EditorBookmarks: 6808,64225

[Metadata]
Title:No Princess
Artist:Lynn
Creator:Skyripper
Version:Medium
Source:In the Groove
Tags:ITG, ITG2

[Difficulty]
HPDrainRate:4
CircleSize:3
OverallDifficulty:3
SliderMultiplier:1.8
SliderTickRate:2

[Events]
//Background and Video events
0,0,"No Princess-bg.png"
//Break Periods
2,49105,50657
2,53360,53636
2,56765,57040
2,59956,63210
2,91658,93210
2,99318,99593
//Storyboard Layer 0 (Background)
//Storyboard Layer 1 (Failing)
//Storyboard Layer 2 (Passing)
//Storyboard Layer 3 (Foreground)
//Storyboard Sound Samples
//Background Colour Transformations
3,100,163,162,255

[TimingPoints]
-14,425.531914893617,4,2,0,100,1,0

[Colours]
Combo1 : 255,255,174
Combo2 : 251,181,181
Combo3 : 155,150,250
Combo4 : 145,200,200

[HitObjects]
56,64,6794,2,0,B|240:64,1,180,0|8
400,72,7645,2,0,B|400:264,1,180,0|8
240,248,8496,2,0,B|56:248,1,180,0|8
64,88,9347,2,0,B|272:88,1,180,0|8
328,88,9986,1,0
408,88,10198,1,0
408,248,10624,2,8,B|208:248,1,180,8|0
64,248,11475,1,8
64,168,11688,1,0
144,168,11900,2,0,B|336:168,1,180,0|8
328,248,12539,1,4
328,328,12751,1,4
168,328,13177,5,2
328,328,13603,1,0
328,208,13922,1,0
448,208,14241,1,2
448,288,14454,1,2
424,72,15305,6,0,B|424:144|344:144,1,90,0|0
296,144,15730,2,0,B|296:224|232:224,1,90,8|0
176,224,16156,2,0,B|176:296|88:296,1,90,0|0
48,296,16581,1,8
48,216,16794,1,0
48,136,17007,1,0
168,136,17326,1,8
288,136,17645,1,4
256,320,18496,5,0
336,320,18709,2,0,B|336:216,1,90,0|0
416,232,19134,2,0,B|416:120,1,90,8|0
336,144,19560,2,0,B|232:144,1,90,0|0
160,144,19986,1,8
160,224,20198,1,0
240,224,20411,1,0
360,224,20730,1,8
480,224,21049,1,4
152,224,21900,5,0
152,144,22113,1,0
232,144,22326,1,0
312,144,22539,2,0,B|408:144,2,90,8|0|0
312,224,23177,2,0,B|192:224,1,90,0|8
224,304,23603,1,0
304,304,23815,2,0,B|440:304|432:168,1,180,0|8
432,128,24454,1,4
64,304,25517,6,0,B|64:200,1,90,0|0
144,216,25943,2,0,B|240:216,1,90,8|0
312,216,26368,2,0,B|312:96,1,90,0|0
232,128,26794,2,0,B|136:128,1,90,8|0
56,128,27220,1,0
56,248,27539,1,8
176,248,27858,2,0,B|392:248,1,180,0|4
440,248,28496,1,12
440,88,28922,6,0,B|320:88,5,90,0|0|8|0|0|0
264,88,30198,1,8
184,88,30411,1,0
184,168,30624,1,0
304,168,30943,1,8
424,168,31262,1,4
128,304,32113,6,0,B|240:304,5,90,0|0|0|8|0|0
376,304,33603,1,8
376,224,33815,1,0
376,144,34028,2,0,B|264:144,3,90,0|0|8|4
64,40,35730,6,0,B|64:112|144:112,1,90,0|0
112,189,36156,1,8
192,192,36368,2,0,B|328:192|328:304,1,180,0|0
408,280,37007,1,8
408,200,37220,2,0,B|408:80|264:80,1,180
216,80,37858,2,8,B|88:80,1,90,8|0
144,320,38709,5,8
224,320,38922,1,0
304,320,39134,2,8,B|304:208,1,90,0|0
384,232,39560,1,8
464,232,39773,2,8,B|464:104,1,90,0|0
304,144,40411,1,8
144,144,40837,1,0
144,224,41049,1,0
224,224,41262,1,8
248,304,41475,2,0,B|368:304,3,90,0|0|0|8
360,224,42326,5,0
360,144,42539,2,0,B|224:144,1,90,0|0
184,144,42964,1,8
184,64,43177,2,0,B|376:64,1,180,0|0
448,64,43815,1,8
448,144,44028,2,0,B|448:344,1,180,0|0
368,328,44666,1,8
288,328,44879,1,4
80,192,45517,6,0,B|208:192,1,90,8|0
168,272,45943,1,0
328,272,46368,2,0,B|328:80,1,180,8|0
488,96,47220,1,8
488,176,47432,2,0,B|488:280,1,90
368,264,47964,2,0,B|200:264,1,135,8|0
152,264,48496,2,0,B|152:144,2,90,0|4|12
432,80,52113,5,0
432,160,52326,1,0
432,240,52539,1,0
352,240,52751,2,6,B|128:240,1,180
256,192,55092,12,4,56581
352,192,58496,5,0
272,192,58709,1,0
272,272,58922,1,0
192,272,59134,1,0
112,272,59347,2,6,B|112:80,1,180
416,80,64666,5,0
416,160,64879,1,0
336,160,65092,1,8
256,160,65305,2,8,B|256:296|128:296,1,180,0|0
81,293,65943,1,8
80,212,66156,2,8,B|80:12,1,180,0|0
160,32,66794,2,0,B|160:112|232:112,1,90,8|0
344,192,67645,5,8
264,192,67858,1,0
184,192,68071,2,8,B|56:192,1,90,0|0
96,112,68496,1,8
96,192,68709,1,0
96,272,68922,1,0
256,272,69347,1,8
416,272,69773,1,0
416,192,69986,2,8,B|416:96,1,90,0|8
336,104,70411,2,0,B|176:200,1,180,0|4
56,304,71475,6,8,B|56:232|128:232,1,90,0|0
144,304,71900,1,8
224,304,72113,2,8,B|224:184|344:184,1,180,2|0
328,264,72751,1,8
408,264,72964,2,0,B|408:80,1,180,0|0
328,80,73603,1,8
248,80,73815,1,4
88,264,74454,6,0,B|88:128,2,90,8|0|0
248,264,75305,1,8
408,264,75730,1,0
408,104,76156,1,8
328,104,76368,2,0,B|232:104,1,90
112,104,76900,1,8
112,224,77220,2,0,B|224:224,1,90
280,224,77645,1,8
360,224,77858,1,12
200,224,78283,5,0
200,144,78496,1,2
280,144,78709,1,0
360,144,78922,1,6
360,304,79347,1,2
280,304,79560,1,0
200,304,79773,1,6
40,304,80198,1,2
40,224,80411,1,0
40,144,80624,1,6
280,144,81262,5,0
360,144,81475,1,0
360,224,81688,2,8,B|472:224,1,90
448,144,82113,1,0
448,64,82326,1,8
368,64,82539,1,8
208,64,82964,1,4
208,224,83390,1,8
288,224,83603,1,0
288,304,83815,1,8
208,304,84028,2,0,B|16:304,1,180,0|4
24,144,84879,5,0
104,144,85092,1,12
184,144,85305,1,0
264,144,85517,1,4
344,144,85730,2,8,B|344:344,1,180,8|8
264,328,86368,2,0,B|264:208,1,90,0|8
264,72,87007,1,0
344,72,87220,1,8
424,72,87432,1,4
176,72,88071,5,0
176,152,88283,1,0
176,232,88496,1,4
336,232,88922,1,12
496,232,89347,1,4
496,152,89560,1,0
416,152,89773,1,4
336,152,89986,2,8,L|336:48,1,90,8|12
216,64,90517,1,4
216,184,90837,1,12
216,264,91049,1,0
296,264,91262,2,12,L|392:264,1,90
256,192,94666,12,4,96581
416,80,97645,6,6,L|232:80,1,180
152,80,98283,1,0
152,160,98496,1,0
152,240,98709,2,6,L|344:240,1,180
256,192,101049,12,4,102964
64,72,103390,5,6
224,72,103815,1,6
384,72,104241,1,6
384,232,104666,1,6
264,232,104986,1,2
144,232,105305,1,8
144,152,105517,1,12
