osu file format v5

[General]
AudioFilename: no princess.ogg
AudioLeadIn: 0
PreviewTime: -1
Countdown: 1
SampleSet: Soft
StackLeniency: 0.7
Mode: 0
LetterboxInBreaks: 1
EditorBookmarks: 6808,64225

[Metadata]
Title:No Princess
Artist:Lynn
Creator:Skyripper
Version:Expert
Source:In the Groove
Tags:ITG, ITG2

[Difficulty]
HPDrainRate:7
CircleSize:4
OverallDifficulty:6
SliderMultiplier:1.7
SliderTickRate:2

[Events]
//Background and Video events
0,0,"No Princess-bg.png"
//Break Periods
//Storyboard Layer 0 (Background)
//Storyboard Layer 1 (Failing)
//Storyboard Layer 2 (Passing)
//Storyboard Layer 3 (Foreground)
//Storyboard Sound Samples
//Background Colour Transformations
3,100,163,162,255

[TimingPoints]
-14,425.531914893617,4,2,0,100,1,0

[Colours]
Combo1 : 255,255,174
Combo2 : 251,181,181
Combo3 : 155,150,250
Combo4 : 145,200,200

[HitObjects]
52,81,6794,1,0
120,48,7007,1,0
184,80,7220,1,0
120,120,7432,1,0
184,152,7645,1,0
248,120,7858,1,0
248,192,8071,2,6,B|248:280|376:280,1,170,8|0
368,208,8709,5,0
368,136,8922,1,0
368,136,9134,1,0
440,136,9347,1,0
440,208,9560,1,0
440,280,9773,2,10,B|320:280|320:384,1,170,8|0
168,368,10624,1,0
168,216,11049,1,8
168,64,11475,1,0
240,64,11688,1,8
312,64,11900,1,8
312,176,12220,5,2
208,216,12539,1,0
136,216,12751,1,6
24,216,13071,2,0,B|24:72,1,127.5,0|8
96,88,13603,2,0,B|256:88,1,127.5
224,200,14241,1,12
224,200,14454,1,12
400,64,15305,5,0
400,176,15624,2,8,B|400:240|280:240,1,127.5,0|8
229,240,16156,1,0
152,240,16368,1,8
152,168,16581,1,8
152,312,17007,1,0
264,312,17326,2,0,B|360:312|360:232,1,127.5,0|8
360,96,18071,1,8
360,96,18283,1,8
208,96,18709,5,0
136,96,18922,1,0
136,168,19134,1,8
208,168,19347,1,0
136,168,19560,1,0
136,240,19773,1,8
136,312,19986,2,0,B|228:312,1,85,0|8
296,312,20411,1,8
408,312,20730,1,0
408,200,21049,2,0,B|408:80|280:80,1,170,0|8
240,80,21688,1,8
232,248,22113,5,0
232,248,22326,1,0
232,320,22539,1,8
160,320,22751,1,0
160,248,22964,1,0
160,248,23177,1,0
88,248,23390,1,8
88,176,23603,1,0
160,176,23815,2,0,B|205:176|205:109|277:109,1,127.5,0|8
376,104,24454,1,8
424,248,24879,2,0,B|368:320|312:248,1,127.5,8|8
216,256,25517,5,0
144,256,25730,1,0
72,256,25943,2,2,L|24:256|24:192,1,85
24,144,26368,2,8,L|24:96|64:96,1,85
136,96,26794,1,0
208,96,27007,1,0
280,96,27220,1,6
392,96,27539,1,6
392,208,27858,2,2,B|392:312|240:312,1,170,2|10
208,312,28496,1,10
200,160,28922,5,0
272,160,29134,1,0
272,160,29241,1,0
272,160,29347,1,8
344,160,29560,1,0
344,160,29666,1,0
344,160,29773,1,0
344,232,29986,1,0
344,232,30092,1,0
344,232,30198,1,8
344,304,30411,1,0
344,232,30624,2,0,L|344:128|344:88,1,127.5,0|8
456,104,31262,2,0,B|456:240|456:280,1,170,0|8
454,345,31900,1,8
248,344,32326,5,0
176,344,32539,1,0
176,344,32645,1,0
176,344,32751,1,8
176,272,32964,1,0
176,272,33071,1,0
176,272,33177,1,0
104,272,33390,1,0
104,272,33496,1,0
104,272,33603,1,8
136,208,33815,1,0
168,144,34028,1,0
216,200,34241,1,0
248,264,34454,1,0
296,208,34666,2,0,L|408:208,1,85,8|8
496,208,35198,2,12,L|496:336,1,127.5
384,336,35730,5,0
312,336,35943,1,0
240,336,36156,1,8
280,272,36368,1,0
208,272,36581,1,0
168,336,36794,1,0
208,272,37007,1,8
136,272,37220,1,0
128,120,37645,5,0
200,120,37858,1,8
272,120,38071,1,0
64,40,38709,6,0,B|64:128,1,85,8|0
64,200,39134,2,0,B|160:201,1,85,0|0
224,200,39560,2,0,B|225:313,1,85,8|0
301,285,39986,2,0,B|486:287,1,170,0|12
368,144,40837,5,0
440,144,41049,1,0
368,144,41262,1,8
368,216,41475,2,0,B|264:216|272:80,1,170,0|4
168,216,42326,5,0
240,216,42539,1,0
240,288,42751,1,0
168,288,42964,1,8
168,216,43177,2,2,B|168:128|40:128,1,170
48,200,43815,1,8
48,272,44028,2,2,L|48:376|144:376,1,170
192,376,44666,1,8
264,376,44879,1,2
288,144,45517,6,2,L|288:256,2,85,10|2|2
136,144,46368,1,8
288,144,46794,2,0,L|472:144,1,170,0|8
432,216,47432,1,2
392,280,47645,2,0,L|240:280,1,127.5,0|10
152,280,48283,1,0
152,208,48496,2,0,B|152:80|288:80,1,170,2|10
328,208,49347,5,0
400,208,49560,1,0
472,208,49773,1,8
472,56,50092,1,0
472,56,50198,1,0
400,56,50411,1,0
400,128,50624,1,8
288,128,50943,1,0
288,128,51049,1,0
216,128,51262,1,0
144,128,51475,1,8
144,240,51794,1,0
144,240,51900,1,0
216,240,52113,5,8
288,240,52326,1,0
360,240,52539,1,8
432,240,52751,2,0,B|432:128,2,85,0|0|8
432,312,53390,5,0
432,312,53496,1,0
432,312,53603,1,0
360,312,53815,1,0
288,312,54028,1,8
216,312,54241,1,0
216,312,54347,1,0
216,312,54454,1,0
216,240,54666,1,0
144,240,54879,1,8
144,168,55092,5,0
144,168,55198,2,0,B|296:168,1,127.5,0|8
344,168,55730,1,8
416,168,55943,1,0
416,88,56156,2,0,B|208:88,1,170,0|8
176,88,56794,6,0,B|176:24,2,42.5
104,88,57220,1,0
104,160,57432,1,8
104,232,57645,2,0,B|40:232,2,42.5
176,232,58071,1,0
176,160,58283,1,8
248,160,58496,6,0,B|248:64,3,85,0|0|0|8
324,75,59347,2,0,B|324:267,1,170,0|4
400,248,59986,5,8
400,320,60198,2,0,B|472:320,6,42.5,0|0|0|0|0|0|8
320,320,61049,1,0
320,320,61156,1,4
320,320,61262,2,0,B|320:376,4,42.5,0|0|0|0|8
320,240,61900,1,0
320,240,62007,1,4
320,240,62113,2,0,B|320:160,4,42.5,0|0|0|0|8
168,240,62964,5,0
168,128,63283,1,8
280,128,63603,1,2
352,128,63815,1,6
104,344,64666,5,0
104,272,64879,1,0
176,272,65092,1,8
176,200,65305,2,0,B|176:96|328:96,1,170
288,176,65943,1,8
360,176,66156,2,0,B|464:176|464:320,1,170
384,288,66794,2,0,B|344:312|288:280,1,85,8|0
72,288,67645,5,8
144,288,67858,1,0
216,288,68071,2,0,L|216:216|264:216,1,85,0|2
304,216,68496,2,0,L|385:216|385:176,1,85,8|2
384,136,68922,2,0,L|384:55|344:55,1,85,0|0
304,56,69347,1,8
152,56,69773,1,0
80,56,69986,1,0
80,128,70198,1,8
152,128,70411,2,8,L|152:312,1,170,2|4
328,304,71262,5,0
328,232,71475,1,0
400,232,71688,1,0
400,160,71900,1,8
328,160,72113,2,0,L|328:56|240:56,1,170,0|0
256,128,72751,1,8
184,128,72964,2,2,B|96:128|96:272,1,170,2|2
96,328,73603,1,8
168,328,73815,1,0
352,192,74454,5,8
352,264,74666,1,0
352,336,74879,1,0
352,192,75305,2,0,B|160:192,1,170,8|0
224,336,76156,1,8
224,264,76368,2,0,B|136:264,1,85,0|8
56,184,76900,1,0
56,184,77007,2,0,B|160:184,1,85,0|8
216,184,77432,1,0
288,184,77645,1,8
288,144,77751,1,0
288,104,77858,1,8
440,104,78283,5,0
440,176,78496,1,0
368,176,78709,1,8
368,248,78922,2,0,B|368:336|240:336,1,170
248,264,79560,1,8
176,264,79773,2,0,B|64:264|64:144,1,170
64,88,80411,1,8
136,88,80624,1,0
368,88,81262,5,8
368,160,81475,1,0
368,232,81688,1,0
296,232,81900,1,0
224,232,82113,1,8
224,160,82326,1,0
224,232,82539,1,0
72,232,82964,1,10
144,88,83390,1,0
144,160,83603,1,0
144,232,83815,1,8
144,304,84028,2,2,B|344:304,1,170,2|2
424,192,84879,5,0
424,120,85092,2,0,B|424:24,2,85,8|0|4
424,192,85730,2,2,B|424:312|304:312,1,170
256,312,86368,1,8
256,240,86581,2,2,B|256:120|128:120,1,170,2|2
160,192,87220,2,2,B|160:248|104:248,1,85,10|6
328,312,88071,6,8,B|328:192,1,85,8|0
328,152,88496,1,0
480,152,88922,2,0,B|304:56,1,170,8|2
176,72,89773,1,8
176,144,89986,2,2,L|176:232,1,85,2|10
176,344,90517,1,2
176,344,90624,1,10
288,344,90837,1,0
288,272,91049,2,10,L|408:272,1,85,10|6
408,272,91368,1,6
448,272,91475,1,6
448,120,91900,5,8
376,120,92113,2,0,L|264:120,1,85,0|2
176,120,92645,1,0
176,120,92751,2,0,L|176:216,1,85,8|2
176,280,93177,1,0
288,280,93496,1,0
288,280,93603,2,0,L|288:168,1,85,8|2
288,120,94028,1,0
360,120,94241,1,0
360,120,94347,1,0
360,120,94454,2,0,L|360:232,2,85,8|0|8
208,120,95305,5,0
208,192,95517,1,0
136,192,95730,1,8
136,120,95943,1,0
136,120,96049,1,0
136,120,96156,1,8
64,120,96368,1,0
64,192,96581,1,8
64,264,96794,1,0
64,264,96900,1,0
64,264,97007,1,8
136,264,97220,1,0
136,192,97432,1,8
208,192,97645,1,0
208,192,97751,1,0
208,192,97858,1,8
208,264,98071,1,8
280,264,98283,1,8
432,264,98709,6,0,L|384:264,4,42.5,0|0|0|0|8
432,192,99347,1,2
432,120,99560,2,0,L|496:120,4,42.5,0|0|0|0|8
360,120,100198,1,2
288,120,100411,2,0,L|288:56,4,42.5,0|0|0|0|8
288,192,101049,5,0
288,264,101262,1,0
216,264,101475,1,8
216,192,101688,1,8
144,192,101900,2,0,B|144:304|56:304,1,170,0|0
48,232,102539,5,8
48,120,102858,2,0,B|104:120,1,42.5,2|8
168,120,103177,1,0
240,120,103390,1,8
352,120,103709,2,0,B|352:176,1,42.5,2|8
352,240,104028,1,0
352,312,104241,1,10
280,312,104454,1,0
280,240,104666,1,10
256,192,104879,12,4,105517
