osu file format v9

[General]
AudioFilename: 02. I Follow Rivers.mp3
AudioLeadIn: 0
PreviewTime: 74650
Countdown: 0
SampleSet: Normal
StackLeniency: 0.4
Mode: 0
LetterboxInBreaks: 1

[Editor]
Bookmarks: 74747,90448,114001,129703,144494,153255,168957,184659
DistanceSpacing: 0.4
BeatDivisor: 4
GridSize: 4

[Metadata]
Title:I Follow Rivers
Artist:Lykke Li
Creator:Tony
Version:Hard
Source:
Tags:IceBeam Reiji-RJ Beamsy

[Difficulty]
HPDrainRate:7
CircleSize:4
OverallDifficulty:7
ApproachRate:7
SliderMultiplier:1.7
SliderTickRate:1

[Events]
//Background and Video events
0,0,"bg.jpg"
//Break Periods
2,145797,152549
//Storyboard Layer 0 (Background)
//Storyboard Layer 1 (Fail)
//Storyboard Layer 2 (Pass)
//Storyboard Layer 3 (Foreground)
Sprite,Foreground,Centre,"SB\icebeam.png",320,240 F,0,74694,74939,0,1 R,0,74694,74939,-1,6.3 M,0,74939,,490,435 S,0,74939,75062,0.45,0.5 F,0,74939,90641,1 S,0,75062,75185,0.5,0.45 F,0,90641,90886,1,0 S,0,90641,90886,0.45,0.35 F,0,113948,114194,1 S,0,113948,114194,0.45 R,0,113948,114194,-1,6.3 S,0,114194,114316,0.45,0.5 F,0,114194,129895,1 S,0,114316,114439,0.5,0.45 F,0,129895,130386,1,0 S,0,129895,130386,0.45,0.35 F,0,153202,153448,0,1 S,0,153202,153448,0.45 R,0,153202,153448,-1,6.3 S,0,153448,153570,0.45,0.5 F,0,153448,169149,1 S,0,153570,153693,0.5,0.45 S,0,169149,169272,0.45,0.5 F,0,169149,184851,1 S,0,169272,169395,0.5,0.45 S,0,184851,,0.45 F,0,184851,185342,1,0 S,0,184851,185342,0.45,0.4
Sprite,Foreground,Centre,"SB\tony.png",320,240 M,0,19984,,100,410 F,0,19984,20474,0,1 S,0,19984,20474,0.35,0.5 S,0,20474,35685,0.5 F,0,20474,72977,1 S,0,35685,35808,0.5,0.55 S,0,35808,35931,0.55,0.5 S,0,35931,51387,0.5 S,0,51387,51510,0.5,0.55 S,0,51510,51632,0.55,0.5 S,0,51632,63163,0.5 S,0,63163,63286,0.5,0.55 S,0,63286,63408,0.55,0.5 S,0,63408,72977,0.5 F,0,72977,74939,1,0 S,0,72977,74939,0.5,0.3 F,0,90641,91132,0,1 S,0,90641,91132,0.3,0.45 S,0,91132,102417,0.45 F,0,91132,112231,1 S,0,102417,102540,0.45,0.5 S,0,102540,102663,0.5,0.45 S,0,102663,112231,0.45 F,0,112231,114194,1,0 S,0,112231,114194,0.45,0.35 F,0,129895,130386,0,1 S,0,129895,130386,0.35,0.45 F,0,130386,145597,1 S,0,130386,145597,0.45 S,0,145597,145720,0.45,0.5 F,0,145597,146088,1,0 S,0,145720,146088,0.5,0.45 F,0,184851,185342,0.5,1 S,0,184851,185342,0.3,0.45 F,0,185342,,1 F,0,185342,200430,1 S,0,185342,200430,0.45 S,0,200430,200553,0.45,0.5 F,0,200430,200798,1,0 S,0,200553,200675,0.5,0.45 S,0,200675,200798,0.45
//Storyboard Sound Samples
//Background Colour Transformations
3,100,163,162,255

[TimingPoints]
19974,490.717265069109,4,1,0,45,1,0
69045,-100,4,1,0,25,0,0
71008,-100,4,1,0,30,0,0
71499,-100,4,1,0,45,0,0
74443,-100,4,1,0,5,0,0
74934,-100,4,1,0,45,0,1
90637,-100,4,1,0,45,0,0
108303,-100,4,1,0,25,0,0
110265,-100,4,1,0,30,0,0
110756,-100,4,1,0,45,0,0
113700,-100,4,1,0,5,0,0
114191,-100,4,1,0,45,0,1
129894,-100,4,1,0,45,0,0
145597,-100,4,1,0,25,0,0
153449,-100,4,1,0,45,0,1
168661,-100,4,1,0,45,0,0
169152,-100,4,1,0,45,0,1
184855,-100,4,1,0,45,0,0
200557,-100,4,1,0,25,0,0

[Colours]
Combo1 : 179,102,98
Combo2 : 77,111,72
Combo3 : 120,71,108
Combo4 : 96,97,147

[HitObjects]
256,136,19973,1,4
176,288,20464,2,0,B|256:340|336:288,1,170,8|0
416,308,21200,1,0
400,224,21446,1,8
316,76,21936,5,0
256,136,22182,1,0
200,72,22427,1,8
56,164,22918,2,0,B|112:228,1,85
172,288,23409,1,8
340,288,23899,6,0,B|408:264|408:264|432:216|404:168,2,170,4|8|0
332,204,25126,1,0
320,120,25371,2,0,B|252:144|252:144|228:192|256:240,2,170,8|0|8
152,84,26844,1,0
80,132,27089,1,0
156,168,27334,1,8
68,316,27825,6,0,B|112:348|112:348|180:360|212:308,1,170,4|8
256,144,28806,1,0
272,228,29052,1,0
300,308,29297,2,0,B|332:360|400:348|400:348|444:316,2,170,8|0|8
256,144,30769,1,0
299,68,31015,1,0
215,68,31260,1,8
208,236,31751,6,0,B|200:292|256:312|312:292|304:236,2,170,4|8|0
215,151,32978,1,0
299,151,33223,1,10
256,316,33714,1,0
256,316,33959,6,2,B|324:328|380:300,2,127.5,2|2|2
256,232,34940,1,2
256,216,35063,1,0
256,200,35186,1,2
256,184,35308,2,0,B|256:96,1,85,0|0
256,84,35676,1,4
52,36,36167,5,8
68,120,36413,1,0
52,204,36658,2,0,B|64:268|64:268|88:316|152:308,1,170,0|8
256,172,37639,1,0
360,308,38130,5,8
360,308,38375,2,0,B|424:316|448:268|448:268|460:204,1,170
376,188,39111,1,8
428,120,39357,1,0
344,108,39602,1,4
176,124,40093,5,8
124,192,40338,1,0
208,204,40584,2,0,B|244:292|176:364,2,170,0|10|0
292,196,41810,6,2,B|312:256|292:328,2,127.5,2|2|2
264,116,42792,1,2
276,104,42915,1,0
288,92,43037,1,2
300,80,43160,2,0,B|336:52|376:40,1,85
392,36,43528,1,4
320,248,44019,5,8
256,304,44264,1,0
192,248,44509,2,0,B|136:220|136:220|92:184|108:120,2,170,0|8|0
264,92,45982,1,8
264,92,46227,6,0,B|340:48|428:68,1,170
464,144,46963,1,8
452,228,47208,1,0
392,288,47454,1,4
244,204,47944,5,8
232,120,48190,1,0
172,60,48435,2,0,B|112:44|52:76|44:136,2,170,0|10|0
132,136,49662,6,2,B|92:184|108:256,2,127.5
184,200,50643,1,2
200,208,50766,1,0
216,216,50889,1,2
232,224,51011,2,0,B|308:260,1,85
324,268,51379,1,4
456,104,51870,5,8
376,80,52115,1,0
304,36,52361,2,0,B|220:56|136:52,2,170,0|8|0
192,164,53833,1,8
272,192,54078,6,0,B|328:264|320:352,1,170
240,320,54814,2,0,B|232:272|204:244,2,85,8|0|4
156,316,55551,1,0
88,264,55796,2,0,B|56:172|96:100,2,170,8|0|10
184,124,57268,5,0
184,124,57513,2,2,B|148:180|176:248,2,127.5
240,188,58495,1,2
256,188,58617,1,0
272,188,58740,1,2
288,188,58863,2,0,B|376:188,1,85
388,188,59231,1,4
244,356,59722,6,0,B|168:320,1,85,8|0
100,268,60212,2,0,B|48:192|80:104,2,170,0|8|0
188,124,61684,1,8
188,124,61930,6,0,B|264:88|356:100,1,170
404,168,62666,1,8
444,244,62911,1,0
360,244,63157,1,4
212,328,63647,6,0,B|176:304|172:252,1,85,8|0
256,260,64138,2,0,B|228:168|160:124,1,170,0|10
320,68,65119,1,0
320,68,65365,6,2,B|276:28|200:32,2,127.5
248,112,66346,1,2
256,126,66469,1,0
270,136,66592,1,2
285,144,66714,2,0,B|325:168|369:156,1,85
384,156,67082,1,4
460,308,67573,5,8
380,332,67818,1,0
300,300,68064,1,0
216,320,68309,1,0
132,308,68555,2,0,B|84:301|84:301|39:266,1,85,8|0
116,220,69045,6,2,B|203:258|312:175|385:96|339:11|257:-30|175:11|128:96|203:175|312:258|398:220,1,680,2|6
292,352,71499,6,0,B|376:340|376:340|412:320|436:280,1,170,8|2
400,116,72480,2,0,B|316:128|316:128|280:148|256:188,1,170,8|2
256,192,73094,12,0,74443
408,56,74934,5,6
484,108,75179,1,0
480,124,75302,1,0
476,140,75425,1,10
432,224,75670,2,0,B|436:272|420:312,1,85,0|0
320,324,76161,2,0,B|272:300|240:316|208:332|152:316,1,170,0|0
60,304,76897,5,2
64,308,77387,1,8
96,216,77633,2,0,B|56:160|80:96,1,127.5,2|0
84,84,78123,2,0,B|180:88,1,85,2|8
256,96,78614,1,0
420,48,78860,6,0,B|472:132|400:212,1,170,2|8
212,264,79596,2,0,B|260:224|348:260,1,127.5,2|0
344,264,80086,2,0,B|336:316|364:352,1,85,2|8
428,296,80577,1,0
416,148,80822,5,2
96,148,81313,1,8
48,220,81559,2,0,B|28:300|84:344,1,127.5,2|0
88,332,82049,1,2
164,292,82295,1,8
252,296,82540,1,0
332,336,82785,5,6
396,276,83031,1,0
400,264,83153,1,0
404,252,83276,1,10
372,168,83521,2,0,B|364:124|360:76,1,85
424,8,84012,2,0,B|376:88|264:52,1,170
108,88,84748,6,0,B|68:68|16:80,2,85,2|0|8
188,132,85484,2,0,B|176:260,1,127.5,2|0
184,272,85975,1,2
272,248,86220,2,0,B|316:232|364:236,1,85,8|0
456,120,86711,6,0,B|512:212|428:284,1,170,2|10
364,320,87447,1,0
368,324,87938,1,2
280,332,88183,1,8
196,344,88429,1,0
100,236,88674,5,2
104,240,89165,1,8
108,96,89410,1,2
196,132,89655,1,0
48,168,89901,1,0
192,220,90146,1,10
460,116,90637,5,0
432,284,91128,1,8
348,284,91373,1,0
276,332,91618,2,0,B|192:356|108:336,2,170,0|8|0
332,172,93090,1,8
280,104,93336,6,0,B|196:80|112:100,1,170
56,164,94072,1,8
100,236,94317,1,0
52,308,94563,1,4
196,220,95053,5,8
276,196,95299,1,0
284,280,95544,2,0,B|352:264|352:264|400:236|412:188,2,170,0|10|0
332,348,96771,6,2,B|456:320,2,127.5
248,352,97752,1,2
232,352,97875,1,0
216,352,97998,1,2
200,352,98120,2,0,B|116:352,1,85
100,352,98488,1,4
112,184,98979,5,8
156,112,99224,1,0
216,52,99470,2,0,B|264:32|264:32|332:24|356:88,1,170,0|8
420,244,100451,2,0,B|340:204|256:243,1,170,0|8
176,308,101187,2,0,B|251:347|339:308,1,170,0|0
284,152,101923,5,8
204,176,102169,1,0
224,92,102414,1,4
384,36,102905,6,0,B|444:96,1,85,8|0
468,176,103395,2,0,B|468:244|468:244|472:272|472:272|472:348,2,170,0|10|0
384,180,104622,2,2,B|384:229|384:229|386:250|386:250|386:306,2,127.5,2|2|2
300,184,105604,1,2
296,200,105726,1,0
300,216,105849,1,2
296,232,105972,2,0,B|299:268|299:268|296:292|296:292|296:316,1,85
296,332,106340,1,4
52,60,106830,5,8
36,144,107076,1,0
116,116,107321,1,0
40,232,107567,1,0
168,184,107812,1,8
124,256,108057,1,0
168,184,108303,6,2,B|184:232|243:259|402:192|418:150|418:86|385:45|321:21|256:45|224:86|224:150|240:192|395:259|442:232|470:184,1,680,2|6
420,348,110756,6,0,B|356:300|256:308,1,170,8|2
88,328,111738,2,0,B|40:264|48:164,1,170,8|2
256,192,112351,12,0,113700
112,136,114191,6,0,B|132:296,1,127.5,6|0
120,272,114682,2,0,B|204:276,1,85,10|0
292,284,115173,1,0
376,324,115418,2,0,B|380:264|396:248|412:232|416:152,1,170
424,36,116154,5,2
428,40,116645,2,0,B|376:28|340:60,1,85,8|2
412,128,117136,2,0,B|464:140|500:108,1,85,0|2
324,148,117626,1,8
84,124,118117,6,0,B|56:160|52:212|76:256|132:276,1,170,2|8
60,344,118853,2,0,B|80:304|124:280|168:280|224:304,1,170,2|2
304,336,119589,1,8
304,336,119834,1,0
408,224,120080,6,0,B|420:56,1,170,2|8
324,60,120816,1,0
324,60,120939,1,0
324,60,121061,2,0,B|240:68,1,85,2|0
164,160,121552,2,0,B|248:152,1,85,10|0
148,76,122043,6,0,B|16:88,1,127.5,6|0
24,104,122533,1,10
68,188,122779,2,0,B|60:236|84:272,1,85,0|0
40,348,123269,2,0,B|60:304|100:280|140:280|188:296,1,170
201,164,124006,5,2
213,60,124251,1,0
320,76,124496,1,8
304,179,124742,1,2
404,316,125110,1,0
404,316,125232,2,0,B|452:320|492:336,2,85,2|8|0
304,180,125968,6,0,B|272:213|264:272|280:320|340:348,1,170,2|8
404,316,126705,1,2
408,320,127195,1,2
412,236,127441,1,8
416,152,127686,1,2
340,36,127931,6,0,B|168:44,1,170,0|8
88,104,128667,2,0,B|68:152|104:200,1,85,2|0
192,208,129158,1,2
192,208,129403,1,8
420,60,129894,5,4
372,224,130385,1,8
256,348,130876,2,0,B|172:336,1,85
88,320,131366,1,8
120,96,131857,6,0,B|204:108,1,85
288,124,132348,1,8
424,224,132838,2,0,B|340:212,1,85
256,196,133329,1,8
112,104,133820,6,0,B|120:48|64:28|8:48|16:104,2,170,4|8|0
64,172,135047,1,0
36,252,135292,1,10
176,344,135783,1,0
256,316,136028,6,2,B|324:328|380:300,2,127.5,2|2|2
256,232,137010,1,2
256,216,137132,1,0
256,200,137255,1,2
256,184,137378,2,0,B|256:96,1,85,0|0
256,84,137746,5,4
172,232,138236,1,8
340,232,138727,1,0
404,176,138972,1,0
380,96,139218,1,8
172,232,139709,5,0
108,176,139954,1,0
132,96,140199,1,8
256,212,140690,2,0,B|256:296,2,85,0|0|8
340,64,141671,6,0,B|256:32|172:64,2,170,4|8|0
336,148,142898,1,0
256,180,143144,2,0,B|256:348,1,170,10|0
176,328,143880,6,2,B|176:200,2,127.5
96,300,144861,1,2
96,284,144984,1,0
96,268,145106,1,2
96,252,145229,2,0,B|96:168,1,85
96,152,145597,1,0
256,64,153449,5,6
344,84,153694,1,0
348,96,153817,1,0
352,108,153939,1,10
332,196,154185,2,0,B|320:248|356:296,1,85
428,292,154675,2,0,B|424:332|388:368|328:372|272:340,1,170
212,312,155411,5,2
68,92,155902,1,8
72,96,156148,2,2,B|40:172|108:232,1,127.5,2|0
80,228,156638,2,0,B|176:220,1,85,2|8
248,184,157129,1,0
364,52,157374,6,0,B|396:88|400:140|380:184|324:204,1,170,2|8
392,276,158110,2,0,B|372:232|332:208|276:208|236:228,1,170,2|0
144,224,158846,2,0,B|128:136,1,85,10|0
112,56,159337,5,0
116,60,159828,1,10
208,88,160073,1,0
208,88,160196,1,0
208,88,160319,2,0,B|248:72|292:80,1,85,2|0
464,132,160809,2,0,B|424:148|380:140,1,85,10|0
296,300,161300,6,0,B|252:244|292:172,1,127.5,6|0
300,184,161791,1,10
380,140,162036,2,0,B|384:96|384:52,1,85
296,32,162527,2,0,B|284:80|248:104|196:108|152:88,1,170
44,144,163263,6,0,B|68:312,1,170,2|8
164,336,163999,2,2,B|216:292|292:320,1,127.5,2|0
292,328,164490,1,2
388,324,164735,2,0,B|388:280|392:236,1,85,8|0
448,44,165226,6,0,B|440:80|400:112|336:112|300:84,1,170,2|8
64,108,165962,2,0,B|72:72|112:40|176:40|212:68,1,170,2|2
152,136,166698,2,0,B|140:184|184:236,1,85,8|2
304,288,167189,5,0
308,292,167679,1,10
440,216,167925,1,0
284,200,168170,1,2
404,304,168415,1,0
368,148,168661,1,10
96,44,169152,6,0,B|56:112|112:176,1,127.5,6|0
100,176,169642,2,0,B|144:160|184:176,1,85,10|0
284,200,170133,1,0
368,148,170378,2,0,B|400:188|404:240|384:284|340:308,1,170
260,328,171114,5,2
264,332,171605,1,8
176,280,171850,2,2,B|48:288,1,127.5,2|0
40,272,172341,2,0,B|48:184,1,85,2|8
56,100,172832,1,0
224,52,173077,6,0,B|200:96|208:148|240:188|296:192,1,170,2|8
192,232,173813,2,0,B|368:220,1,170,2|0
452,260,174549,2,0,B|444:352,1,85,10|0
352,340,175040,5,0
356,344,175531,1,10
256,324,175776,1,0
256,324,175899,1,0
256,324,176022,2,0,B|212:332|172:328,1,85,2|0
284,208,176512,2,0,B|328:200|368:204,1,85,10|0
452,260,177003,5,6
460,168,177248,1,0
452,152,177371,1,0
444,136,177494,1,10
364,68,177739,2,0,B|312:76|268:80,1,85
188,48,178230,2,0,B|156:84|156:144|172:188|220:212,1,170
308,236,178966,5,2
312,240,179211,2,0,B|300:352,1,85,0|8
204,304,179702,2,2,B|132:280|76:320,1,127.5,2|0
76,324,180193,1,2
44,240,180438,2,0,B|32:200|36:156,1,85,8|0
168,52,180929,5,2
256,96,181174,2,0,B|296:76|356:88,1,85,0|8
432,128,181665,2,2,B|420:312,1,170,2|2
328,324,182401,1,8
328,324,182646,1,0
68,188,183137,5,2
68,188,183505,1,0
68,188,183628,2,0,B|140:192|168:192,1,85,2|8
248,152,184118,1,2
248,152,184241,1,0
248,152,184364,1,2
348,188,184609,1,0
332,84,184855,5,4
132,36,185345,1,8
188,232,185836,2,0,B|168:324,2,85,0|0|8
332,84,186817,2,0,B|364:-8,2,85,0|0|8
136,136,187799,1,0
228,180,188044,1,0
324,216,188290,1,8
168,348,188780,6,0,B|72:336|28:260,2,170,4|8|0
192,248,190007,1,0
100,204,190252,2,0,B|112:108|188:64,1,170,10|0
236,156,190988,2,2,B|280:112|348:100,2,127.5
192,248,191970,1,2
212,260,192093,1,0
232,272,192215,1,2
252,284,192338,2,0,B|328:324,1,85
348,332,192706,5,4
496,192,193197,1,8
344,56,193687,2,0,B|260:56,1,85
156,56,194178,1,8
324,172,194669,2,0,B|240:172,1,85
136,172,195160,1,8
300,292,195650,1,0
200,292,195896,1,0
100,292,196141,1,8
200,116,196632,6,0,B|260:56|356:56,2,170,4|8|0
292,156,197859,1,0
384,196,198104,2,0,B|444:256|444:352,1,170,10|0
344,332,198840,2,2,B|332:272|276:228,2,127.5
244,320,199821,1,2
224,323,199944,1,0
204,326,200067,1,2
184,329,200189,2,0,B|97:342,1,85
84,344,200557,1,0
