osu file format v9

[General]
AudioFilename: Luzzy & Haku - Asal Ngomong.mp3
AudioLeadIn: 0
PreviewTime: 111536
Countdown: 0
SampleSet: Normal
StackLeniency: 0.7
Mode: 0
LetterboxInBreaks: 1

[Editor]
DistanceSpacing: 0.81
BeatDivisor: 4
GridSize: 8

[Metadata]
Title:Asal Ngomong
Artist:Luzzy & Haku
Creator:Dielz7
Version:Hard
Source:
Tags:VOCALOID Asal Ngomong VOCALO.ID Mukufro deadhead22 sallad4ever Rei_Fan49 nanda2009

[Difficulty]
HPDrainRate:5
CircleSize:5
OverallDifficulty:7
ApproachRate:7
SliderMultiplier:1.8
SliderTickRate:1

[Events]
//Background and Video events
Video,0,"asal ngomong‬‏.flv"
0,0,"background.jpg"
//Break Periods
2,110822,123035
2,139133,150035
//Storyboard Layer 0 (Background)
//Storyboard Layer 1 (Fail)
//Storyboard Layer 2 (Pass)
//Storyboard Layer 3 (Foreground)
//Storyboard Sound Samples
//Background Colour Transformations
3,100,0,0,0

[TimingPoints]
934,375,4,1,0,40,1,0
12536,-200,4,1,0,40,0,0
12911,-100,4,1,0,40,0,0
44973,-200,4,1,0,40,0,0
45348,-100,4,1,0,40,0,0
65973,-50,4,1,0,40,0,0
66442,-100,4,1,0,40,0,0
71036,-200,4,1,0,40,0,0
71265,-100,4,1,0,40,0,0
71598,-66.6666666666667,4,1,0,40,0,0
71996,-100,4,1,0,40,0,0
89721,-100,4,1,0,40,0,0
90559,-200,4,1,0,40,0,0
93770,-100,4,1,0,40,0,0
150911,-100,4,1,0,80,0,1
161786,-100,4,1,0,15,0,1
161973,-100,4,1,0,30,0,1
162161,-100,4,1,0,45,0,1
162333,-100,4,1,0,50,0,1
162536,-200,4,1,0,55,0,1
162705,-100,4,1,0,60,0,1
162911,-100,4,1,0,80,0,1
171910,-100,4,1,0,100,0,0

[Colours]
Combo1 : 0,151,0
Combo2 : 255,128,64
Combo3 : 255,0,0
Combo4 : 192,192,192

[HitObjects]
48,48,1685,1,0
128,48,2060,1,0
208,48,2435,1,0
208,128,2810,1,0
208,208,3185,1,0
208,280,3559,2,0,B|192:392|56:352,1,180
296,280,4497,5,0
296,280,4685,1,0
296,280,4872,1,0
296,208,5247,1,0
296,136,5622,1,0
368,136,5997,1,0
512,136,6371,2,0,B|512:209|512:209|392:209,1,180
328,136,7497,5,0
280,192,7685,1,0
328,248,7872,1,0
464,192,8247,1,0
328,248,8622,2,0,B|184:248|184:136,1,180
328,136,9372,2,0,B|184:136|184:256,1,180
256,192,10497,12,0,12185
64,208,12560,2,0,B|64:112|64:112,1,90,0|0
144,48,13497,5,0
104,48,13684,1,0
64,48,13872,2,0,B|208:176,2,180
208,48,14997,1,0
352,48,15372,1,0
496,48,15747,1,0
152,192,16310,5,0
216,192,16685,1,0
256,192,16872,1,0
296,192,17060,1,0
304,128,17247,2,0,B|320:72|352:56|392:56|424:56|440:72|464:96|432:152|432:184|384:184|392:192|392:320,1,360
393,340,18372,1,0
393,276,18747,1,0
240,320,19497,5,0
200,320,19685,1,0
160,320,19872,2,0,B|128:280|184:248,2,90
304,80,20621,2,0,B|304:176|304:176|224:224,1,180
48,192,21747,5,0
48,48,21935,1,0
160,48,22122,2,0,B|352:48,1,180
248,120,22685,1,0
336,192,22872,2,0,B|144:192,1,180
256,192,23435,12,0,24559
56,344,24935,5,0
128,344,25122,1,8
200,344,25310,1,0
200,272,25496,2,0,B|288:272,2,90,0|0|8
288,344,26059,1,8
360,344,26246,1,8
360,272,26435,5,0
432,272,26622,1,2
432,344,26810,1,0
432,272,26996,1,0
432,200,27184,1,0
360,200,27371,2,2,B|272:200,1,90
192,200,27746,5,2
64,344,27934,1,0
64,48,28122,2,0,B|152:48,2,90
154,47,28685,1,0
200,96,28872,1,0
128,112,29060,1,0
176,160,29247,1,0
296,240,29622,6,0,B|216:288|264:288|168:232,2,135
352,192,30371,2,0,B|387:148,4,45,0|0|0|0|4
56,48,30935,5,0
136,48,31122,1,0
96,112,31310,1,0
176,112,31496,2,0,B|272:112|272:112|272:216,1,180
272,272,32059,1,0
456,336,32435,5,0
384,336,32622,1,0
424,272,32810,1,0
352,272,32996,2,0,B|256:272|256:272|256:160,1,180
256,112,33559,1,0
456,328,34122,6,0,B|352:328,2,90
456,256,34685,1,0
456,184,34872,1,0
384,184,35060,1,0
456,184,35247,1,0
312,184,35622,1,0
72,48,36934,6,0,B|176:48|176:168,1,180
248,144,37496,2,0,B|144:144|144:264,1,180
72,264,38059,2,0,B|160:264,1,90
112,320,38434,2,0,B|256:160,1,180
288,232,38996,2,0,B|152:112,1,180
40,24,39559,1,0
128,24,39746,5,0
218,26,39934,1,0
218,110,40121,1,0
218,193,40309,1,0
310,194,40496,1,0
398,193,40684,5,0
400,271,40871,1,0
400,352,41059,1,0
480,352,41246,1,0
256,192,41434,12,0,42184
64,48,42560,6,0,B|96:48|96:80,4,45
176,48,43310,2,0,B|240:48|280:48,1,90
408,48,43872,1,0
368,288,44435,2,0,B|368:352|304:352,1,90
256,352,44810,1,0
192,352,44997,2,0,B|128:352|128:288,1,90
128,232,45559,1,0
104,80,45935,5,0
176,80,46122,1,0
104,80,46309,1,0
176,80,46497,1,0
248,79,46685,1,0
248,152,46872,1,0
248,80,47060,2,0,B|344:80,1,90
256,192,47435,12,0,48560
145,128,48935,2,0,B|256:192,1,90
366,256,49310,2,0,B|272:200,1,90
192,302,49685,2,0,B|240:224,1,90
320,81,50060,2,0,B|272:168,1,90
256,192,50435,12,0,51935
264,304,52685,5,0
264,232,53059,2,0,B|264:40,1,180
264,56,53810,2,0,B|448:56,1,180
448,112,54560,6,0,B|264:112,1,180
416,184,55497,1,0
352,184,55685,1,0
288,184,55872,1,0
256,136,56060,1,0
224,184,56247,1,0
36,53,56622,6,0,B|164:181,1,180
32,304,57372,2,0,B|176:168,1,180
136,288,58497,1,0
112,288,58685,1,0
88,288,58872,2,0,B|184:200|8:224,1,180
32,120,59622,2,0,B|128:80|128:176|216:120,1,180
272,128,60325,2,0,B|360:16|336:48|431:135,1,202.5
345,139,60935,1,2
136,192,61497,5,0
208,192,61685,1,0
328,112,62060,1,0
256,112,62247,1,0
256,192,62435,12,0,63997
72,56,64497,5,0
136,56,64685,1,0
200,56,64872,1,0
72,184,65247,1,0
200,56,65622,1,0
456,192,65997,2,0,B|456:208|440:224|440:224|472:224|472:224|440:240|440:240|472:240|472:240|440:256|440:256|472:256|472:256|440:272|440:272|472:272|472:272|440:288|440:288|472:288|472:288|440:304|440:304|472:304|472:304|456:344|456:344|456:352|472:320|472:320|440:320|440:320|456:344,1,540
384,344,66747,1,8
240,344,67122,5,8
240,344,67310,1,0
384,344,67685,1,0
304,224,68060,2,0,B|224:264|224:224,1,90
176,96,68622,2,0,B|296:96|200:104|296:104|200:112|296:112|200:120|296:120|200:128|296:128|200:136|296:136|200:144|228:144|296:144|200:152|296:152|200:160|336:160,1,180
264,40,69372,2,0,B|384:40|288:48|384:48|288:56|384:56|288:64|384:64|288:72|384:72|288:80|384:80|288:88|384:88|288:96|384:96|288:104|416:104,1,180
379,127,70497,5,0
352,128,70685,1,0
352,192,71060,2,0,B|352:224|320:224,1,45
208,224,71622,2,0,B|192:224|192:208|192:208|176:240|176:240|176:208|176:208|160:240|160:240|160:208|160:208|144:240|144:240|144:208|144:208|144:224|144:112,1,269.999991953373
208,48,72747,1,0
240,48,72935,1,0
272,48,73122,2,0,B|176:176,1,157.5
224,168,73685,1,0
256,168,73872,2,0,B|160:296,1,157.5
192,296,74388,1,0
256,192,74435,12,0,75560
96,216,75935,5,0
96,280,76122,1,0
128,336,76310,1,0
56,336,76497,1,0
256,192,76872,1,8
256,192,77060,1,8
456,48,77435,1,0
384,48,77622,1,0
416,112,77810,1,0
416,184,77997,1,0
256,192,78372,1,2
256,192,78560,1,2
40,48,79122,6,0,B|144:48,2,90
40,120,79684,2,0,B|40:192|120:192,1,90
176,192,80059,1,0
248,192,80246,1,0
248,48,80621,1,0
456,48,81935,5,0
384,48,82122,1,0
384,120,82309,1,0
312,120,82497,1,0
200,120,82872,1,8
200,120,83060,1,8
48,328,83435,1,0
120,328,83622,1,0
120,256,83810,1,0
192,256,83997,1,0
304,256,84372,1,2
376,256,84560,1,2
472,336,85122,6,0,B|368:336,2,90
472,264,85684,2,0,B|472:192|392:192,1,90
384,136,86060,1,0
312,136,86247,1,0
312,280,86622,1,0
72,72,87560,2,0,B|120:72,4,45
72,72,88310,5,0
256,72,88685,1,0
440,72,89060,1,0
440,72,89247,1,0
288,160,89621,1,0
224,160,89996,1,0
288,224,90371,1,2
224,224,90746,2,8,B|224:152|280:152|288:224,1,135,8|10
224,304,91496,5,0
272,304,91684,1,0
320,304,91871,1,0
441,303,92247,1,0
144,304,92622,2,0,B|216:232,1,90
368,80,93372,2,0,B|296:152,1,90
256,280,94497,6,0,B|176:280|104:192,1,180
256,280,95247,2,0,B|336:280|416:192,1,180
392,56,95996,2,0,B|336:-8|272:56,1,135,0|0
272,88,96371,1,8
132,56,96746,2,0,B|188:-8|252:56,1,135,0|0
248,88,97121,1,2
256,192,97590,12,4,99590
256,192,99935,5,4
48,320,100497,5,0
64,320,100685,1,0
80,320,100872,1,0
144,320,101247,2,0,B|128:272|208:288|208:288|160:288|160:288|160:272|144:272|144:272|144:272|144:272|144:224,1,180
240,144,101997,1,0
288,192,102372,1,0
336,240,102747,1,0
440,320,103310,5,0
440,320,103685,1,0
440,320,104060,1,0
440,320,104247,1,0
440,320,104622,1,0
368,320,104997,1,0
320,256,105372,2,0,B|376:176|336:168|304:168|288:256|400:208,1,180
64,32,106497,5,0
96,32,106685,1,0
176,32,107060,1,0
208,32,107247,1,0
280,32,107622,2,0,B|408:96|272:160,1,180
128,48,108746,2,0,B|200:48|200:128,2,90
216,168,109496,2,0,B|216:232|160:232,1,90
168,232,109872,1,0
264,112,110246,2,0,B|320:112|320:56,1,90
264,112,110622,1,0
72,40,123935,5,0
72,40,124028,6,0,B|104:40,8,22.5
72,152,124872,1,0
144,152,125060,1,0
216,152,125247,1,0
168,192,126560,5,0
224,264,126747,1,0
296,264,126935,1,0
256,128,127309,2,0,B|360:128,1,90
488,128,127872,1,0
488,288,128293,2,0,B|304:288,1,180
192,344,128997,2,0,B|376:344,1,180
432,328,129934,5,0
432,328,130027,6,0,B|392:328,9,22.5
432,256,130872,5,0
360,256,131060,1,0
288,256,131247,1,0
64,56,132935,1,0
440,56,133310,5,0
440,56,133497,1,0
432,336,133872,1,0
72,336,134247,5,0
72,192,134622,1,0
72,48,134997,1,0
80,192,135560,5,0
144,192,135747,1,0
208,192,135935,1,0
80,256,136310,1,0
80,192,136497,1,0
208,192,136872,1,0
80,256,137247,5,0
208,192,137622,1,0
80,192,137949,1,0
80,104,138184,1,0
256,192,138746,2,0,B|304:192,2,45
64,336,150935,5,0
136,336,151122,1,0
208,336,151310,1,0
280,336,151496,2,0,B|344:336|344:264,1,90
344,216,151871,1,0
344,144,152059,1,0
448,72,152435,5,0
376,72,152622,1,0
304,72,152810,1,0
232,72,152996,2,0,B|168:72|168:144,1,90
168,192,153371,1,0
168,264,153559,1,0
64,48,154122,6,0,B|152:48,2,90
154,48,154685,2,0,B|320:96|136:128,1,180
144,192,155294,5,0
368,192,155810,1,8
368,192,155997,1,8
144,192,156560,1,8
56,56,156935,5,0
112,96,157122,1,0
176,136,157310,1,0
250,187,157496,2,0,B|170:131,1,90
112,96,157871,1,0
56,56,158059,1,0
456,48,158435,5,0
400,96,158622,1,0
344,144,158810,1,0
272,143,158996,2,0,B|205:142|205:70,1,90
272,144,159371,1,0
344,145,159559,1,0
456,328,160122,2,0,B|352:328,2,90
366,328,160685,2,0,B|200:280|392:248,1,180
360,184,161246,2,0,B|304:184|240:184,1,90
256,112,161810,5,0
256,112,161997,1,0
256,112,162185,1,0
256,112,162372,1,0
256,112,162560,2,0,B|256:64,1,45
256,40,162935,5,0
184,112,163122,1,0
256,184,163310,1,0
328,112,163497,1,0
256,112,163872,5,8
256,112,164060,1,8
184,40,164435,5,0
328,40,164622,1,0
328,184,164810,1,0
184,184,164997,1,0
256,112,165372,1,2
256,112,165559,1,2
256,184,166122,6,0,B|256:280,1,90
328,272,166497,1,0
256,272,166685,2,0,B|176:192,1,112.5
176,272,167060,1,0
112,272,167247,1,0
240,208,167621,1,0
184,192,168935,5,0
256,192,169122,1,0
328,192,169310,1,0
256,192,169497,1,0
256,120,169872,5,8
256,264,170060,1,8
328,192,170434,5,0
256,192,170621,1,0
184,192,170809,1,0
256,192,170996,1,0
256,264,171372,5,2
256,120,171560,1,2
256,192,171935,12,0,177184
256,192,177560,5,0
256,192,177652,1,0
256,192,177747,1,0
256,192,177841,1,0
