osu file format v5

[General]
AudioFilename: Lupe Fiasco - Superstar.mp3
AudioLeadIn: 3000
AudioHash: 26bb49c00ef43a2374da4c2337948973
PreviewTime: -1
Countdown: 3
SampleSet: Normal

[Metadata]
Title:Superstar Feat. Matthew Santos (Clean)
Artist:Lupe Fiasco
Creator:gaara
Version:Hard

[Difficulty]
HPDrainRate:2
CircleSize:4
OverallDifficulty:5
SliderMultiplier:1.4
SliderTickRate:1

[Events]
//Background and Video events
0,0,"l_d4866bf7c6dc84b5fa8c6472f63c6201.jpg"
//Break Periods
//Storyboard Layer 0 (Background)
//Storyboard Layer 1 (Failing)
//Storyboard Layer 2 (Passing)
//Storyboard Layer 3 (Foreground)
//Storyboard Sound Samples
//Background Colour Transformations
3,100,0,0,0

[TimingPoints]
0,150,4,1,1,100

[HitObjects]
90,158,4123,1,0
128,143,4719,1,0
215,131,5290,1,0
332,278,5886,1,0
196,244,6482,1,0
114,175,7078,1,0
227,112,7649,1,0
347,247,8246,1,0
197,208,8842,1,0
119,153,9413,1,0
184,84,10009,1,0
299,119,10605,1,0
205,261,11201,1,0
302,330,11772,2,0,B|302:330|344:192|357:86|423:359|419:365,1,280
256,124,14132,1,2
264,258,14728,1,2
121,196,15324,1,2
288,101,15896,1,2
262,212,17088,1,2
162,188,17684,1,2
308,70,18255,1,2
181,175,20019,1,2
259,73,20615,1,2
292,220,21211,1,2
232,119,22378,1,2
337,141,22974,1,2
324,284,23570,1,2
183,218,24142,1,2
404,95,24738,1,2
339,216,25334,1,2
211,145,25930,1,2
365,134,27097,1,2
317,210,27693,1,2
285,12,28289,1,2
357,109,28861,1,2
263,164,29457,1,2
198,173,30053,1,2
104,91,31220,1,2
291,76,32412,1,2
89,109,33977,1,6
213,121,34573,1,6
348,132,34971,1,6
329,212,35368,1,6
179,220,35964,1,6
81,108,36560,1,6
294,101,37156,1,6
358,191,37554,1,6
172,208,38150,1,6
83,72,38746,1,6
254,100,39143,1,6
348,215,39740,1,6
204,216,40336,1,6
61,141,40733,1,6
213,102,41329,1,6
423,93,41727,1,6
420,262,42323,1,6
214,225,42720,1,6
24,84,43316,1,6
276,101,43714,1,6
456,136,44111,1,6
377,253,44707,1,6
179,216,45303,1,6
104,88,45701,1,6
305,98,46098,1,6
415,121,46694,1,6
392,226,47290,1,6
192,189,47886,1,6
107,104,48284,1,6
372,125,48681,1,6
507,124,49078,1,6
420,244,49873,1,6
220,250,50469,1,6
54,121,50867,1,6
311,80,51662,1,6
396,170,52258,1,6
245,209,53052,1,6
133,128,53251,1,6
310,111,53649,1,6
392,112,54245,1,6
360,228,54841,1,6
192,196,55437,1,6
204,80,55834,1,6
320,66,56033,1,6
404,162,56629,1,6
346,258,57026,1,6
219,218,57424,1,6
128,91,57623,1,6
292,113,58020,1,6
383,144,58219,1,6
407,163,58616,1,6
365,232,59013,1,6
303,239,59212,1,6
195,167,59808,1,6
273,54,60603,1,6
355,68,60802,1,6
377,133,61000,1,6
312,234,61795,1,6
200,204,61994,1,6
184,109,62391,1,6
340,29,62590,1,6
378,84,62987,1,6
445,292,63186,1,6
388,279,63584,1,6
256,192,65173,12,0,77573
256,192,78150,5,0
256,192,78600,1,0
160,160,79162,1,0
192,64,79537,1,0
288,192,80775,1,0
288,96,81112,1,0
224,128,81525,1,0
192,192,82050,1,0
160,160,82350,1,0
224,128,83287,1,0
256,96,83662,1,0
288,192,84262,1,0
256,224,84600,1,0
128,224,85500,1,0
96,160,85800,1,0
128,64,86175,1,0
192,128,86812,1,0
288,96,87150,1,0
352,224,88050,1,0
256,224,88387,1,0
160,192,88725,1,0
192,96,89175,1,0
256,128,89737,1,0
320,160,90337,1,0
320,224,90900,1,0
256,256,91537,1,0
192,192,92175,1,0
192,96,93450,1,0
160,160,95062,1,0
160,160,95550,1,0
256,128,96150,1,0
352,160,96637,1,0
288,256,97087,1,0
224,224,97575,1,0
192,192,98212,1,0
256,128,98700,1,0
320,128,99150,1,0
320,288,99600,1,0
192,256,100050,1,0
128,192,100687,1,0
224,96,101212,1,0
320,192,101700,1,0
256,288,102150,1,0
192,224,102675,1,0
256,128,103200,1,0
352,160,103800,1,0
320,256,104175,1,0
192,224,104512,1,0
224,96,105150,1,0
320,128,105750,1,0
288,256,106237,1,0
224,224,106687,1,0
160,128,107137,1,0
256,64,107587,1,0
320,160,108262,1,0
288,224,108750,1,0
224,224,109237,1,0
160,160,109687,1,0
224,96,110212,1,0
288,160,110812,1,0
224,224,111412,1,0
192,192,111862,1,0
192,64,112350,1,0
256,96,112687,1,0
288,192,113287,1,0
224,224,114037,1,0
160,192,114450,1,0
160,96,115275,1,0
160,96,115687,1,0
224,96,116212,1,0
288,128,116550,1,0
288,128,116737,1,0
288,128,116925,1,0
288,128,117075,1,0
224,192,117487,1,0
224,192,117675,1,0
224,192,117862,1,0
224,192,118050,1,0
128,192,118612,1,0
128,192,118800,1,0
128,192,118987,1,0
128,192,119137,1,0
96,96,119662,1,0
96,96,119962,1,0
96,96,120300,1,0
128,96,120787,1,0
160,128,121275,1,0
192,128,121575,1,0
256,128,122137,1,0
256,96,122512,1,0
256,64,122887,1,0
224,192,123487,1,0
160,160,123787,1,0
128,128,124125,1,0
96,64,124312,1,0
160,64,124650,1,0
288,160,125700,1,0
256,160,126337,1,0
160,160,126675,1,0
160,160,126862,1,0
160,96,127162,1,0
256,160,128850,1,0
256,160,129150,1,0
288,160,129337,1,0
320,160,129562,1,0
192,128,131662,1,0
192,128,131850,1,0
192,128,132150,1,0
192,192,134175,1,0
192,192,134400,1,0
160,96,134775,1,0
224,160,135375,1,0
288,128,136050,1,0
288,128,136237,1,0
288,128,136537,1,0
192,192,138262,1,0
192,192,138600,1,0
192,192,138862,1,0
192,128,139200,1,0
256,160,139837,1,0
288,160,140175,1,0
288,128,141412,1,0
160,160,142050,1,0
224,128,142350,1,0
224,96,142725,1,0
416,96,143025,1,0
320,192,143962,1,0
256,160,144300,1,0
192,128,144900,1,0
160,192,145200,1,0
256,192,146175,1,0
352,192,146512,1,0
352,128,146850,1,0
128,128,147412,1,0
192,96,147750,1,0
224,64,148125,1,0
288,64,148425,1,0
224,192,149062,1,0
224,192,149212,1,0
192,160,149400,1,0
128,160,149812,1,0
96,32,150300,1,0
192,64,150900,1,0
256,160,151575,1,0
192,256,152212,1,0
128,192,152850,1,0
224,160,154125,1,0
160,96,155400,1,0
160,96,155662,1,0
256,128,156675,1,0
256,128,156975,1,0
352,128,157800,1,0
352,128,158137,1,0
288,192,158812,1,0
224,160,159300,1,0
160,128,159750,1,0
160,96,160237,1,0
256,96,160650,1,0
288,160,161325,1,0
256,224,161887,1,0
160,160,162337,1,0
192,96,162825,1,0
224,96,163237,1,0
288,160,163875,1,0
224,224,164437,1,0
128,192,164850,1,0
160,128,165075,1,0
224,96,165750,1,0
224,96,166125,1,0
224,96,166462,1,0
288,96,166762,1,0
288,96,166950,1,0
288,96,167100,1,0
288,96,167362,1,0
288,96,167700,1,0
288,192,168000,1,0
288,224,168300,1,0
288,224,168562,1,0
288,224,168787,1,0
288,224,168937,1,0
224,224,169275,1,0
224,224,169462,1,0
224,224,169612,1,0
224,192,169912,1,0
224,192,170175,1,0
224,192,170362,1,0
192,128,170850,1,0
192,128,171112,1,0
224,96,171412,1,0
256,96,171675,1,0
256,96,171975,1,0
288,128,172237,1,0
288,128,172387,1,0
288,160,172687,1,0
288,224,172987,1,0
224,224,173325,1,0
192,224,173512,1,0
160,192,173700,1,0
160,192,173962,1,0
160,160,174262,1,0
160,160,174487,1,0
160,128,174900,1,0
160,128,175087,1,0
160,128,175312,1,0
160,128,175537,1,0
128,64,175912,1,0
128,64,176212,1,0
128,64,176362,1,0
192,64,176662,1,0
256,96,177000,1,0
256,192,177337,1,0
192,256,177637,1,0
192,256,177787,1,0
160,192,178050,1,0
128,160,178387,1,0
128,160,178612,1,0
128,128,178800,1,0
160,128,178987,1,0
160,128,179137,1,0
160,128,179400,1,0
224,128,179662,1,0
224,128,179812,1,0
256,128,180037,1,0
256,128,180187,1,0
256,128,180375,1,0
224,64,180525,1,0
256,128,181012,1,0
288,160,181200,1,0
288,192,181387,1,0
288,224,181650,1,0
224,224,181912,1,0
160,192,182212,1,0
128,160,182437,1,0
192,64,182775,1,0
256,128,183037,1,0
320,224,183487,1,0
320,256,183712,1,0
288,256,183900,1,0
224,256,184125,1,0
192,224,184387,1,0
128,96,184762,1,0
160,96,184950,1,0
320,128,185250,1,0
416,160,185587,1,0
288,224,186262,1,0
288,224,186562,1,0
96,160,187125,1,0
128,64,187575,1,0
224,96,187987,1,0
256,192,188475,1,0
192,224,189112,1,0
128,128,189600,1,0
224,96,191062,1,0
224,96,191362,1,0
224,96,191700,1,0
224,96,192150,1,0
128,160,193200,1,0
128,160,193575,1,0
128,160,193875,1,0
128,160,194212,1,0
128,160,194400,1,0
128,160,194662,1,0
288,160,196012,1,0
224,96,196687,1,0
160,160,197025,1,0
224,192,197325,1,0
384,160,197962,1,0
352,96,198300,1,0
224,224,199537,1,0
160,192,199875,1,0
160,96,200437,1,0
256,96,200775,1,0
320,224,202087,1,0
288,224,202387,1,0
224,160,202800,1,0
192,96,203287,1,0
160,128,203625,1,0
320,192,204600,1,0
320,160,205012,1,0
224,128,205500,1,0
160,160,205837,1,0
288,128,206775,1,0
224,96,207075,1,0
192,64,207450,1,0
288,192,208050,1,0
288,192,208425,1,0
288,192,209362,1,0
288,192,209662,1,0
352,224,209962,1,0
352,160,210450,1,0
288,96,210937,1,0
160,96,211537,1,0
160,224,212175,1,0
288,192,212775,1,0
320,96,213450,1,0
192,192,214650,1,0
128,160,215737,1,0
128,160,216000,1,0
160,160,216487,1,0
224,160,220162,1,0
224,160,220687,1,0
224,160,221100,1,0
256,224,223200,1,0
288,224,223537,1,0
288,192,224250,1,0
352,192,224400,1,0
256,256,227325,1,0
224,224,227625,1,0
192,224,228187,1,0
160,224,229350,1,0
288,128,236850,1,4
32,128,237150,2,4,B|32:128|192:256|320:288|448:224|480:96,1,525
