osu file format v14

[General]
AudioFilename: disco.mp3
AudioLeadIn: 0
PreviewTime: 133090
Countdown: 1
SampleSet: Soft
StackLeniency: 0.7
Mode: 0
LetterboxInBreaks: 1
WidescreenStoryboard: 0

[Editor]
DistanceSpacing: 0.5
BeatDivisor: 8
GridSize: 4
TimelineZoom: 2.2

[Metadata]
Title:usual DISCO
TitleUnicode:普通DISCO
Artist:Luotianyi & Lenho
ArtistUnicode:洛天依 & 言和
Creator:Wing My Way
Version:Disco
Source:ilem
Tags:Vocaloid 刘婧荦 洛天依 イェンホー ルオ・テンイ
BeatmapID:676873
BeatmapSetID:301931

[Difficulty]
HPDrainRate:6
CircleSize:4
OverallDifficulty:8.3
ApproachRate:9.4
SliderMultiplier:2.8
SliderTickRate:2

[Events]
//Background and Video events
0,0,"BG.jpg",0,0
//Break Periods
2,63472,70369
//Storyboard Layer 0 (Background)
//Storyboard Layer 1 (Fail)
//Storyboard Layer 2 (Pass)
//Storyboard Layer 3 (Foreground)
//Storyboard Sound Samples

[TimingPoints]
0,545.454545454546,4,2,1,100,1,0
1636,-66.6666666666667,4,2,1,100,0,0
1909,-100,4,2,1,100,0,0
2727,-66.6666666666667,4,2,1,100,0,0
3000,-100,4,2,1,100,0,0
3818,-66.6666666666667,4,2,1,100,0,0
4090,-100,4,2,1,100,0,0
4909,-66.6666666666667,4,2,1,100,0,0
5181,-100,4,2,1,100,0,0
6000,-66.6666666666667,4,2,1,100,0,0
6272,-100,4,2,1,100,0,0
7090,-66.6666666666667,4,2,1,100,0,0
7363,-100,4,2,1,100,0,0
8181,-66.6666666666667,4,2,1,100,0,0
8454,-100,4,2,1,100,0,0
11454,-66.6666666666667,4,2,1,100,0,0
11727,-100,4,2,1,100,0,0
12545,-66.6666666666667,4,2,1,100,0,0
12818,-100,4,2,1,100,0,0
14727,-66.6666666666667,4,2,1,100,0,0
15000,-100,4,2,1,100,0,0
15818,-66.6666666666667,4,2,1,100,0,0
16363,-100,4,2,1,100,0,0
19090,-66.6666666666667,4,2,1,100,0,0
19363,-100,4,2,1,100,0,0
20181,-66.6666666666667,4,2,1,100,0,0
20454,-100,4,2,1,100,0,0
21272,-66.6666666666667,4,2,1,100,0,0
21545,-100,4,2,1,100,0,0
23454,-66.6666666666667,4,2,1,100,0,0
23727,-100,4,2,1,100,0,0
24545,-66.6666666666667,4,2,1,100,0,0
24954,-100,4,2,1,100,0,0
27818,-100,4,2,1,100,0,0
28909,-66.6666666666667,4,2,1,100,0,0
29181,-100,4,2,1,100,0,0
30545,-66.6666666666667,4,2,1,100,0,0
30818,-100,4,2,1,100,0,0
31090,-50,4,2,1,100,0,0
31500,-100,4,2,1,100,0,0
32727,-66.6666666666667,4,2,1,100,0,0
33272,-100,4,2,1,100,0,0
34363,-50,4,2,1,100,0,0
34909,-100,4,2,1,100,0,0
38181,-76.9230769230769,4,2,1,100,0,0
38318,-100,4,2,1,100,0,0
39545,-66.6666666666667,4,2,1,100,0,0
40636,-100,4,2,1,100,0,0
41454,-66.6666666666667,4,2,1,100,0,0
42000,-83.3333333333333,4,2,1,100,0,0
42545,-100,4,2,1,100,0,0
43090,-50,4,2,1,100,0,0
43636,-100,4,2,1,100,0,0
45818,-76.9230769230769,4,2,1,100,0,1
46636,-55.5555555555556,4,2,1,100,0,1
46840,-66.6666666666667,4,2,1,100,0,1
47454,-76.9230769230769,4,2,1,100,0,1
48000,-55.5555555555556,4,2,1,100,0,1
48272,-76.9230769230769,4,2,1,100,0,1
49363,-50,4,2,1,100,0,1
49636,-66.6666666666667,4,2,1,100,0,1
50181,-76.9230769230769,4,2,1,100,0,1
52363,-66.6666666666667,4,2,1,100,0,1
52636,-76.9230769230769,4,2,1,100,0,1
53454,-55.5555555555556,4,2,1,100,0,1
54545,-76.9230769230769,4,2,1,100,0,1
56727,-55.5555555555556,4,2,1,100,0,1
57204,-55.5555555555556,4,2,1,5,0,1
57272,-76.9230769230769,4,2,1,100,0,1
57477,-76.9230769230769,4,2,1,5,0,1
57545,-76.9230769230769,4,2,1,100,0,1
58363,-66.6666666666667,4,2,1,100,0,1
58636,-76.9230769230769,4,2,1,100,0,1
58909,-66.6666666666667,4,2,1,100,0,1
62181,-76.9230769230769,4,2,1,100,0,1
62727,-50,4,2,1,100,0,1
63000,-100,4,2,1,100,0,1
63272,-100,4,2,1,100,0,0
70909,-66.6666666666667,4,2,1,100,0,0
71454,-100,4,2,1,100,0,0
79636,-76.9230769230769,4,2,1,100,0,0
79909,-100,4,2,1,100,0,0
81272,-66.6666666666667,4,2,1,100,0,0
81545,-100,4,2,1,100,0,0
81818,-66.6666666666667,4,2,1,100,0,0
82090,-100,4,2,1,100,0,0
82909,-66.6666666666667,4,2,1,100,0,0
83454,-76.9230769230769,4,2,1,100,0,0
84272,-66.6666666666667,4,2,1,100,0,0
84681,-100,4,2,1,100,0,0
86727,-66.6666666666667,4,2,1,100,0,0
87272,-100,4,2,1,100,0,0
90000,-66.6666666666667,4,2,1,100,0,0
90409,-100,4,2,1,100,0,0
91090,-66.6666666666667,4,2,1,100,0,0
91227,-100,4,2,1,100,0,0
91914,-76.9230769230769,4,2,1,100,0,0
92181,-55.5555555555556,4,2,1,100,0,0
92454,-100,4,2,1,100,0,0
95454,-76.9230769230769,4,2,1,100,0,0
95863,-100,4,2,1,100,0,0
103090,-66.6666666666667,4,2,1,100,0,0
103227,-100,4,2,1,100,0,0
106909,-66.6666666666667,4,2,1,100,0,0
107045,-100,4,2,1,100,0,0
107454,-50,4,2,1,100,0,0
107659,-100,4,2,1,100,0,0
111681,-133.333333333333,4,2,1,100,0,0
111818,-50,4,2,1,100,0,0
111954,-100,4,2,1,100,0,0
112636,-200,4,2,1,100,0,0
112909,-66.6666666666667,4,2,1,100,0,0
113181,-100,4,2,1,100,0,0
113454,-76.9230769230769,4,2,1,100,0,0
113590,-76.9230769230769,4,2,1,100,0,0
114000,-66.6666666666667,4,2,1,100,0,0
114272,-100,4,2,1,100,0,0
115636,-76.9230769230769,4,2,1,100,0,1
116727,-66.6666666666667,4,2,1,100,0,1
117000,-76.9230769230769,4,2,1,100,0,1
117272,-50,4,2,1,100,0,1
117409,-76.9230769230769,4,2,1,100,0,1
117818,-66.6666666666667,4,2,1,100,0,1
118090,-76.9230769230769,4,2,1,100,0,1
124090,-200,4,2,1,100,0,1
124363,-76.9230769230769,4,2,1,100,0,1
133090,-100,4,2,1,100,0,0
133363,-100,4,2,1,100,0,1
134727,-66.6666666666667,4,2,1,100,0,1
134931,-133.333333333333,4,2,1,100,0,1
135136,-100,4,2,1,100,0,1
136909,-66.6666666666667,4,2,1,100,0,1
137113,-100,4,2,1,100,0,1
138000,-66.6666666666667,4,2,1,100,0,1
138272,-100,4,2,1,100,0,1
139636,-66.6666666666667,4,2,1,100,0,1
139909,-100,4,2,1,100,0,1
140181,-66.6666666666667,4,2,1,100,0,1
140318,-100,4,2,1,100,0,1
141272,-66.6666666666667,4,2,1,100,0,1
141340,-66.6666666666667,4,2,1,5,0,1
141409,-66.6666666666667,4,2,1,100,0,1
141477,-66.6666666666667,4,2,1,5,0,1
141545,-66.6666666666667,4,2,1,100,0,1
141613,-66.6666666666667,4,2,1,5,0,1
141681,-66.6666666666667,4,2,1,100,0,1
141750,-66.6666666666667,4,2,1,5,0,1
141815,-50,4,2,1,100,0,1
141954,-100,4,2,1,100,0,1
142090,-100,4,2,1,100,0,1
142363,-66.6666666666667,4,2,1,100,0,1
142636,-133.333333333333,4,2,1,100,0,1
142772,-100,4,2,1,100,0,1
143451,-66.6666666666667,4,2,1,100,0,1
143727,-133.333333333333,4,2,1,100,0,1
143863,-100,4,2,1,100,0,1
144000,-66.6666666666667,4,2,1,100,0,1
144409,-100,4,2,1,100,0,1
144818,-200,4,2,1,100,0,1
145295,-100,4,2,1,100,0,1
145636,-66.6666666666667,4,2,1,100,0,1
145772,-100,4,2,1,100,0,1
146181,-55.5555555555556,4,2,1,100,0,1
146318,-100,4,2,1,100,0,1
146727,-55.5555555555556,4,2,1,100,0,1
147000,-100,4,2,1,100,0,1
147272,-55.5555555555556,4,2,1,100,0,1
147477,-100,4,2,1,100,0,1
147818,-55.5555555555556,4,2,1,100,0,1
148022,-100,4,2,1,100,0,1
148363,-55.5555555555556,4,2,1,100,0,1
149181,-100,4,2,1,100,0,1
150272,-133.333333333333,4,2,1,100,0,1
150545,-133.333333333333,4,2,1,100,0,0
151363,-100,4,2,1,100,0,0
151636,-100,4,2,1,100,0,1
151909,-76.9230769230769,4,2,1,100,0,1
152454,-133.333333333333,4,2,1,100,0,1
152590,-76.9230769230769,4,2,1,100,0,1
154363,-55.5555555555556,4,2,1,100,0,1
154636,-133.333333333333,4,2,1,100,0,1
155113,-76.9230769230769,4,2,1,100,0,1
155454,-50,4,2,1,100,0,1
155727,-55.5555555555556,4,2,1,100,0,1
156000,-76.9230769230769,4,2,1,100,0,1
157636,-55.5555555555556,4,2,1,100,0,1
157909,-76.9230769230769,4,2,1,100,0,1
158727,-55.5555555555556,4,2,1,100,0,1
159000,-76.9230769230769,4,2,1,100,0,1
159272,-66.6666666666667,4,2,1,100,0,1
160090,-76.9230769230769,4,2,1,100,0,1
160363,-55.5555555555556,4,2,1,100,0,1
160500,-76.9230769230769,4,2,1,100,0,1
162545,-55.5555555555556,4,2,1,100,0,1
162818,-133.333333333333,4,2,1,100,0,1
163090,-55.5555555555556,4,2,1,100,0,1
163363,-133.333333333333,4,2,1,100,0,1
163909,-76.9230769230769,4,2,1,100,0,1
164181,-55.5555555555556,4,2,1,100,0,1
164454,-76.9230769230769,4,2,1,100,0,1
164727,-66.6666666666667,4,2,1,100,0,1
165000,-76.9230769230769,4,2,1,100,0,1
165272,-55.5555555555556,4,2,1,100,0,1
165477,-76.9230769230769,4,2,1,100,0,1
166363,-55.5555555555556,4,2,1,100,0,1
167181,-76.9230769230769,4,2,1,100,0,1
167454,-55.5555555555556,4,2,1,100,0,1
168545,-55.5555555555556,4,2,1,100,0,0
168818,-133.333333333333,4,2,1,100,0,0
169090,-76.9230769230769,4,2,1,100,0,1
170727,-55.5555555555556,4,2,1,100,0,1
171000,-133.333333333333,4,2,1,100,0,1
171272,-76.9230769230769,4,2,1,100,0,1
171818,-55.5555555555556,4,2,1,100,0,1
171954,-76.9230769230769,4,2,1,100,0,1
172363,-200,4,2,1,100,0,1
172909,-55.5555555555556,4,2,1,100,0,1
173181,-133.333333333333,4,2,1,100,0,1
173454,-76.9230769230769,4,2,1,100,0,1
176181,-55.5555555555556,4,2,1,100,0,1
176454,-133.333333333333,4,2,1,100,0,1
177000,-100,4,2,1,100,0,1
177272,-76.9230769230769,4,2,1,100,0,1
177340,-76.9230769230769,4,2,1,5,0,1
177409,-76.9230769230769,4,2,1,100,0,1
177477,-76.9230769230769,4,2,1,5,0,1
177545,-76.9230769230769,4,2,1,100,0,1
177613,-76.9230769230769,4,2,1,5,0,1
177681,-76.9230769230769,4,2,1,100,0,1
177818,-55.5555555555556,4,2,1,100,0,1
177954,-76.9230769230769,4,2,1,100,0,1
180000,-66.6666666666667,4,2,1,100,0,1
180204,-76.9230769230769,4,2,1,100,0,1
180537,-55.5555555555556,4,2,1,100,0,1
180818,-133.333333333333,4,2,1,100,0,1
181363,-76.9230769230769,4,2,1,100,0,1
181636,-55.5555555555556,4,2,1,100,0,1
181909,-76.9230769230769,4,2,1,100,0,1
182727,-55.5555555555556,4,2,1,100,0,1
182863,-76.9230769230769,4,2,1,100,0,1
183818,-55.5555555555556,4,2,1,100,0,1
183954,-76.9230769230769,4,2,1,100,0,1
184909,-55.5555555555556,4,2,1,100,0,1
185181,-76.9230769230769,4,2,1,100,0,1
186272,-100,4,2,1,100,0,1
186545,-100,4,2,1,100,0,0

[HitObjects]
96,44,0,5,0,0:0:0:0:
100,56,545,1,0,0:0:0:0:
104,68,1090,1,0,0:0:0:0:
72,216,1363,1,0,0:0:0:0:
208,148,1636,2,0,P|248:228|192:332,1,210.000008010865
88,220,2045,1,0,0:0:0:0:
344,143,2181,6,0,B|236:135|236:135|200:151,1,140
468,152,2727,6,0,L|248:136,1,210.000008010865
370,267,3272,6,0,P|362:160|314:128,1,140
144,112,3818,6,0,L|376:132,1,210.000008010865
144,112,4363,6,0,P|92:100|148:84,1,140
144,312,4909,6,0,B|144:272|144:272|152:260|152:260|144:248|144:248|144:184|144:184|136:172|136:172|144:160|144:160|144:96,1,210.000008010865
204,235,5454,6,0,B|256:235|256:235|288:207|288:207|232:207,1,140
36,208,6000,6,0,B|208:220|208:220|276:195,1,210.000008010865
488,80,6545,1,0,0:0:0:0:
328,116,6818,1,0,0:0:0:0:
396,244,7090,6,0,P|414:147|330:97,1,210.000008010865
64,116,7636,1,0,0:0:0:0:
308,200,7909,1,0,0:0:0:0:
104,220,8181,6,0,B|168:232|216:192|216:192|256:236|312:208,1,210.000008010865
396,244,8727,5,0,0:0:0:0:
120,208,9000,1,0,0:0:0:0:
504,64,9272,1,0,0:0:0:0:
236,104,9545,1,0,0:0:0:0:
400,252,9818,1,0,0:0:0:0:
264,80,10090,1,0,0:0:0:0:
260,312,10363,2,0,P|248:272|176:312,1,140
209,305,10704,6,0,L|149:293,1,35
44,224,10840,2,0,L|104:212,1,35
336,156,11181,1,0,0:0:0:0:
349,254,11454,6,0,B|325:194|325:194|337:150,1,105.000004005432
392,352,11727,1,0,0:0:0:0:
452,80,12000,2,0,L|448:120,1,35
496,320,12272,1,0,0:0:0:0:
139,246,12545,6,0,L|371:254,1,210.000008010865
248,276,13090,1,0,0:0:0:0:
188,48,13363,1,0,0:0:0:0:
24,208,13636,1,0,0:0:0:0:
388,188,13909,2,0,B|340:196|300:168|300:168|280:192|248:196,1,140
64,84,14454,2,0,P|80:100|100:100,1,35
112,208,14590,2,0,P|134:211|150:199,1,35
322,54,14727,6,0,P|270:62|286:206,1,210.000008010865
112,208,15272,6,0,B|144:188|144:188|264:208,1,140
317,160,15818,6,0,P|261:164|245:208,1,105.000004005432
347,239,16090,2,0,P|307:209|316:159,2,105.000004005432
158,115,16636,2,0,P|136:152|160:184,1,70
411,181,16909,2,0,B|380:176|380:176|340:124|340:124|316:159,1,140
56,300,17454,6,0,L|220:296,2,140
56,300,18272,1,0,0:0:0:0:
360,124,18545,2,0,B|348:188|364:244|364:244|376:208,1,140
392,208,19090,6,0,B|416:236|432:188|400:156|348:164|340:204|312:240|276:232|236:188,1,210.000008010865
252,203,19636,5,0,0:0:0:0:
376,32,19909,1,0,0:0:0:0:
392,208,20182,6,0,B|344:208|344:208|308:184|308:184|264:232|232:208|232:208|228:180|264:188,1,210.000008010865
128,288,20728,2,0,L|168:284,1,35
240,68,21000,1,0,0:0:0:0:
232,277,21273,6,0,L|239:67,1,210.000008010865
128,188,21818,1,0,0:0:0:0:
392,128,22091,1,0,0:0:0:0:
232,48,22363,1,0,0:0:0:0:
262,315,22637,2,0,B|254:267|282:227|282:227|258:207|254:175,1,140
324,52,23182,2,0,P|308:68|308:88,1,35
128,188,23318,2,0,P|124:165|136:149,1,35
395,249,23455,6,0,P|387:197|243:213,1,210.000008010865
242,39,24000,6,0,B|262:71|262:71|242:191,1,140
290,244,24546,6,0,P|286:188|242:172,1,105.000004005432
48,157,24818,2,0,P|78:197|128:188,1,105.000004005432
127,188,25090,1,0,0:0:0:0:
242,39,25364,5,0,0:0:0:0:
128,188,25500,1,0,0:0:0:0:
416,132,25637,2,0,L|276:140,1,140
161,307,26181,2,0,P|118:255|128:188,1,140
292,128,26727,1,0,0:0:0:0:
292,128,27272,2,0,P|228:152|140:128,1,140
156,158,27818,6,0,B|168:124|144:92|144:92|160:56|144:24,1,140
140,16,28363,5,0,0:0:0:0:
418,41,28636,2,0,P|385:50|368:80,1,70
280,172,28909,6,0,P|228:120|120:112,1,157.500006008148
120,116,29181,1,0,0:0:0:0:
292,152,29318,6,0,P|276:188|296:224,1,70
264,312,29727,1,0,0:0:0:0:
472,236,30000,1,0,0:0:0:0:
356,140,30272,6,0,P|325:155|291:151,1,70
286,11,30545,6,0,P|350:63|267:149,1,210.000008010865
120,112,31090,6,0,B|96:188|96:188|104:244|92:320|92:320|152:256,1,280
144,108,31500,6,0,L|112:188,1,70
392,340,31909,6,0,B|344:328|344:328|288:340|288:340|328:292,1,140
453,262,32454,2,0,P|447:228|460:196,1,70
300,110,32727,6,0,B|288:184|288:184|304:248|304:248|288:316,2,210.000008010865
400,180,33545,1,0,0:0:0:0:
204,186,33818,2,0,B|144:192|144:192|160:136,1,105
160,128,34090,1,0,0:0:0:0:
60,252,34227,1,0,0:0:0:0:
364,284,34363,6,0,B|336:288|316:268|316:268|268:288|228:272|228:272|248:320|208:360,1,210
225,336,34636,2,0,B|214:310|256:279|256:279|213:272|180:229|180:229|184:184|240:160|288:212,1,280
84,248,35181,1,0,0:0:0:0:
372,188,35318,1,0,0:0:0:0:
256,104,35454,6,0,P|280:136|296:112,1,70
172,24,35727,2,0,P|120:52|136:116,1,105
216,116,36000,2,0,P|240:160|184:256,1,140
208,332,36545,6,0,B|127:343|127:343|51:287|51:287|136:284,1,245
136,284,37090,1,0,0:0:0:0:
415,250,37363,2,0,P|428:282|420:316,1,70
217,320,37636,2,0,P|234:271|216:224,1,105
204,208,37909,1,0,0:0:0:0:
136,284,38045,1,0,0:0:0:0:
68,52,38181,6,0,P|50:93|61:136,1,90.9999958343508
176,112,38454,6,0,B|216:88|216:88|260:116|260:116|312:116,1,140
376,184,39000,1,0,0:0:0:0:
328,8,39136,1,0,0:0:0:0:
232,60,39272,2,0,P|254:110|236:169,1,105
136,208,39545,6,0,P|80:172|168:168,1,210.000008010865
464,296,40090,1,0,0:0:0:0:
264,320,40227,2,0,P|292:272|272:220,1,105.000004005432
196,24,40636,2,0,B|188:68|188:68|200:104|200:104|192:152,1,105
208,152,40909,1,0,0:0:0:0:
204,12,41045,1,0,0:0:0:0:
124,296,41181,1,0,0:0:0:0:
328,144,41318,1,0,0:0:0:0:
68,176,41454,6,0,B|132:228|181:208|220:180|220:180|208:221,2,210.000008010865
208,221,42272,2,0,B|220:184|220:184|264:204,1,83.9999974365235
380,280,42545,2,0,B|348:312|348:312|344:276,1,70
216,168,42818,1,0,0:0:0:0:
212,196,42954,1,0,0:0:0:0:
68,120,43090,6,0,P|64:36|100:108,1,210
240,132,43363,2,0,P|252:72|216:-8,1,140
164,236,43636,2,0,L|80:236,1,70
408,240,43909,1,0,0:0:0:0:
440,240,44045,1,0,0:0:0:0:
148,212,44181,2,0,P|108:256|176:312,1,140
148,212,44727,2,0,P|89:219|105:306,1,140
148,212,45272,5,0,0:0:0:0:
119,191,45409,1,0,0:0:0:0:
85,185,45545,5,0,0:0:0:0:
52,194,45613,1,0,0:0:0:0:
26,217,45681,1,0,0:0:0:0:
12,249,45749,1,0,0:0:0:0:
13,284,45818,1,0,0:0:0:0:
148,40,46090,6,0,B|164:72|164:72|160:104|160:104|172:140,1,90.9999958343508
292,128,46363,2,0,B|307:179|307:179|336:152,1,90.9999958343508
304,96,46636,6,0,P|260:52|220:152,1,188.999994232178
288,88,46909,6,0,P|234:84|216:133,1,105.000004005432
320,340,47181,2,0,B|290:269|290:269|352:289,1,105.000004005432
472,272,47454,6,0,B|499:269|499:269|487:329|487:329|419:293,1,136.499993751526
408,168,47727,2,0,B|421:151|413:113|413:113|396:145|399:168,1,90.9999958343508
388,244,48000,6,0,B|359:245|336:216|336:216|296:240|232:224|232:224|256:272|232:316,1,251.999992309571
276,112,48409,1,0,0:0:0:0:
288,88,48545,1,0,0:0:0:0:
132,352,48818,6,0,B|124:316|152:272|152:272|120:224|136:160,1,181.999991668702
112,64,49363,6,0,B|156:32|200:52|200:52|200:92|232:104,1,140
252,120,49568,1,0,0:0:0:0:
312,124,49636,6,0,B|308:188|308:188|228:216|228:216|172:168,1,210.000008010865
471,207,50181,6,0,P|469:252|433:278,1,90.9999958343508
148,320,50454,2,0,P|175:354|219:356,1,90.9999958343508
471,207,50727,2,0,P|496:243|485:285,1,90.9999958343508
148,320,51000,2,0,P|191:329|226:302,1,90.9999958343508
272,96,51272,5,0,0:0:0:0:
272,96,51545,1,0,0:0:0:0:
228,304,51681,1,0,0:0:0:0:
276,72,51818,2,0,L|380:88,1,90.9999958343508
116,148,52090,2,0,L|220:164,1,90.9999958343508
108,56,52363,6,0,P|44:84|68:216,1,210.000008010865
184,292,52772,1,0,0:0:0:0:
376,252,52909,6,0,P|408:284|464:284,1,90.9999958343508
328,128,53181,1,0,0:0:0:0:
280,276,53318,1,0,0:0:0:0:
289,151,53454,6,0,B|357:145|404:189|402:243|402:243|353:231|324:208,1,251.999992309571
216,32,54000,2,0,P|104:84|172:176,1,251.999992309571
408,236,54545,6,0,B|456:252|456:252|424:272|412:240,1,90.9999958343508
288,148,54818,2,0,B|220:132|220:132|236:164,1,90.9999958343508
272,316,55090,2,0,B|328:332|328:332|312:296,1,90.9999958343508
400,112,55363,1,0,0:0:0:0:
424,248,55500,1,0,0:0:0:0:
328,52,55636,6,0,B|299:60|299:60|272:52|272:52|224:64,1,90.9999958343508
68,108,55909,2,0,B|96:116|96:116|124:108|124:108|172:120,1,90.9999958343508
328,244,56181,2,0,B|264:240|264:240|232:208,1,90.9999958343508
72,120,56454,2,0,B|100:128|100:128|128:120|128:120|176:132,1,90.9999958343508
384,176,56727,6,0,P|444:244|372:328,1,188.999994232178
328,260,57000,2,0,P|268:224|224:264,1,125.999996154785
152,320,57204,2,0,P|152:340|164:316,1,62.9999980773926
232,192,57409,2,0,P|240:216|232:236,1,45.4999979171754
352,168,57545,6,0,B|293:136|321:48|321:48|285:72|233:76|197:56|197:56|157:92,1,318.499985420228
428,56,58090,2,0,P|416:100|464:140,1,90.9999958343508
160,332,58363,2,0,L|160:224,1,105.000004005432
152,320,58636,2,0,L|152:229,1,90.9999958343508
36,56,58909,6,0,P|92:80|200:52,1,157.500006008148
424,168,59181,2,0,P|348:187|275:161,1,157.500006008148
152,0,59454,2,0,P|132:75|158:148,1,157.500006008148
339,364,59726,2,0,P|365:290|346:215,1,157.500006008148
56,260,60000,2,0,L|244:252,1,157.500006008148
424,168,60272,1,0,0:0:0:0:
480,268,60409,1,0,0:0:0:0:
164,72,60545,2,0,B|176:112|176:112|160:152|160:152|196:208|164:288,1,210.000008010865
180,292,60954,1,0,0:0:0:0:
180,44,61090,5,0,0:0:0:0:
424,168,61363,1,0,0:0:0:0:
328,228,61636,2,0,P|300:172|376:52,1,210.000008010865
236,292,62181,6,0,P|316:340|436:328,1,181.999991668702
88,80,62727,6,0,P|40:160|96:352,2,280
372,264,70909,6,0,B|336:254|322:233|322:233|269:259|240:201|240:201|198:214|198:214|149:241|93:204|99:156|99:156|120:124|164:144|128:180,1,420.000016021729
240,208,71727,1,0,0:0:0:0:
368,72,72000,6,0,L|360:152,1,70
284,316,72272,2,0,L|276:236,2,70
208,72,72681,5,0,0:0:0:0:
204,106,72749,1,0,0:0:0:0:
201,141,72817,1,0,0:0:0:0:
108,240,72954,5,0,0:0:0:0:
201,141,73090,1,0,0:0:0:0:
192,344,73227,1,0,0:0:0:0:
244,228,73363,1,0,0:0:0:0:
36,144,73500,2,0,P|84:112|112:136,1,70
322,165,73772,6,0,L|332:216,2,35
296,36,74045,1,0,0:0:0:0:
201,141,74181,1,0,0:0:0:0:
392,112,74318,1,0,0:0:0:0:
276,12,74454,1,0,0:0:0:0:
324,280,74590,2,0,B|336:304|320:336|320:336|304:308,1,70
53,71,74863,5,0,0:0:0:0:
32,104,74931,1,0,0:0:0:0:
37,143,75000,1,0,0:0:0:0:
112,252,75136,5,0,0:0:0:0:
236,136,75272,1,0,0:0:0:0:
92,56,75409,1,0,0:0:0:0:
176,320,75545,1,0,0:0:0:0:
360,88,75681,1,0,0:0:0:0:
164,340,75818,6,0,B|252:364|252:364|272:328|232:312,1,140
176,320,76159,5,0,0:0:0:0:
164,340,76227,1,0,0:0:0:0:
324,284,76363,5,0,0:0:0:0:
316,248,76432,1,0,0:0:0:0:
308,212,76500,1,0,0:0:0:0:
376,160,76636,5,0,0:0:0:0:
368,124,76705,1,0,0:0:0:0:
360,88,76773,1,0,0:0:0:0:
440,8,76909,2,0,L|464:104,1,70
324,284,77181,1,0,0:0:0:0:
316,248,77250,1,0,0:0:0:0:
308,212,77318,1,0,0:0:0:0:
88,96,77454,5,0,0:0:0:0:
116,76,77522,1,0,0:0:0:0:
152,80,77590,1,0,0:0:0:0:
328,116,77727,5,0,0:0:0:0:
292,112,77795,1,0,0:0:0:0:
264,132,77863,1,0,0:0:0:0:
152,100,78000,2,0,P|148:124|172:144,2,35
170,311,78272,5,0,0:0:0:0:
184,280,78340,1,0,0:0:0:0:
172,245,78408,1,0,0:0:0:0:
328,53,78545,5,0,0:0:0:0:
316,88,78613,1,0,0:0:0:0:
330,119,78681,1,0,0:0:0:0:
388,224,78818,6,0,L|448:232,2,35
96,180,79090,1,0,0:0:0:0:
220,16,79227,1,0,0:0:0:0:
312,312,79363,5,0,0:0:0:0:
316,308,79431,1,0,0:0:0:0:
308,308,79500,1,0,0:0:0:0:
24,268,79636,6,0,B|25:228|25:228|9:180|9:180|25:128|25:128|24:84,2,181.999991668702
56,52,80454,1,0,0:0:0:0:
152,208,80727,6,0,B|164:244|164:244|148:296,1,70
56,52,81000,2,0,B|86:61|86:61|122:49,1,70
176,120,81272,6,0,B|292:92|292:92|272:132,1,157.500006008148
274,126,81545,2,0,B|298:90|298:90|342:114,1,70
368,184,81818,2,0,B|396:252|372:344|372:344|364:316|368:276,1,210.000008010865
376,284,82227,1,0,0:0:0:0:
376,284,82363,2,0,B|408:260|408:260|512:276,1,140
396,168,82772,1,0,0:0:0:0:
288,96,82909,6,0,B|232:56|184:88|184:88|144:144|96:120,1,210.000008010865
120,32,83318,1,0,0:0:0:0:
204,28,83454,6,0,P|216:72|200:132,2,90.9999958343508
120,152,83863,2,0,B|96:204|88:252|88:252|148:264|136:208,1,181.999991668702
128,172,84272,6,0,P|184:160|232:192,1,105.000004005432
248,256,84545,2,0,P|304:268|352:236,1,105.000004005432
420,56,84818,6,0,B|408:96|408:96|420:132,1,70
428,328,85090,2,0,B|460:276|460:276|436:196,1,140
264,96,85500,1,0,0:0:0:0:
264,96,85636,2,0,L|284:164,1,70
288,312,85909,2,0,P|304:284|272:288,1,70
168,352,86181,2,0,B|96:340|76:272|76:272|96:232|176:256,1,210
288,312,86727,6,0,P|300:248|280:204,1,105.000004005432
292,176,87000,2,0,B|244:208|208:192|208:192|236:160,1,105.000004005432
364,116,87272,6,0,P|388:148|388:184,1,70
436,344,87545,2,0,P|456:315|459:281,1,70
440,68,87818,2,0,P|460:96|463:130,1,70
404,216,88090,1,0,0:0:0:0:
152,160,88227,1,0,0:0:0:0:
308,12,88363,2,0,P|336:56|288:132,1,140
232,64,88772,1,0,0:0:0:0:
76,60,88909,6,0,B|83:94|83:94|68:164|68:164|80:208,1,140
96,240,89318,1,0,0:0:0:0:
90,344,89454,2,0,L|104:276,2,70
412,64,90000,6,0,B|324:44|248:72|248:72|284:88|320:76,1,210.000008010865
344,88,90340,1,0,0:0:0:0:
416,52,90409,6,0,L|420:136,1,70
360,348,90818,1,0,0:0:0:0:
400,184,90954,1,0,0:0:0:0:
408,276,91090,6,0,L|276:264,1,105.000004005432
64,128,91363,1,0,0:0:0:0:
80,160,91500,1,0,0:0:0:0:
40,312,91636,2,0,B|68:248|68:248|76:284,1,105
16,328,91909,6,0,B|88:356|88:356|120:328,1,105
184,176,92181,6,0,B|212:228|184:272|184:272|220:316|184:384,1,188.999994232178
280,88,92454,2,0,P|284:60|256:80,1,70
336,336,92727,6,0,B|388:344|388:344|420:308|420:308|372:300,1,140
80,252,93136,1,0,0:0:0:0:
336,336,93272,1,0,0:0:0:0:
304,104,93409,1,0,0:0:0:0:
164,160,93545,2,0,P|152:132|148:168,1,70
4,352,93818,6,0,B|56:388|100:316|160:360,1,140
448,356,94363,1,0,0:0:0:0:
440,340,94636,1,0,0:0:0:0:
416,224,94772,1,0,0:0:0:0:
216,352,94909,2,0,B|233:285|203:219|203:219|191:254|199:298,1,210
198,292,95454,6,0,B|152:260|152:260|60:280,1,136.499993751526
72,296,95727,2,0,P|48:256|56:208,1,90.9999958343508
136,92,96000,6,0,P|188:128|272:96,1,140
80,12,96545,2,0,P|44:64|76:148,1,140
200,292,97090,1,0,0:0:0:0:
332,64,97363,1,0,0:0:0:0:
136,92,97636,6,0,L|140:168,1,70
200,292,97909,2,0,L|196:222,1,70
148,68,98181,5,0,0:0:0:0:
48,256,98454,1,0,0:0:0:0:
336,208,98727,2,0,L|344:320,1,105
352,336,99000,1,0,0:0:0:0:
312,188,99136,2,0,B|268:180|268:180|300:164,1,70
480,72,99545,1,0,0:0:0:0:
324,360,99818,1,0,0:0:0:0:
496,208,100090,1,0,0:0:0:0:
320,36,100227,1,0,0:0:0:0:
160,4,100363,6,0,P|140:68|172:152,1,140
108,72,100772,1,0,0:0:0:0:
64,148,100909,2,0,P|112:184|172:160,1,105
236,104,101181,1,0,0:0:0:0:
164,272,101318,2,0,L|172:192,1,70
264,344,101590,2,0,L|272:264,2,70
388,8,102000,1,0,0:0:0:0:
476,292,102272,5,0,0:0:0:0:
444,276,102409,1,0,0:0:0:0:
340,208,102545,2,0,B|248:204|248:204|296:228,1,140
356,232,103090,6,0,P|373:183|356:134,1,105.000004005432
336,116,103363,6,0,L|256:132,1,70
80,200,103636,1,0,0:0:0:0:
104,212,103909,1,0,0:0:0:0:
336,116,104045,1,0,0:0:0:0:
208,36,104181,2,0,P|176:36|196:56,1,70
336,116,104454,2,0,P|369:122|402:110,1,70
208,36,104727,6,0,P|136:60|144:136,1,140
208,36,105272,2,0,P|133:19|72:56,1,140
12,160,105818,1,0,0:0:0:0:
324,64,106090,1,0,0:0:0:0:
112,100,106363,6,0,B|200:72|200:72|244:120,1,140
151,253,106909,6,0,P|128:209|164:176,1,105.000004005432
228,232,107181,6,0,B|252:272|252:272|268:248,1,70
332,88,107454,6,0,B|372:124|356:184|356:184|392:232|360:292,1,210
456,160,107727,6,0,P|456:120|420:76,1,70
388,16,108000,1,0,0:0:0:0:
456,312,108272,1,0,0:0:0:0:
168,176,108545,2,0,P|172:132|212:112,1,70
336,196,108818,1,0,0:0:0:0:
236,280,108954,1,0,0:0:0:0:
168,176,109090,6,0,B|162:133|162:133|122:113,1,70
80,260,109363,2,0,L|100:352,1,70
64,80,109636,2,0,P|92:40|148:44,1,105
152,56,109909,1,0,0:0:0:0:
72,284,110045,1,0,0:0:0:0:
304,160,110181,2,0,B|256:156|256:156|212:176|212:176|168:176,1,140
156,188,110590,1,0,0:0:0:0:
244,56,110727,5,0,0:0:0:0:
268,280,110863,1,0,0:0:0:0:
24,216,111000,2,0,P|24:184|48:196,1,70
393,289,111272,2,0,B|341:289|301:257|301:257|268:280,1,140
384,272,111681,6,0,L|384:244,1,26.2500010013581
464,84,111818,6,0,B|468:132|468:132|456:180|456:180|456:228,1,140
456,222,112090,1,0,0:0:0:0:
256,132,112227,1,0,0:0:0:0:
36,32,112363,1,0,0:0:0:0:
88,104,112500,1,0,0:0:0:0:
124,20,112636,6,0,P|144:16|128:40,1,52.5000020027161
64,112,112909,6,0,B|72:236|72:236|44:208,1,157.500006008148
64,204,113181,6,0,P|100:188|144:204,1,70
248,152,113454,6,0,B|228:200|228:200|264:252,1,90.9999958343508
288,64,113727,1,0,0:0:0:0:
272,36,113863,1,0,0:0:0:0:
372,188,114000,6,0,P|396:260|356:204,1,210.000008010865
388,220,114409,1,0,0:0:0:0:
440,96,114545,1,0,0:0:0:0:
476,344,114818,1,0,0:0:0:0:
304,320,115090,2,0,B|292:288|292:288|312:240,1,70
440,96,115363,5,0,0:0:0:0:
405,129,115431,1,0,0:0:0:0:
360,142,115499,1,0,0:0:0:0:
312,130,115567,1,0,0:0:0:0:
278,97,115635,1,0,0:0:0:0:
176,160,115909,6,0,P|132:84|184:12,1,181.999991668702
360,142,116454,2,0,B|376:208|376:208|348:188,1,90.9999958343508
176,176,116727,6,0,B|160:224|160:224|204:344,1,157.500006008148
204,344,117000,6,0,B|228:328|228:328|296:348,1,90.9999958343508
435,253,117272,6,0,P|427:186|368:156,1,140
432,68,117545,2,0,P|494:81|490:105,1,90.9999958343508
360,140,117818,6,0,B|312:136|312:136|276:168|276:168|276:264|192:260,1,210.000008010865
192,160,118227,6,0,P|220:132|244:180,2,90.9999958343508
120,320,118636,2,0,B|184:316|184:316|236:348|236:348|296:344,1,181.999991668702
392,280,119181,2,0,P|412:328|400:372,1,90.9999958343508
292,224,119454,2,0,P|312:176|300:132,2,90.9999958343508
416,108,120000,6,0,L|320:116,1,90.9999958343508
100,136,120272,2,0,L|196:144,1,90.9999958343508
188,32,120545,2,0,P|176:76|196:128,1,90.9999958343508
216,348,120817,2,0,P|236:304|224:252,1,90.9999958343508
480,292,121090,2,0,P|424:320|312:284,1,181.999991668702
400,140,121500,1,0,0:0:0:0:
479,299,121636,2,0,P|423:327|311:291,1,181.999991668702
180,72,122045,1,0,0:0:0:0:
172,40,122181,6,0,P|220:76|148:68,1,181.999991668702
180,72,122590,1,0,0:0:0:0:
180,72,122727,2,0,B|184:120|184:120|160:192|160:192|164:260,1,181.999991668702
36,144,123136,1,0,0:0:0:0:
120,304,123272,6,0,B|212:260|264:284|260:340|204:300,1,181.999991668702
308,224,123818,2,0,P|356:268|356:336,1,136.499993751526
308,224,124090,6,0,P|280:224|256:204,1,52.5
448,184,124363,5,0,0:0:0:0:
360,92,124500,1,0,0:0:0:0:
484,48,124636,1,0,0:0:0:0:
344,84,124773,1,0,0:0:0:0:
380,288,124909,2,0,P|348:264|288:276,1,90.9999958343508
299,268,125113,1,0,0:0:0:0:
299,268,125181,1,0,0:0:0:0:
367,163,125318,1,0,0:0:0:0:
380,288,125454,6,0,P|424:282|460:307,1,90.9999958343508
448,184,125727,2,0,P|411:158|367:164,1,90.9999958343508
220,116,126000,2,0,B|216:220|216:220|236:188,1,136.499993751526
182,267,126272,2,0,L|233:192,1,90.9999958343508
344,176,126545,6,0,B|216:144|216:144|152:172,1,181.999991668702
308,68,126954,1,0,0:0:0:0:
308,352,127090,2,0,P|320:296|308:260,1,90.9999958343508
300,252,127295,1,0,0:0:0:0:
300,252,127363,1,0,0:0:0:0:
196,376,127500,1,0,0:0:0:0:
300,252,127636,5,0,0:0:0:0:
196,376,127772,1,0,0:0:0:0:
104,164,127909,5,0,0:0:0:0:
95,324,128045,1,0,0:0:0:0:
92,184,128181,2,0,B|76:128|104:60|104:60|120:104|108:128,1,181.999991668702
104,164,128522,1,0,0:0:0:0:
92,184,128590,1,0,0:0:0:0:
360,104,128727,6,0,L|256:112,1,90.9999958343508
269,110,128931,1,0,0:0:0:0:
269,110,129000,1,0,0:0:0:0:
476,64,129136,1,0,0:0:0:0:
456,348,129272,6,0,P|428:292|460:212,1,136.499993751526
468,212,129545,2,0,L|480:268,2,45.4999979171754
208,300,129818,6,0,L|316:292,1,90.9999958343508
308,304,130022,1,0,0:0:0:0:
308,304,130090,1,0,0:0:0:0:
272,120,130227,1,0,0:0:0:0:
108,224,130363,6,0,P|80:276|108:360,1,136.499993751526
212,344,130636,1,0,0:0:0:0:
216,320,130704,1,0,0:0:0:0:
208,300,130772,1,0,0:0:0:0:
108,224,130909,6,0,P|80:276|108:360,1,136.499993751526
97,348,131181,2,0,L|41:344,2,45.4999979171754
296,208,131454,2,0,L|372:200,2,45.4999979171754
364,120,131727,2,0,L|440:112,2,45.4999979171754
409,115,132000,6,0,B|312:124|312:124|276:108|304:76|304:76|340:108,1,181.999991668702
416,80,132545,1,0,0:0:0:0:
368,304,132681,1,0,0:0:0:0:
280,192,132818,2,0,P|340:192|276:168,1,181.999991668702
104,76,133363,6,0,L|192:68,1,70
32,184,133636,2,0,L|120:176,1,70
112,184,133909,2,0,P|80:200|112:200,1,70
212,324,134181,5,0,0:0:0:0:
120,204,134318,1,0,0:0:0:0:
8,312,134454,2,0,B|56:328|56:328|96:308,1,70
252,232,134727,6,0,P|320:288|300:348,1,157.500006008148
302,344,135000,6,0,L|348:300,1,52.5000020027161
262,162,135272,6,0,L|252:232,1,70
356,72,135545,2,0,L|345:141,1,70
448,12,135818,1,0,0:0:0:0:
372,240,135954,1,0,0:0:0:0:
472,132,136090,2,0,B|488:184|488:184|472:176,1,70
332,64,136363,2,0,B|288:52|288:52|236:76|236:76|232:116,1,140
240,128,136704,2,0,L|244:84,1,35
148,64,136909,6,0,B|136:116|136:116|144:168|144:168|128:224,1,157.500006008148
54,137,137181,6,0,B|48:108|48:108|64:72,1,70
309,120,137454,2,0,L|233:128,1,70
54,137,137727,2,0,L|123:144,1,70
232,304,138000,6,0,B|198:248|270:208|226:152,1,157.500006008148
224,144,138272,6,0,P|208:200|224:212,1,70
284,64,138545,2,0,P|324:64|316:100,1,70
308,44,138818,2,0,P|279:28|260:54,1,70,0|0,0:0|2:0,0:0:0:0:
388,256,139090,2,0,P|356:208|384:152,1,105
404,194,139363,2,0,P|384:221|388:256,1,70
188,308,139636,6,0,B|236:296|236:296|300:316|300:316|264:272,1,157.500006008148
240,136,139909,6,0,P|224:172|256:184,1,70
268,68,140181,6,0,L|248:196,1,105.000004005432
140,208,140454,2,0,B|184:184|184:184|248:192|248:192|226:205,2,140
344,292,141136,1,0,0:0:0:0:
384,56,141272,6,0,P|352:56|336:76,1,52.5000020027161
268,68,141409,2,0,P|298:76|308:100,1,52.5000020027161
408,148,141545,2,0,P|384:169|386:195,1,52.5000020027161
260,156,141681,2,0,P|276:183|266:207,1,52.5000020027161
352,280,141818,6,0,P|308:232|228:240,1,140
136,64,142090,6,0,P|112:104|128:128,1,70
48,192,142363,6,0,P|104:144|180:184,1,157.500006008148
173,173,142636,6,0,P|192:156|208:172,1,52.5000020027161
204,264,142909,6,0,B|212:188|212:188|224:216,1,105
264,320,143181,2,0,P|216:344|196:336,1,70
289,223,143454,6,0,P|267:297|203:340,1,157.500006008148
248,152,143727,6,0,P|272:136|312:144,1,52.5000020027161
412,96,144000,6,0,B|424:136|412:220|412:220|432:176,1,157.500006008148
464,104,144272,2,0,P|432:52|404:76,1,105.000004005432
232,88,144545,6,0,P|256:116|280:92,1,70
112,28,144818,6,0,B|96:112|96:112|112:148,1,122.5
112,136,145363,6,0,P|76:136|92:168,1,70
208,180,145636,6,0,P|196:232|240:244,1,105.000004005432
192,240,145909,6,0,P|160:220|132:244,1,70
244,304,146181,6,0,P|233:243|266:190,1,125.999996154785
400,52,146454,6,0,P|408:96|400:132,1,70
408,264,146727,6,0,B|392:196|404:120|404:120|428:152|408:188,1,188.999994232178
348,136,147000,6,0,P|392:168|412:152,1,70
248,80,147272,6,0,B|180:64|104:76|104:76|136:100|172:80,1,188.999994232178
248,80,147545,6,0,P|184:72|160:72,1,70
220,304,147818,6,0,B|256:176|256:176|308:148,1,188.999994232178
235,153,148090,6,0,L|311:149,1,70
456,228,148363,6,0,B|368:192|264:176|280:352|392:268|340:228,1,251.999992309571
312,32,148772,1,0,0:0:0:0:
436,104,148909,6,0,B|392:72|392:72|296:116|228:104|252:4|328:24|288:80,1,251.999992309571
268,264,149318,1,0,0:0:0:0:
168,88,149454,6,0,P|148:40|180:80,2,140
268,264,150136,1,0,0:0:0:0:
64,192,150272,6,0,B|164:228|200:184|176:148|140:188,1,157.500006008148
96,264,150750,1,0,0:0:0:0:
116,248,150818,1,0,0:0:0:0:
216,96,151090,5,0,0:0:0:0:
408,72,151227,1,0,0:0:0:0:
216,96,151363,6,0,L|208:144,1,35
464,132,151500,2,0,L|469:166,1,35
228,148,151636,2,0,L|205:191,1,35
396,264,151909,6,0,L|496:276,1,90.9999958343508
224,336,152181,2,0,L|336:348,1,90.9999958343508
232,280,152454,6,0,P|212:308|232:336,1,52.5000020027161
280,140,152727,2,0,P|304:184|292:228,2,90.9999958343508
232,40,153136,1,0,0:0:0:0:
408,120,153272,6,0,L|508:132,1,90.9999958343508
232,40,153545,2,0,L|332:52,1,90.9999958343508
168,164,153818,6,0,P|144:128|160:72,1,90.9999958343508
104,180,154090,2,0,P|146:188|174:239,1,90.9999958343508
276,248,154363,6,0,P|188:260|156:224,1,125.999996154785
348,188,154636,6,0,B|380:220|360:272|360:272|388:316|368:384,1,183.750007009506
284,336,155181,1,0,0:0:0:0:
400,112,155318,1,0,0:0:0:0:
480,256,155454,6,0,P|408:284|364:228,1,140
368,246,155727,6,0,P|296:274|252:228,1,125.999996154785
244,192,156000,6,0,L|232:296,1,90.9999958343508
172,64,156272,2,0,L|161:154,1,90.9999958343508
432,292,156545,6,0,L|443:202,1,90.9999958343508
360,164,156817,2,0,L|371:74,1,90.9999958343508
392,56,157090,5,0,0:0:0:0:
392,56,157363,1,0,0:0:0:0:
152,80,157500,1,0,0:0:0:0:
420,48,157636,6,0,B|400:112|400:112|404:180|404:180|384:248,1,188.999994232178
472,332,157909,6,0,B|491:291|491:291|492:236,1,90.9999958343508
360,163,158181,6,0,P|316:169|288:136,1,90.9999958343508
392,280,158454,2,0,P|435:274|464:307,1,90.9999958343508
344,180,158727,6,0,B|284:160|284:160|224:220|178:206|188:160|228:188,1,188.999994232178
240,64,159000,6,0,P|196:56|244:76,1,136.499993751526
240,64,159272,6,0,P|172:48|132:176,1,210.000008010865
28,176,159818,2,0,B|104:128|180:156|180:156|124:172,1,210.000008010865
104,292,160363,6,0,P|144:228|132:176,1,125.999996154785
72,292,160636,6,0,P|100:332|144:324,1,90.9999958343508
264,224,160909,2,0,B|256:280|256:280|264:324|264:324|256:372,1,136.499993751526
436,280,161181,2,0,P|395:294|370:260,1,90.9999958343508
320,108,161454,2,0,B|352:92|392:116|392:116|352:136,1,90.9999958343508
192,232,161727,2,0,B|224:248|264:224|264:224|224:204,1,90.9999958343508
480,120,162000,2,0,B|472:180|472:180|456:212,1,90.9999958343508
278,313,162272,2,0,L|262:213,1,90.9999958343508
278,313,162545,6,0,L|304:116,1,188.999994232178
360,228,162818,6,0,P|328:224|304:208,1,52.5000020027161
128,124,163090,6,0,P|212:136|292:208,1,188.999994232178
372,222,163363,6,0,B|272:266|232:222|256:150|316:170|280:218,1,183.750007009506
304,180,163909,6,0,P|292:248|268:280,1,90.9999958343508
276,156,164181,6,0,B|268:24|268:24|288:60|280:88,1,188.999994232178
180,64,164454,6,0,P|224:84|288:80,1,90.9999958343508
136,192,164727,6,0,P|176:128|164:28,1,157.500006008148
144,212,165000,6,0,P|88:212|48:188,1,90.9999958343508
144,212,165272,6,0,B|184:196|184:196|248:236|332:236,1,188.999994232178
344,248,165545,1,0,0:0:0:0:
276,156,165681,1,0,0:0:0:0:
280,296,165818,6,0,P|244:228|272:144,1,136.499993751526
276,156,166090,1,0,0:0:0:0:
112,312,166227,1,0,0:0:0:0:
396,328,166363,6,0,L|260:320,1,125.999996154785
280,296,166636,1,0,0:0:0:0:
496,224,166772,1,0,0:0:0:0:
398,82,166909,6,0,P|418:170|506:226,1,188.999994232178
480,216,167181,6,0,P|432:192|388:212,1,90.9999958343508
268,200,167454,6,0,B|356:164|460:148|444:324|332:240|384:200,1,251.999992309571
398,82,167863,1,0,0:0:0:0:
188,124,168000,6,0,B|172:196|208:260|208:260|228:312|208:344|160:328|196:256,1,251.999992309571
86,220,168545,2,0,B|158:224|158:224|194:200|194:200|274:200,1,188.999994232178
86,220,168818,6,0,L|152:224,2,52.5000020027161
456,316,169363,6,0,B|432:308|432:308|384:320|384:320|408:288,1,90.9999958343508
256,128,169636,2,0,B|232:136|232:136|184:124|184:124|208:156,1,90.9999958343508
480,48,169909,2,0,B|456:56|456:56|408:44|408:44|384:56,1,90.9999958343508
256,128,170181,2,0,P|232:160|268:140,1,90.9999958343508
443,241,170454,2,0,P|471:289|447:321,1,90.9999958343508
260,304,170727,6,0,B|304:288|304:288|376:332|440:320,1,188.999994232178
270,254,171000,6,0,P|271:279|259:302,1,52.5000020027161
200,60,171272,6,0,P|165:116|192:184,1,136.499993751526
186,178,171545,2,0,P|142:176|113:143,1,90.9999958343508
152,320,171818,6,0,B|164:284|148:240|148:240|180:184,1,125.999996154785
270,254,172090,6,0,P|282:298|270:350,1,90.9999958343508
360,224,172363,6,0,L|356:180,1,35
428,104,172636,2,0,L|431:138,1,35
436,312,172909,6,0,B|424:268|424:268|448:196|428:124,1,188.999994232178
430,51,173181,6,0,L|426:123,1,52.5000020027161
60,240,173454,6,0,P|104:264|164:248,1,90.9999958343508
434,181,173727,2,0,P|403:214|360:224,1,90.9999958343508
80,248,174000,2,0,P|124:272|184:256,1,90.9999958343508
454,189,174273,2,0,P|423:221|379:231,1,90.9999958343508
92,124,174545,6,0,L|96:24,1,90.9999958343508
192,204,174818,2,0,L|196:104,1,90.9999958343508
457,279,175090,2,0,L|453:179,1,90.9999958343508
357,359,175363,2,0,L|353:259,1,90.9999958343508
224,76,175636,6,0,B|184:64|184:64|148:116|88:112,1,136.499993751526
236,60,175909,2,0,P|252:112|240:156,1,90.9999958343508
236,300,176181,6,0,B|224:228|236:160|236:160|252:200|248:220,1,188.999994232178
248,206,176454,6,0,B|196:184|196:184|164:204|128:184|128:184|100:200|72:200,1,183.750007009506
100,156,177000,6,0,B|104:176|120:200|120:200|120:232|132:268,1,105
128,255,177272,6,0,L|184:256,1,45.4999979171754
176,80,177409,2,0,L|231:80,1,45.4999979171754
176,340,177545,2,0,L|231:340,1,45.4999979171754
32,220,177681,1,0,0:0:0:0:
388,288,177818,6,0,B|392:264|392:264|384:240|384:240|400:208|384:140,1,125.999996154785
432,116,178090,6,0,P|408:140|348:132,1,90.9999958343508
176,80,178363,2,0,P|124:56|84:72,1,90.9999958343508
80,80,178568,1,0,0:0:0:0:
175,79,178636,2,0,L|172:170,1,90.9999958343508
258,174,178909,6,0,P|202:182|162:162,1,90.9999958343508
268,76,179181,1,0,0:0:0:0:
344,236,179318,1,0,0:0:0:0:
160,200,179454,6,0,L|60:192,1,90.9999958343508
240,296,179727,2,0,L|140:288,1,90.9999958343508
352,60,180000,6,0,B|448:56|448:56|472:68|472:96|424:96|444:68,1,157.500006008148
434,166,180272,2,0,P|430:114|442:70,1,90.9999958343508
376,136,180545,6,0,P|412:200|400:316,1,188.999994232178
484,252,180818,6,0,B|448:248|416:224|416:224|384:252|352:236|352:236|327:255|296:256,1,183.750007009506
288,208,181363,6,0,P|268:204|292:236,1,90.9999958343508
280,56,181636,6,0,P|312:144|260:292,1,251.999992309571
263,288,181977,1,0,0:0:0:0:
263,288,182045,1,0,0:0:0:0:
164,116,182181,6,0,L|148:64,2,45.4999979171754
263,288,182454,2,0,L|279:340,2,45.4999979171754
52,256,182727,6,0,B|20:228|24:204|24:204|64:228|104:208,1,125.999996154785
80,120,183000,1,0,0:0:0:0:
80,120,183068,1,0,0:0:0:0:
80,120,183136,1,0,0:0:0:0:
168,340,183272,6,0,P|164:264|184:236,1,90.9999958343508
296,160,183477,2,0,L|284:216,1,45.4999979171754
212,60,183681,1,0,0:0:0:0:
344,228,183818,6,0,B|260:240|260:240|272:208|304:232,1,125.999996154785
472,176,184090,2,0,L|464:240,2,45.4999979171754
264,328,184363,6,0,P|248:264|268:232,1,90.9999958343508
400,80,184636,2,0,L|392:32,2,45.4999979171754
296,160,184909,6,0,B|216:136|144:180|144:180|168:100|236:120,1,251.999992309571
232,248,185318,1,0,0:0:0:0:
100,300,185454,6,0,B|100:252|100:252|108:228|108:228|96:196|96:196|104:168|104:168|104:112,1,181.999991668702
100,300,185863,1,0,0:0:0:0:
128,92,186000,5,0,0:0:0:0:
168,360,186136,1,0,0:0:0:0:
44,232,186272,6,0,B|100:216|100:216|140:244|192:224,1,140
