osu file format v14

[General]
AudioFilename: 100604319.mp3.mp3
AudioLeadIn: 0
PreviewTime: -1
Countdown: 0
SampleSet: Soft
StackLeniency: 0.6
Mode: 2
LetterboxInBreaks: 1
WidescreenStoryboard: 1

[Editor]
DistanceSpacing: 2
BeatDivisor: 8
GridSize: 4
TimelineZoom: 3.099999

[Metadata]
Title:Bilibili Douga-Mo Di Da Biao Ke / Modi Dabiaoke
TitleUnicode:哔哩哔哩动画-摩的大飚客
Artist:LuoTianyi
ArtistUnicode:洛天依
Creator:-_-WwolowW-_-
Version:Running(Platter)
Source:VOCALOID
Tags:VOCALOID 洛天依 LUO TIAN YI luotianyi
BeatmapID:633381
BeatmapSetID:226331

[Difficulty]
HPDrainRate:4
CircleSize:4
OverallDifficulty:6
ApproachRate:8
SliderMultiplier:1.4
SliderTickRate:1

[Events]
//Background and Video events
0,0,"107.jpg",0,0
Video,-250,"luotianyi-modidabiaoke.avi"
//Break Periods
2,24342,31192
2,54942,61912
2,101141,108232
2,166542,170152
//Storyboard Layer 0 (Background)
//Storyboard Layer 1 (Fail)
//Storyboard Layer 2 (Pass)
//Storyboard Layer 3 (Foreground)
//Storyboard Sound Samples

[TimingPoints]
0,500,4,2,0,44,1,0
8902.22539590515,480,4,2,0,44,1,0
10822,-50,4,2,0,44,0,0
11542,-50,4,2,0,44,0,0
12742,-100,4,2,0,44,0,0
12802,-100,4,2,0,44,0,0
13462,-50,4,2,0,44,0,0
16582,-100,4,2,0,44,0,0
18742,-50,4,2,0,44,0,0
19462,-100,4,2,0,44,0,0
19702,-100,4,2,0,44,0,0
19942,-50,4,2,0,44,0,0
20422,-100,4,2,0,44,0,0
20422,-50,4,2,0,44,0,0
20482,-100,4,2,0,44,0,0
22342,-50,4,2,0,44,0,0
24262,-50,4,2,0,44,0,0
24262,-50,4,2,0,44,0,0
24442,-100,4,2,0,44,0,0
31942,-50,4,2,0,44,0,0
33322,-100,4,2,0,44,0,0
37702,-50,4,2,0,44,0,0
49222,-100,4,2,0,44,0,0
61222,-100,4,2,0,44,0,0
61882,-50,4,2,0,44,0,0
62422,-100,4,2,0,44,0,0
63322,-50,4,2,0,44,0,0
63382,-50,4,2,0,44,0,0
63622,-50,4,2,0,44,0,0
64582,-100,4,2,0,44,0,0
65242,-50,4,2,0,44,0,0
65302,-50,4,2,0,44,0,0
68653,-100,4,2,0,44,0,1
69382,-133.333333333333,4,2,0,44,0,1
70342,-100,4,2,0,44,0,0
70342,-100,4,2,0,44,0,0
71002,-50,4,2,0,44,0,0
72262,-100,4,2,0,44,0,0
72922,-50,4,2,0,44,0,0
74182,-50,4,2,0,44,0,0
75082,-100,4,2,0,44,0,0
78142,-100,4,2,0,44,0,1
80902,-50,4,2,0,44,0,1
82342,-100,4,2,0,44,0,1
83302,-100,4,2,0,44,0,0
84022,-50,4,2,0,44,0,0
84382,-100,4,2,0,44,0,0
85822,-50,4,2,0,44,0,1
89302,-100,4,2,0,44,0,1
100102,-50,4,2,0,44,0,1
101062,-100,4,2,0,44,0,1
116422,-100,4,2,0,44,0,0
133222,-100,4,2,0,44,0,0
133462,-100,4,2,0,44,0,0
142222,-66.6666666666667,4,2,0,44,0,0
147142,-100,4,2,0,44,0,1
152902,-50,4,2,0,44,0,1
168262,-100,4,2,0,44,0,0
170902,-66.6666666666667,4,2,0,44,0,0

[Colours]
Combo1 : 255,0,255
Combo2 : 0,255,255
Combo3 : 255,255,0
Combo4 : 255,128,0

[HitObjects]
256,192,1250,12,0,8750,0:0:0:0:
92,284,8902,6,0,L|156:244,1,70
391,281,9382,5,0,0:0:0:0:
117,159,9622,6,0,L|181:119,1,70
392,208,10102,5,0,0:0:0:0:
96,136,10342,6,0,L|160:96,1,70
248,268,10822,1,0,0:0:0:0:
248,268,11062,6,0,P|248:124|124:124,1,280
196,192,11782,5,0,0:0:0:0:
405,186,12022,5,0,0:0:0:0:
135,292,12262,2,0,L|135:212,3,70
256,138,12802,6,0,L|440:54,1,192.5
65,300,13702,1,0,0:0:0:0:
312,256,14182,5,0,0:0:0:0:
316,208,14302,1,0,0:0:0:0:
352,180,14422,1,0,0:0:0:0:
400,184,14542,1,0,0:0:0:0:
150,94,14662,2,0,L|70:94,3,70
312,256,15142,6,0,L|392:256,3,70
128,232,15622,6,0,L|56:232,3,70
220,164,16102,6,0,L|296:164,3,70
92,284,16582,6,0,L|156:244,1,70
417,288,17062,5,0,0:0:0:0:
80,105,17302,6,0,L|144:65,1,70
191,252,17782,5,0,0:0:0:0:
96,136,18022,6,0,L|160:96,1,70
366,289,18502,1,0,0:0:0:0:
386,236,18742,6,0,P|386:92|262:92,1,280
113,263,19462,5,0,0:0:0:0:
361,273,19702,5,0,0:0:0:0:
339,118,19942,2,0,L|339:42,3,70
152,188,20482,6,0,L|336:104,1,192.5
104,291,21382,1,0,0:0:0:0:
325,262,21862,5,0,0:0:0:0:
329,214,21982,1,0,0:0:0:0:
365,186,22102,1,0,0:0:0:0:
413,190,22222,1,0,0:0:0:0:
397,150,22342,2,0,L|317:150,3,70
312,256,22822,6,0,L|392:256,3,70
128,232,23302,6,0,L|56:232,3,70
220,164,23782,6,0,L|296:164,3,70
198,177,31942,5,0,0:0:0:0:
126,249,32182,1,0,0:0:0:0:
381,239,32302,5,0,0:0:0:0:
425,187,32422,1,0,0:0:0:0:
373,147,32542,1,0,0:0:0:0:
317,115,32662,1,0,0:0:0:0:
128,180,32902,5,0,0:0:0:0:
356,88,33142,1,0,0:0:0:0:
312,136,33262,1,0,0:0:0:0:
126,174,33382,5,0,0:0:0:0:
150,226,33502,1,0,0:0:0:0:
98,258,33622,1,0,0:0:0:0:
136,96,33862,5,0,0:0:0:0:
68,223,34102,6,0,L|112:223,1,35
245,47,34342,2,0,L|245:95,1,35
458,223,34582,2,0,L|414:223,1,35
196,308,34822,6,0,L|197:261,1,35
60,176,35062,2,0,L|100:176,1,35
341,77,35302,2,0,L|345:125,1,35
370,74,35542,5,0,0:0:0:0:
370,74,35662,5,0,0:0:0:0:
86,172,35782,2,0,B|142:172|142:256|198:256|198:172|270:172,1,210
84,112,36742,1,0,0:0:0:0:
196,228,36862,1,0,0:0:0:0:
96,308,36982,1,0,0:0:0:0:
196,228,37102,1,0,0:0:0:0:
364,300,37222,1,0,0:0:0:0:
276,228,37342,5,0,0:0:0:0:
360,104,37462,1,0,0:0:0:0:
281,222,37582,1,0,0:0:0:0:
130,112,37702,2,0,L|214:112,1,70
403,182,37942,6,0,L|319:182,1,70
159,314,38182,6,0,L|251:318,1,70
401,51,38422,6,0,L|301:47,1,70
392,252,38662,6,0,L|308:252,1,70
96,189,38902,6,0,L|184:189,1,70
300,196,39142,1,0,0:0:0:0:
80,68,39382,5,0,0:0:0:0:
96,288,39622,6,0,L|256:288,1,140
192,136,40102,2,0,L|60:212,1,140
463,41,40582,6,0,L|343:137,1,140
216,302,41062,2,0,L|48:302,1,140
77,90,41542,5,0,0:0:0:0:
333,68,41782,1,0,0:0:0:0:
91,326,42022,1,0,0:0:0:0:
387,137,42262,1,0,0:0:0:0:
83,220,42502,1,0,0:0:0:0:
396,88,42742,1,0,0:0:0:0:
171,288,42982,1,0,0:0:0:0:
409,124,43222,1,0,0:0:0:0:
340,112,43462,5,0,0:0:0:0:
100,172,43702,1,0,0:0:0:0:
311,204,43942,1,0,0:0:0:0:
120,269,44182,1,0,0:0:0:0:
405,86,44422,1,0,0:0:0:0:
300,112,44662,5,0,0:0:0:0:
360,248,44902,5,0,0:0:0:0:
33,49,45142,6,0,L|113:165,1,140
322,148,45622,6,0,L|454:56,1,140
196,322,46102,2,0,L|68:258,1,140
503,163,46582,6,0,L|391:79,1,140
91,164,47062,2,0,L|207:68,1,140
475,102,47542,5,0,0:0:0:0:
391,79,47662,5,0,0:0:0:0:
315,71,47782,5,0,0:0:0:0:
243,75,47902,5,0,0:0:0:0:
187,94,48022,5,0,0:0:0:0:
53,267,48262,5,0,0:0:0:0:
109,291,48382,1,0,0:0:0:0:
181,311,48502,1,0,0:0:0:0:
140,260,48622,5,0,0:0:0:0:
261,307,48742,1,0,0:0:0:0:
232,172,48982,5,0,0:0:0:0:
140,260,49402,5,0,0:0:0:0:
333,279,49582,1,0,0:0:0:0:
140,260,49702,6,0,L|224:260,1,70
124,172,50242,6,0,L|180:116,1,70
124,80,50902,5,0,0:0:0:0:
120,304,51142,5,0,0:0:0:0:
412,178,51472,1,0,0:0:0:0:
112,200,51802,6,0,L|220:128,1,122.5
335,299,52582,2,0,L|383:235,5,70
80,111,54022,2,0,L|160:111,3,70
124,276,62662,6,0,L|208:276,1,70
376,206,63202,5,0,0:0:0:0:
81,123,63322,6,0,L|161:151,6,70
392,87,64162,5,0,0:0:0:0:
153,246,64402,1,0,0:0:0:0:
376,248,64582,6,0,L|460:248,1,70
63,97,65122,5,0,0:0:0:0:
356,161,65242,6,0,L|436:189,6,70
244,224,66082,5,0,0:0:0:0:
244,224,66322,1,0,0:0:0:0:
114,74,66502,6,0,L|6:182,1,140
337,283,66982,2,0,L|449:163,1,140
359,139,67402,1,0,0:0:0:0:
128,120,67942,6,0,L|192:88,1,70
408,194,68422,5,0,0:0:0:0:
117,241,68662,2,0,L|85:281,1,35
313,80,68902,6,0,L|345:108,1,35
144,280,69142,2,0,L|176:248,1,35
455,253,69382,2,0,L|451:141,1,105.000004005432
103,131,70042,5,0,0:0:0:0:
124,276,70342,6,0,L|208:276,1,70
423,186,70882,5,0,0:0:0:0:
86,124,71002,6,0,L|166:152,6,70
412,129,71842,5,0,0:0:0:0:
176,241,72082,1,0,0:0:0:0:
344,248,72262,6,0,L|428:248,1,70
344,172,72802,5,0,0:0:0:0:
80,107,72922,6,0,L|160:135,6,70
268,124,73762,5,0,0:0:0:0:
87,92,74002,1,0,0:0:0:0:
463,175,74182,6,0,L|355:283,1,140
67,300,74662,2,0,L|179:180,1,140
441,180,75082,1,0,0:0:0:0:
128,120,75622,6,0,L|192:88,1,70
220,164,76102,5,0,0:0:0:0:
344,80,76342,2,0,L|312:120,1,35
128,124,76582,6,0,L|160:152,1,35
428,297,76822,2,0,L|460:265,1,35
336,280,77062,2,0,L|332:168,1,105.000004005432
332,175,77722,5,0,0:0:0:0:
116,104,78022,6,0,L|200:120,1,70
448,151,78502,2,0,L|384:195,1,70
54,311,78982,2,0,L|118:267,1,70
383,56,79462,2,0,L|327:112,1,70
112,132,79942,5,0,0:0:0:0:
429,193,80182,1,0,0:0:0:0:
111,271,80422,1,0,0:0:0:0:
376,264,80662,1,0,0:0:0:0:
306,277,80902,6,0,L|454:277,1,140
95,167,81382,6,0,L|239:167,1,140
437,152,81802,2,0,L|293:152,1,140
136,263,82342,5,0,0:0:0:0:
360,268,82582,1,0,0:0:0:0:
144,168,82822,1,0,0:0:0:0:
228,292,83062,1,0,0:0:0:0:
132,80,83302,2,0,L|192:120,2,70
438,306,84022,2,0,L|438:142,1,140
295,126,84442,5,0,0:0:0:0:
144,108,84742,2,0,L|192:108,7,35
396,298,85942,5,0,0:0:0:0:
130,289,86182,1,0,0:0:0:0:
136,184,86422,1,0,0:0:0:0:
344,292,86662,5,0,0:0:0:0:
136,184,86902,1,0,0:0:0:0:
160,300,87142,1,0,0:0:0:0:
74,171,87382,5,0,0:0:0:0:
324,184,87622,5,0,0:0:0:0:
160,300,87862,5,0,0:0:0:0:
350,76,88102,5,0,0:0:0:0:
112,96,88342,5,0,0:0:0:0:
332,288,88582,5,0,0:0:0:0:
136,196,88822,5,0,0:0:0:0:
296,184,89062,5,0,0:0:0:0:
144,296,89302,5,0,0:0:0:0:
196,116,89542,2,0,L|268:120,1,70
220,300,90022,1,0,0:0:0:0:
360,108,90262,6,0,L|328:184,1,70
268,224,90742,1,0,0:0:0:0:
76,60,90982,6,0,L|136:112,1,70
168,296,91462,1,0,0:0:0:0:
88,233,91702,6,0,L|116:201,1,35
268,296,91972,1,0,0:0:0:0:
304,148,92212,5,0,0:0:0:0:
345,59,92422,2,0,L|421:67,1,70
132,276,92902,6,0,L|176:212,1,70
422,113,93382,2,0,L|358:149,1,70
336,288,93862,5,0,0:0:0:0:
88,200,94102,1,0,0:0:0:0:
384,208,94342,5,0,0:0:0:0:
216,192,94582,1,0,0:0:0:0:
216,144,94822,5,0,0:0:0:0:
216,256,95062,1,0,0:0:0:0:
300,232,95302,5,0,0:0:0:0:
300,168,95542,2,0,L|300:96,1,70
64,166,96022,2,0,L|96:234,1,70
460,273,96742,6,0,L|316:281,1,140
83,240,97522,6,0,L|135:232,1,52.5
300,329,97942,5,0,0:0:0:0:
338,63,98182,2,0,L|274:103,1,70
117,147,98662,2,0,L|105:155,1,8.75
208,252,98902,1,0,0:0:0:0:
315,171,99142,1,0,0:0:0:0:
86,187,99382,1,0,0:0:0:0:
393,64,99622,1,0,0:0:0:0:
264,288,99862,5,0,0:0:0:0:
103,123,100102,2,0,L|179:123,3,70
414,246,100582,6,0,L|342:250,3,70
140,160,108982,5,0,0:0:0:0:
410,143,109222,1,0,0:0:0:0:
236,290,109462,1,0,0:0:0:0:
432,280,109702,5,0,0:0:0:0:
148,148,110182,5,0,0:0:0:0:
352,232,110902,1,0,0:0:0:0:
118,77,111142,5,0,0:0:0:0:
144,224,111382,5,0,0:0:0:0:
338,165,111622,6,0,L|474:241,1,140
167,111,112582,2,0,L|167:187,1,70
446,139,113062,1,0,0:0:0:0:
433,207,113302,1,0,0:0:0:0:
470,308,114502,2,0,B|338:224|354:232,1,140
232,308,115222,5,0,0:0:0:0:
220,153,115462,6,0,L|124:37,1,140
232,308,116182,1,0,0:0:0:0:
136,144,116422,1,0,0:0:0:0:
383,121,116662,5,0,0:0:0:0:
101,271,116902,5,0,0:0:0:0:
391,296,117142,5,0,0:0:0:0:
228,72,117382,5,0,0:0:0:0:
360,92,117622,5,0,0:0:0:0:
112,152,117862,1,0,0:0:0:0:
228,196,118102,5,0,0:0:0:0:
132,272,118342,5,0,0:0:0:0:
292,304,118582,5,0,0:0:0:0:
292,148,118822,2,0,L|320:228,2,70
96,264,119782,5,0,0:0:0:0:
208,176,120262,1,0,0:0:0:0:
140,192,120502,1,0,0:0:0:0:
394,182,120742,1,0,0:0:0:0:
224,276,121222,1,0,0:0:0:0:
236,132,121702,1,0,0:0:0:0:
144,112,122182,1,0,0:0:0:0:
136,228,122422,5,0,0:0:0:0:
413,248,122662,1,0,0:0:0:0:
145,289,122902,1,0,0:0:0:0:
405,179,123142,1,0,0:0:0:0:
112,112,123382,5,0,0:0:0:0:
400,76,123622,1,0,0:0:0:0:
312,68,123862,1,0,0:0:0:0:
384,176,124102,1,0,0:0:0:0:
118,297,124582,1,0,0:0:0:0:
420,298,124822,1,0,0:0:0:0:
120,220,125062,1,0,0:0:0:0:
196,252,125302,1,0,0:0:0:0:
408,86,125542,1,0,0:0:0:0:
176,92,126022,5,0,0:0:0:0:
136,132,126502,1,0,0:0:0:0:
140,220,126742,1,0,0:0:0:0:
422,259,126982,1,0,0:0:0:0:
142,279,127222,1,0,0:0:0:0:
216,196,127702,1,0,0:0:0:0:
220,284,127942,1,0,0:0:0:0:
328,300,128422,1,0,0:0:0:0:
120,288,128662,1,0,0:0:0:0:
136,176,129622,2,0,L|232:176,1,70
388,139,130102,2,0,L|344:71,1,70
99,284,130582,6,0,L|195:320,1,70
380,48,131062,2,0,L|292:12,1,70
168,272,131782,1,0,0:0:0:0:
442,281,132022,1,0,0:0:0:0:
204,184,132262,1,0,0:0:0:0:
360,176,132502,5,0,0:0:0:0:
240,92,132742,1,0,0:0:0:0:
446,42,132982,1,0,0:0:0:0:
108,64,133222,5,0,0:0:0:0:
216,176,133462,5,0,0:0:0:0:
92,240,133702,5,0,0:0:0:0:
437,284,133942,5,0,0:0:0:0:
160,316,134182,1,0,0:0:0:0:
116,155,134422,5,0,0:0:0:0:
403,122,134662,1,0,0:0:0:0:
216,172,134902,5,0,0:0:0:0:
435,224,135142,5,0,0:0:0:0:
168,80,135382,5,0,0:0:0:0:
88,216,135622,5,0,0:0:0:0:
392,92,135862,1,0,0:0:0:0:
372,236,136102,5,0,0:0:0:0:
268,96,136342,5,0,0:0:0:0:
240,224,136582,5,0,0:0:0:0:
180,60,136822,5,0,0:0:0:0:
240,224,137062,5,0,0:0:0:0:
80,224,137302,5,0,0:0:0:0:
268,104,137542,5,0,0:0:0:0:
336,268,137782,5,0,0:0:0:0:
144,120,138022,5,0,0:0:0:0:
449,156,138262,5,0,0:0:0:0:
268,104,138502,5,0,0:0:0:0:
144,120,138742,5,0,0:0:0:0:
469,296,138982,5,0,0:0:0:0:
248,168,139462,1,0,0:0:0:0:
36,168,139942,1,0,0:0:0:0:
431,146,140422,1,0,0:0:0:0:
172,252,140902,1,0,0:0:0:0:
409,110,141382,1,0,0:0:0:0:
108,256,141862,1,0,0:0:0:0:
108,256,142342,5,0,0:0:0:0:
232,264,142822,1,0,0:0:0:0:
392,208,143302,1,0,0:0:0:0:
392,208,143782,1,0,0:0:0:0:
78,126,144262,1,0,0:0:0:0:
375,156,144742,1,0,0:0:0:0:
95,305,144982,1,0,0:0:0:0:
446,291,145222,1,0,0:0:0:0:
184,84,145702,5,0,0:0:0:0:
184,84,145942,1,0,0:0:0:0:
100,184,146182,1,0,0:0:0:0:
312,232,146422,1,0,0:0:0:0:
448,232,146662,2,0,L|212:232,1,210.000008010865
408,208,147622,5,0,0:0:0:0:
84,212,148102,5,0,0:0:0:0:
408,208,148582,1,0,0:0:0:0:
408,208,148822,1,0,0:0:0:0:
88,208,149062,1,0,0:0:0:0:
304,208,149542,5,0,0:0:0:0:
184,188,149782,1,0,0:0:0:0:
372,136,150022,6,0,L|200:128,1,140
444,215,150982,6,0,L|324:215,1,70
108,296,151462,6,0,L|184:296,1,70
424,111,151942,2,0,L|342:119,1,70
20,190,152422,6,0,L|100:238,1,70
340,268,152902,2,0,L|416:268,3,70
107,117,153382,6,0,L|183:117,3,70
172,202,153862,6,0,L|72:206,3,70
406,61,154342,2,0,L|494:61,3,70
87,180,154822,2,0,L|135:128,8,70
358,165,156262,5,0,0:0:0:0:
84,240,156742,6,0,L|152:256,8,70
128,228,157942,1,0,0:0:0:0:
274,99,158422,6,0,L|354:99,1,70
45,190,158662,2,0,L|117:182,8,70
116,256,160102,6,0,L|192:248,1,70
424,200,160342,2,0,L|328:188,1,70
128,108,160582,2,0,L|208:108,7,70
337,291,161542,6,0,L|421:291,7,70
256,192,162502,12,0,166342,0:0:0:0:
64,192,170902,5,0,0:0:0:0:
