osu file format v14

[General]
AudioFilename: 100604319.mp3.mp3
AudioLeadIn: 0
PreviewTime: -1
Countdown: 0
SampleSet: Soft
StackLeniency: 0.6
Mode: 2
LetterboxInBreaks: 1
WidescreenStoryboard: 0

[Editor]
DistanceSpacing: 2
BeatDivisor: 8
GridSize: 4
TimelineZoom: 3.099999

[Metadata]
Title:Bilibili Douga-Mo Di Da Biao Ke / Modi Dabiaoke
TitleUnicode:哔哩哔哩动画-摩的大飚客
Artist:LuoTianyi
ArtistUnicode:洛天依
Creator:-_-WwolowW-_-
Version:Motocycle(Rain)
Source:VOCALOID
Tags:VOCALOID 洛天依 LUO TIAN YI luotianyi
BeatmapID:527805
BeatmapSetID:226331

[Difficulty]
HPDrainRate:7
CircleSize:4
OverallDifficulty:7
ApproachRate:9
SliderMultiplier:1.4
SliderTickRate:1

[Events]
//Background and Video events
0,0,"107.jpg",0,0
Video,-250,"luotianyi-modidabiaoke.avi"
//Break Periods
//Storyboard Layer 0 (Background)
//Storyboard Layer 1 (Fail)
//Storyboard Layer 2 (Pass)
//Storyboard Layer 3 (Foreground)
//Storyboard Sound Samples

[TimingPoints]
0,500,4,2,0,44,1,0
8902.22539590515,480,4,2,0,44,1,0
10822,-50,4,2,0,44,0,0
11542,-50,4,2,0,44,0,0
12802,-100,4,2,0,44,0,0
16582,-50,4,2,0,44,0,0
19702,-100,4,2,0,44,0,0
31942,-50,4,2,0,44,0,0
33322,-100,4,2,0,44,0,0
61222,-100,4,2,0,44,0,0
61882,-50,4,2,0,44,0,0
62422,-100,4,2,0,44,0,0
68653,-100,4,2,0,44,0,1
70342,-100,4,2,0,44,0,0
78142,-100,4,2,0,44,0,1
83302,-100,4,2,0,44,0,0
85822,-100,4,2,0,44,0,1
116422,-100,4,2,0,44,0,0
133222,-100,4,2,0,44,0,0
133462,-100,4,2,0,44,0,0
142222,-66.6666666666667,4,2,0,44,0,0
147142,-100,4,2,0,44,0,1
168262,-100,4,2,0,44,0,0
170902,-66.6666666666667,4,2,0,44,0,0

[Colours]
Combo1 : 255,0,255
Combo2 : 0,255,255
Combo3 : 255,255,0
Combo4 : 255,128,0

[HitObjects]
256,192,1222,12,4,8422,0:0:0:0:
396,192,8902,6,4,B|396:272|396:272|296:340|296:340|296:248,1,280
416,164,10342,1,4,0:0:0:0:
176,176,10462,5,0,0:0:0:0:
110,105,10582,5,4,0:0:0:0:
321,109,10702,1,4,0:0:0:0:
221,171,10822,6,4,B|221:319|221:319|85:319,1,280
344,152,11542,2,0,L|408:224,1,70
116,148,11782,2,0,L|68:216,1,70
260,192,12022,5,0,0:0:0:0:
128,316,12262,5,4,0:0:0:0:
128,276,12382,1,4,0:0:0:0:
128,232,12502,1,4,0:0:0:0:
128,192,12622,1,4,0:0:0:0:
160,144,12802,5,0,0:0:0:0:
401,110,13042,1,0,0:0:0:0:
252,129,13282,1,0,0:0:0:0:
384,192,13522,5,0,0:0:0:0:
252,224,13642,5,0,0:0:0:0:
391,303,13762,1,0,0:0:0:0:
284,304,13882,5,0,0:0:0:0:
164,240,14182,1,0,0:0:0:0:
56,88,14662,2,0,B|104:88|104:88|108:72,4,35,4|8|4|8|4,0:0|0:0|0:0|0:0|0:0,0:0:0:0:
317,102,15262,2,0,L|317:66,5,35,8|4|8|4|8|4,0:0|0:0|0:0|0:0|0:0|0:0,0:0:0:0:
126,202,15982,1,0,0:0:0:0:
254,94,16102,2,4,L|290:94,3,35,0|0|0|0,0:0|0:0|0:0|0:0,0:0:0:0:
141,213,16582,6,4,B|141:309|141:309|337:309,1,280
157,77,17302,6,0,L|93:129,1,70
336,136,17542,2,0,L|396:192,1,70
250,218,17812,5,0,0:0:0:0:
432,140,18022,5,4,0:0:0:0:
392,120,18142,5,4,0:0:0:0:
340,120,18262,5,4,0:0:0:0:
308,140,18382,5,8,0:0:0:0:
170,49,18502,6,10,L|170:337,1,280,6|14,0:0|0:0,0:0:0:0:
439,270,19222,2,0,L|367:218,1,70
142,294,19462,2,0,L|206:238,1,70
332,300,19702,5,0,0:0:0:0:
188,280,19942,6,0,L|188:224,1,35,8|4,0:0|0:0,0:0:0:0:
410,97,20182,2,0,L|410:137,1,35,8|8,0:0|0:0,0:0:0:0:
141,172,20422,2,0,B|297:172|297:172|297:36|293:36,1,280,4|8,0:0|0:0,0:0:0:0:
147,81,21502,5,0,0:0:0:0:
390,132,21622,6,0,L|343:127,1,35,8|8,0:0|0:0,0:0:0:0:
292,235,21862,6,0,L|310:239,3,17.5,8|4|8|4,0:0|0:0|0:0|0:0,0:0:0:0:
96,260,22342,6,0,L|132:260,3,35,8|4|8|4,0:0|0:0|0:0|0:0,0:0:0:0:
315,191,22822,6,0,L|351:191,3,35,8|4|8|4,0:0|0:0|0:0|0:0,0:0:0:0:
117,203,23302,6,8,L|153:203,3,35,0|8|0|8,0:0|0:0|0:0|0:0,0:0:0:0:
308,102,23782,2,0,L|344:102,3,35,12|8|12|8,0:0|0:0|0:0|0:0,0:0:0:0:
208,152,24262,2,0,B|208:296|208:296|72:296,1,280,0|6,0:0|0:0,0:0:0:0:
386,262,25462,5,0,0:0:0:0:
204,197,25702,5,0,0:0:0:0:
275,127,25942,5,0,0:0:0:0:
84,192,26182,2,4,B|84:52|84:52|236:52,1,280
84,192,27382,5,0,0:0:0:0:
326,143,27622,1,0,0:0:0:0:
107,290,27862,5,0,0:0:0:0:
302,289,28102,2,4,B|414:193|414:193|310:105|310:105|406:9|406:9|514:105,1,560
171,216,30262,6,0,L|207:216,1,35,4|8,0:0|0:0,0:0:0:0:
195,154,30502,1,4,0:0:0:0:
229,99,30622,1,4,0:0:0:0:
261,80,30742,1,8,0:0:0:0:
192,196,30982,1,4,0:0:0:0:
391,197,31222,5,0,0:0:0:0:
57,198,31462,5,4,0:0:0:0:
227,305,31942,6,4,B|227:25|227:25|507:25|507:301|507:21,1,700
127,222,33322,5,0,0:0:0:0:
340,110,33562,5,0,0:0:0:0:
134,122,33802,1,0,0:0:0:0:
329,247,34102,1,0,0:0:0:0:
118,281,34342,5,0,0:0:0:0:
152,188,34582,2,0,L|144:152,1,35,8|0,0:0|0:0,0:0:0:0:
272,72,34882,5,0,0:0:0:0:
422,166,35062,2,0,L|422:126,1,35,8|0,0:0|0:0,0:0:0:0:
286,193,35302,1,8,0:0:0:0:
152,188,35542,5,0,0:0:0:0:
376,288,35782,6,10,B|476:188|476:188|364:92,1,280,12|12,0:0|0:0,0:0:0:0:
132,139,37222,1,8,0:0:0:0:
349,146,37462,1,8,0:0:0:0:
100,300,37702,5,4,0:0:0:0:
404,175,38062,1,8,0:0:0:0:
95,213,38422,1,4,0:0:0:0:
405,69,38662,1,0,0:0:0:0:
96,300,38902,1,8,0:0:0:0:
412,84,39142,1,4,0:0:0:0:
96,300,39622,5,4,0:0:0:0:
347,192,39862,5,8,0:0:0:0:
272,148,39982,1,8,0:0:0:0:
354,99,40102,1,8,0:0:0:0:
273,54,40282,1,4,0:0:0:0:
60,108,40582,1,4,0:0:0:0:
178,158,40822,1,4,0:0:0:0:
60,196,41062,1,8,0:0:0:0:
182,246,41302,1,12,0:0:0:0:
50,310,41542,6,0,B|146:310|54:310|174:242,2,140,8|8|8,0:0|0:0|0:0,0:0:0:0:
300,205,42742,1,0,0:0:0:0:
131,328,42982,5,4,0:0:0:0:
379,277,43222,5,0,0:0:0:0:
392,124,43462,5,8,0:0:0:0:
296,64,43582,1,8,0:0:0:0:
196,64,43702,1,8,0:0:0:0:
112,128,43822,1,8,0:0:0:0:
392,232,43942,5,4,0:0:0:0:
324,324,44062,1,4,0:0:0:0:
204,324,44182,1,4,0:0:0:0:
116,248,44302,1,4,0:0:0:0:
392,124,44422,5,4,0:0:0:0:
296,64,44542,1,8,0:0:0:0:
196,64,44662,1,4,0:0:0:0:
112,128,44782,1,8,0:0:0:0:
116,248,44902,5,4,0:0:0:0:
204,324,45022,1,4,0:0:0:0:
324,324,45142,1,4,0:0:0:0:
404,232,45262,1,4,0:0:0:0:
192,192,45382,5,8,0:0:0:0:
398,182,45622,1,8,0:0:0:0:
275,100,45862,1,4,0:0:0:0:
398,182,46102,1,8,0:0:0:0:
320,296,46342,1,4,0:0:0:0:
188,296,46582,1,4,0:0:0:0:
432,196,46822,1,4,0:0:0:0:
84,196,47062,1,12,0:0:0:0:
389,285,47302,6,0,B|285:177|285:177|389:85|389:85,2,280,8|8|8,0:0|0:0|0:0,0:0:0:0:
264,304,49462,1,8,0:0:0:0:
260,192,49702,6,0,L|332:192,4,70,8|4|8|4|12,0:0|0:0|0:0|0:0|0:0,0:0:0:0:
170,302,50902,5,0,0:0:0:0:
264,340,51142,2,12,B|480:72|484:-40|236:88|236:88|88:40|88:40|64:228|192:320,1,980,12|12,0:0|0:0,0:0:0:0:
360,160,54742,5,0,0:0:0:0:
360,72,54982,5,10,0:0:0:0:
360,160,55102,1,0,0:0:0:0:
360,248,55222,1,8,0:0:0:0:
360,336,55342,1,0,0:0:0:0:
272,336,55462,1,4,0:0:0:0:
272,248,55582,1,8,0:0:0:0:
276,160,55702,5,4,0:0:0:0:
276,72,55822,1,8,0:0:0:0:
188,72,55942,1,4,0:0:0:0:
188,160,56062,1,4,0:0:0:0:
188,248,56182,1,4,0:0:0:0:
24,336,56302,1,4,0:0:0:0:
108,336,56422,1,4,0:0:0:0:
108,248,56542,1,0,0:0:0:0:
108,160,56662,1,8,0:0:0:0:
108,72,56782,1,8,0:0:0:0:
28,72,56902,1,8,0:0:0:0:
28,160,57022,1,8,0:0:0:0:
28,248,57142,5,4,0:0:0:0:
28,336,57262,1,12,0:0:0:0:
108,248,57502,1,4,0:0:0:0:
108,160,57622,1,4,0:0:0:0:
108,72,57742,1,4,0:0:0:0:
188,72,57862,1,8,0:0:0:0:
188,156,57982,1,8,0:0:0:0:
188,248,58102,5,4,0:0:0:0:
188,336,58222,1,4,0:0:0:0:
272,336,58342,1,8,0:0:0:0:
272,248,58462,1,4,0:0:0:0:
272,156,58582,1,8,0:0:0:0:
272,72,58702,1,4,0:0:0:0:
356,72,58822,5,12,0:0:0:0:
356,160,58942,5,0,0:0:0:0:
356,248,59062,5,12,0:0:0:0:
356,336,59182,1,0,0:0:0:0:
436,336,59302,5,12,0:0:0:0:
156,192,59542,5,0,0:0:0:0:
456,192,59782,1,0,0:0:0:0:
64,148,60022,5,0,0:0:0:0:
360,148,60262,5,0,0:0:0:0:
56,192,60502,5,0,0:0:0:0:
56,192,60742,1,0,0:0:0:0:
360,320,60982,5,0,0:0:0:0:
152,320,61222,5,0,0:0:0:0:
128,280,61282,1,0,0:0:0:0:
128,232,61342,1,0,0:0:0:0:
152,188,61402,1,0,0:0:0:0:
192,168,61462,1,0,0:0:0:0:
240,168,61522,1,0,0:0:0:0:
280,184,61582,6,0,L|296:204,1,17.5
304,232,61702,5,0,0:0:0:0:
296,264,61762,5,0,0:0:0:0:
280,300,61822,1,0,0:0:0:0:
240,312,61882,6,0,L|212:248,1,65.6250025033952
192,168,62182,1,0,0:0:0:0:
360,48,62662,6,12,L|360:124,1,70
144,48,63142,1,0,0:0:0:0:
144,308,63382,2,8,L|144:232,1,70
360,48,63862,2,8,L|360:120,1,70
324,192,64342,5,12,0:0:0:0:
144,308,64582,2,8,L|144:232,1,70
421,314,65062,5,0,0:0:0:0:
372,308,65302,2,8,L|320:252,1,70
70,29,65782,2,0,L|126:93,1,70,8|4,0:0|0:0,0:0:0:0:
256,192,66262,5,4,0:0:0:0:
76,304,66502,6,8,L|120:264,1,52.5
262,314,66742,2,8,L|262:266,1,35
421,132,66982,2,8,L|385:150,1,35
345,169,67342,5,0,0:0:0:0:
62,175,67822,5,8,0:0:0:0:
62,175,67942,1,4,0:0:0:0:
403,175,68662,5,0,0:0:0:0:
403,175,68782,1,4,0:0:0:0:
60,180,68902,5,4,0:0:0:0:
164,80,69022,1,8,0:0:0:0:
128,168,69262,1,8,0:0:0:0:
56,300,69382,6,4,B|204:300|204:300|204:164,1,280,4|12,0:0|0:0,0:0:0:0:
402,74,70582,5,14,0:0:0:0:
144,72,70822,1,0,0:0:0:0:
82,298,71062,2,8,L|81:223,1,70
336,180,71662,5,0,0:0:0:0:
336,180,72022,5,12,0:0:0:0:
144,308,72262,2,8,L|144:232,1,70
392,240,72742,5,0,0:0:0:0:
322,309,72982,2,8,L|270:253,1,70
75,64,73462,2,0,L|131:128,1,70,4|4,0:0|0:0,0:0:0:0:
240,194,73942,5,4,0:0:0:0:
108,300,74182,6,0,L|120:264,1,35
248,316,74422,2,0,L|248:268,1,35
427,170,74662,2,0,L|403:118,1,52.5
389,287,75142,5,8,0:0:0:0:
103,93,75502,5,8,0:0:0:0:
217,94,75622,1,8,0:0:0:0:
432,180,75862,5,4,0:0:0:0:
336,180,76342,5,8,0:0:0:0:
144,180,76462,1,4,0:0:0:0:
40,180,76582,5,4,0:0:0:0:
164,80,76702,1,8,0:0:0:0:
324,80,76822,1,8,0:0:0:0:
240,184,76942,1,0,0:0:0:0:
328,288,77062,6,4,L|468:288,2,140
328,208,78142,5,0,0:0:0:0:
256,240,78262,5,0,0:0:0:0:
276,136,78382,1,0,0:0:0:0:
176,156,78502,5,0,0:0:0:0:
204,68,78622,5,0,0:0:0:0:
96,196,78742,1,8,0:0:0:0:
92,300,78922,6,0,L|152:304,1,52.5
352,92,79222,5,8,0:0:0:0:
448,192,79342,1,8,0:0:0:0:
256,192,79462,1,8,0:0:0:0:
352,228,79702,5,4,0:0:0:0:
196,328,79942,5,8,0:0:0:0:
196,224,80062,5,8,0:0:0:0:
80,128,80182,5,8,0:0:0:0:
196,52,80302,5,8,0:0:0:0:
352,52,80422,5,8,0:0:0:0:
476,136,80542,5,8,0:0:0:0:
352,228,80662,5,8,0:0:0:0:
356,328,80782,5,8,0:0:0:0:
256,192,80902,5,8,0:0:0:0:
256,100,81382,5,4,0:0:0:0:
256,192,81862,1,0,0:0:0:0:
144,192,82342,5,0,0:0:0:0:
256,192,82582,1,0,0:0:0:0:
364,192,82822,1,0,0:0:0:0:
256,96,83062,5,0,0:0:0:0:
256,288,83302,5,0,0:0:0:0:
96,192,83782,1,0,0:0:0:0:
408,192,84022,1,0,0:0:0:0:
96,192,84262,5,0,0:0:0:0:
128,164,84382,1,0,0:0:0:0:
168,140,84502,1,0,0:0:0:0:
204,128,84622,1,0,0:0:0:0:
288,180,84742,1,0,0:0:0:0:
248,200,84862,1,0,0:0:0:0:
212,224,84982,1,0,0:0:0:0:
248,108,85102,5,0,0:0:0:0:
320,212,85222,6,0,L|308:200,7,17.5,0|0|0|0|0|0|0|0,0:0|0:0|0:0|0:0|0:0|0:0|0:0|0:0,0:0:0:0:
108,284,85822,5,0,0:0:0:0:
108,284,85942,5,0,0:0:0:0:
108,284,86062,5,0,0:0:0:0:
108,284,86182,2,8,B|108:204|108:204|176:204,1,140
196,204,86902,5,4,0:0:0:0:
412,84,87142,2,8,L|340:84,1,70,0|0,0:0|0:0,0:0:0:0:
208,127,87502,1,0,0:0:0:0:
412,184,87622,2,8,L|340:184,1,70
213,237,87982,5,0,0:0:0:0:
412,288,88102,2,8,L|340:288,1,70
272,137,88462,5,0,0:0:0:0:
72,84,88582,6,8,L|144:84,1,70
276,238,88942,5,0,0:0:0:0:
72,184,89062,2,8,L|148:184,1,70
72,284,89542,6,8,L|144:284,1,70
430,190,90022,5,0,0:0:0:0:
203,192,90262,1,4,0:0:0:0:
68,284,90502,1,4,0:0:0:0:
68,64,90742,5,0,0:0:0:0:
256,192,90922,1,0,0:0:0:0:
68,284,90982,1,4,0:0:0:0:
112,81,91222,1,4,0:0:0:0:
400,192,91462,6,0,L|400:228,6,35,8|4|8|4|8|4|8,0:0|0:0|0:0|0:0|0:0|0:0|0:0,0:0:0:0:
154,188,92302,5,0,0:0:0:0:
154,188,92422,5,0,0:0:0:0:
232,188,92542,2,0,L|232:236,1,35
317,101,92902,6,0,L|393:101,1,70
128,236,93382,2,0,L|128:192,3,35
128,128,93862,6,4,L|128:208,1,70
345,157,94222,5,0,0:0:0:0:
40,128,94342,6,8,L|112:128,1,70
262,250,94702,1,0,0:0:0:0:
40,212,94822,2,8,L|116:212,1,70
124,132,95182,1,0,0:0:0:0:
40,292,95302,2,8,L|112:292,1,70
244,70,95782,5,0,0:0:0:0:
256,192,96022,5,4,0:0:0:0:
296,292,96262,2,8,L|220:292,1,70
430,280,96742,2,8,L|369:284,1,52.5
296,292,97222,2,8,L|220:292,1,70
93,266,97702,5,8,0:0:0:0:
378,189,97942,1,8,0:0:0:0:
261,111,98182,1,8,0:0:0:0:
184,208,98422,1,4,0:0:0:0:
425,275,98662,1,4,0:0:0:0:
360,272,99142,5,12,0:0:0:0:
134,264,99622,1,12,0:0:0:0:
276,192,100102,6,0,L|276:172,15,17.5,8|4|8|4|8|4|8|4|8|4|8|4|8|4|8|4,0:0|0:0|0:0|0:0|0:0|0:0|0:0|0:0|0:0|0:0|0:0|0:0|0:0|0:0|0:0|0:0,0:0:0:0:
66,105,101542,5,4,0:0:0:0:
331,118,101782,1,4,0:0:0:0:
168,104,102022,1,8,0:0:0:0:
377,207,102262,1,8,0:0:0:0:
256,276,102502,1,4,0:0:0:0:
168,276,102742,1,4,0:0:0:0:
256,192,102982,12,8,104422,0:0:0:0:
144,320,104902,6,0,L|24:224,1,140,8|4,0:0|0:0,0:0:0:0:
240,196,105622,5,8,0:0:0:0:
364,320,105862,6,0,L|484:224,1,140,8|4,0:0|0:0,0:0:0:0:
240,196,106582,5,8,0:0:0:0:
128,116,106822,2,8,L|12:32,1,140,8|4,0:0|0:0,0:0:0:0:
240,196,107542,5,12,0:0:0:0:
240,196,107782,2,0,L|420:64,1,210,4|12,0:0|0:0,0:0:0:0:
112,312,108742,6,4,B|112:32|112:32|392:32|392:308|392:28,1,700
152,188,111382,2,0,L|144:152,1,35,8|0,0:0|0:0,0:0:0:0:
375,292,111682,5,0,0:0:0:0:
256,188,111862,2,0,L|256:148,1,35,8|0,0:0|0:0,0:0:0:0:
117,301,112102,1,12,0:0:0:0:
152,188,112342,5,0,0:0:0:0:
376,288,112582,6,10,B|476:188|476:188|364:92,1,280,12|12,0:0|0:0,0:0:0:0:
148,196,113782,2,0,L|224:156,1,70
104,296,114262,1,0,0:0:0:0:
429,292,114502,5,0,0:0:0:0:
106,140,114862,1,8,0:0:0:0:
412,300,115222,1,4,0:0:0:0:
100,80,115462,1,4,0:0:0:0:
393,302,115702,1,8,0:0:0:0:
224,252,116002,2,0,L|180:296,1,52.5
96,300,116422,5,4,0:0:0:0:
277,194,116662,5,8,0:0:0:0:
354,124,116782,1,8,0:0:0:0:
186,66,116902,1,8,0:0:0:0:
357,295,117082,1,4,0:0:0:0:
60,108,117382,1,12,0:0:0:0:
346,185,117622,1,8,0:0:0:0:
60,196,117862,1,8,0:0:0:0:
347,271,118102,1,4,0:0:0:0:
152,328,118342,6,0,B|248:328|156:328|276:260,2,140,4|8|12,0:0|0:0|0:0,0:0:0:0:
152,328,119542,5,0,0:0:0:0:
458,93,119782,5,8,0:0:0:0:
107,92,120022,1,0,0:0:0:0:
392,124,120262,5,12,0:0:0:0:
296,64,120382,1,12,0:0:0:0:
196,64,120502,1,12,0:0:0:0:
112,128,120622,1,12,0:0:0:0:
392,232,120742,5,8,0:0:0:0:
324,324,120862,1,8,0:0:0:0:
204,324,120982,1,8,0:0:0:0:
116,248,121102,1,8,0:0:0:0:
392,124,121222,5,8,0:0:0:0:
296,64,121342,1,4,0:0:0:0:
196,64,121462,1,8,0:0:0:0:
112,128,121582,1,4,0:0:0:0:
116,248,121702,5,8,0:0:0:0:
204,324,121822,1,4,0:0:0:0:
324,324,121942,1,4,0:0:0:0:
404,232,122062,1,4,0:0:0:0:
192,192,122182,5,8,0:0:0:0:
397,186,122422,1,8,0:0:0:0:
132,73,122662,1,4,0:0:0:0:
381,74,122902,1,8,0:0:0:0:
320,296,123142,1,4,0:0:0:0:
83,296,123382,1,4,0:0:0:0:
102,178,123622,1,4,0:0:0:0:
406,199,123862,1,4,0:0:0:0:
184,304,124102,6,8,B|80:196|80:196|184:104|184:104,2,280,8|8|8,0:0|0:0|0:0,0:0:0:0:
435,303,126262,1,8,0:0:0:0:
107,93,126502,6,0,L|179:93,4,70,8|4|8|4|8,0:0|0:0|0:0|0:0|0:0,0:0:0:0:
170,302,127702,5,0,0:0:0:0:
264,340,127942,2,0,B|480:72|484:-40|236:88|236:88|88:40|88:40|64:228|192:320,1,980,0|14,0:0|0:0,0:0:0:0:
76,200,131782,6,0,L|132:140,1,70,8|4,0:0|0:0,0:0:0:0:
421,202,132262,1,4,0:0:0:0:
240,200,132502,5,8,0:0:0:0:
240,288,132982,5,4,0:0:0:0:
324,196,133222,2,0,L|324:124,1,70,4|8,0:0|0:0,0:0:0:0:
75,90,133582,1,0,0:0:0:0:
76,200,133702,6,0,L|132:140,1,70,4|4,0:0|0:0,0:0:0:0:
420,195,134182,1,4,0:0:0:0:
331,108,134422,5,4,0:0:0:0:
69,110,134662,5,4,0:0:0:0:
68,303,134902,5,4,0:0:0:0:
324,196,135142,2,0,L|324:124,1,70,4|8,0:0|0:0,0:0:0:0:
76,200,135622,6,0,L|132:140,1,70,4|4,0:0|0:0,0:0:0:0:
402,281,136102,1,4,0:0:0:0:
70,293,136342,5,4,0:0:0:0:
407,77,136582,5,4,0:0:0:0:
346,302,136822,5,4,0:0:0:0:
89,145,137062,2,4,L|89:73,1,70,4|8,0:0|0:0,0:0:0:0:
345,76,137542,5,8,0:0:0:0:
240,116,137842,1,8,0:0:0:0:
156,116,137962,1,8,0:0:0:0:
156,200,138202,1,8,0:0:0:0:
324,200,138322,1,4,0:0:0:0:
324,116,138562,5,8,0:0:0:0:
240,116,138682,1,8,0:0:0:0:
156,116,138802,1,0,0:0:0:0:
240,200,138982,1,12,0:0:0:0:
76,200,139522,5,8,0:0:0:0:
156,200,139762,2,0,L|156:248,1,35,4|8,0:0|0:0,0:0:0:0:
240,204,140122,2,0,L|244:168,1,35,4|8,0:0|0:0,0:0:0:0:
324,200,140662,5,8,0:0:0:0:
324,116,140902,1,8,0:0:0:0:
240,116,141142,1,4,0:0:0:0:
240,200,141382,1,8,0:0:0:0:
156,116,141652,5,4,0:0:0:0:
156,204,141922,5,0,0:0:0:0:
156,204,142222,6,0,P|192:136|300:144,1,183.750007009506
416,200,142882,1,8,0:0:0:0:
256,304,143362,5,8,0:0:0:0:
256,88,143482,1,4,0:0:0:0:
256,192,144082,1,4,0:0:0:0:
416,192,144322,1,4,0:0:0:0:
96,192,144562,1,4,0:0:0:0:
256,192,144802,1,4,0:0:0:0:
256,328,144922,1,4,0:0:0:0:
256,68,145042,5,12,0:0:0:0:
256,192,145282,5,4,0:0:0:0:
416,192,145642,1,4,0:0:0:0:
96,192,146002,1,8,0:0:0:0:
256,328,146242,1,8,0:0:0:0:
256,68,146452,1,4,0:0:0:0:
256,192,146662,1,8,0:0:0:0:
44,192,147142,5,8,0:0:0:0:
464,192,147622,1,8,0:0:0:0:
44,192,148102,1,8,0:0:0:0:
464,192,148582,1,8,0:0:0:0:
96,192,149062,5,8,0:0:0:0:
408,192,149542,1,4,0:0:0:0:
408,192,149782,5,4,0:0:0:0:
96,192,150022,1,8,0:0:0:0:
476,192,150502,1,12,0:0:0:0:
408,104,150982,2,0,B|368:104|368:104|368:72,1,70,4|8,0:0|0:0,0:0:0:0:
316,76,151462,2,0,B|280:76|280:76|280:116,1,70,8|4,0:0|0:0,0:0:0:0:
228,112,151942,5,8,0:0:0:0:
172,112,152242,2,4,P|172:76|168:72,2,35,4|4|4,0:0|0:0|0:0,0:0:0:0:
61,194,152722,5,0,0:0:0:0:
434,212,152902,2,12,L|434:188,14,17.5,10|10|10|10|10|10|10|10|10|10|10|10|10|10|10,0:0|0:0|0:0|0:0|0:0|0:0|0:0|0:0|0:0|0:0|0:0|0:0|0:0|0:0|0:0,0:0:0:0:
79,212,153862,2,12,L|79:188,14,17.5,2|2|2|2|2|2|2|2|2|2|2|2|2|2|2,0:0|0:0|0:0|0:0|0:0|0:0|0:0|0:0|0:0|0:0|0:0|0:0|0:0|0:0|0:0,0:0:0:0:
96,192,154822,5,8,0:0:0:0:
468,192,155302,1,8,0:0:0:0:
40,192,155782,1,8,0:0:0:0:
408,192,156262,1,8,0:0:0:0:
96,192,156742,5,8,0:0:0:0:
476,192,157222,1,8,0:0:0:0:
360,192,157462,5,4,0:0:0:0:
36,192,157702,1,8,0:0:0:0:
476,192,158182,1,4,0:0:0:0:
408,104,158662,2,0,B|368:104|368:104|368:72,1,70,4|8,0:0|0:0,0:0:0:0:
316,76,159142,2,0,B|280:76|280:76|280:116,1,70,8|4,0:0|0:0,0:0:0:0:
70,228,159622,5,8,0:0:0:0:
172,112,159922,2,0,P|172:76|168:72,2,35,4|8|8,0:0|0:0|0:0,0:0:0:0:
363,206,160402,5,8,0:0:0:0:
447,209,160582,2,0,L|447:185,14,17.5,2|2|2|2|2|2|2|2|2|2|2|2|2|2|2,0:0|0:0|0:0|0:0|0:0|0:0|0:0|0:0|0:0|0:0|0:0|0:0|0:0|0:0|0:0,0:0:0:0:
83,207,161542,2,0,L|83:183,14,17.5,6|6|6|6|6|6|6|6|6|6|6|6|6|6|6,0:0|0:0|0:0|0:0|0:0|0:0|0:0|0:0|0:0|0:0|0:0|0:0|0:0|0:0|0:0,0:0:0:0:
256,192,162502,12,14,168262,0:0:0:0:
388,188,168622,5,8,0:0:0:0:
44,187,168922,1,4,0:0:0:0:
172,102,169462,1,4,0:0:0:0:
40,192,170002,1,4,0:0:0:0:
256,192,170272,5,10,0:0:0:0:
151,189,170422,1,10,0:0:0:0:
472,192,170902,2,0,L|472:272,1,70
