osu file format v12

[General]
AudioFilename: Jian Wu Hong Xiu.mp3
AudioLeadIn: 3000
PreviewTime: 85031
Countdown: 0
SampleSet: Soft
StackLeniency: 0.7
Mode: 0
LetterboxInBreaks: 0

[Editor]
DistanceSpacing: 1.2
BeatDivisor: 8
GridSize: 4

[Metadata]
Title:Jian Wu Hong Xiu
TitleUnicode:剑舞红袖
Artist:Luo Jiyi
ArtistUnicode:骆集益
Creator:Megurine Luka
Version:Sword
Source:Gu Jian Qi Tan
Tags:古剑奇谭 红玉 Lo Chiyi
BeatmapID:275192
BeatmapSetID:52131

[Difficulty]
HPDrainRate:7
CircleSize:4
OverallDifficulty:6
ApproachRate:7
SliderMultiplier:1.4
SliderTickRate:1

[Events]
//Background and Video events
0,0,"8ef089529822720e8c80f7b97bcb0a46f21fab2a.jpg",0,0
//Break Periods
//Storyboard Layer 0 (Background)
//Storyboard Layer 1 (Fail)
//Storyboard Layer 2 (Pass)
//Storyboard Layer 3 (Foreground)
//Storyboard Sound Samples
//Background Colour Transformations
3,100,163,162,255

[TimingPoints]
21,625,4,2,1,40,1,0
9999,625,4,2,1,40,1,0
20033,625,4,2,1,40,1,0
80033,-100,4,2,1,5,0,0
82845,-100,4,2,1,40,0,0
85033,-100,4,2,1,40,0,1
122533,-100,4,2,1,40,0,0
127533,659.340659340659,4,2,1,40,1,0
128192,681.818181818182,4,2,1,40,1,0
128532,789.473684210526,4,2,1,40,1,0
128926,857.142857142857,4,2,1,40,1,0
129354,909.090909090909,4,2,1,40,1,0
129808,923.076923076923,4,2,1,40,1,0

[Colours]
Combo1 : 183,0,0
Combo2 : 128,128,192
Combo3 : 255,128,128
Combo4 : 193,193,225
SliderBorder : 255,255,255

[HitObjects]
76,160,21,1,4,0:0:0:0:
144,112,333,1,0,0:0:0:0:
228,104,646,1,0,0:0:0:0:
312,116,958,1,0,0:0:0:0:
392,148,1271,2,0,B|420:180|460:176,1,70,2|0,0:0|0:0,0:0:0:0:
408,248,1896,2,0,B|384:276|344:276,1,70,0|0,0:0|0:0,0:0:0:0:
176,272,2521,2,0,B|200:244|240:244,1,70,4|0,0:0|0:0,0:0:0:0:
176,112,3146,2,0,B|200:140|240:140,2,70,0|0|2,0:0|0:0|0:0,0:0:0:0:
256,300,4396,5,0,0:0:0:0:
204,236,4708,1,0,0:0:0:0:
148,172,5021,2,0,B|108:188|72:168,1,70,4|0,0:0|0:0,0:0:0:0:
280,112,5646,2,0,B|316:128|352:112,1,70,0|0,0:0|0:0,0:0:0:0:
440,24,6271,2,0,B|496:72|484:156,1,140,2|0,0:0|0:0,0:0:0:0:
460,232,7208,1,0,0:0:0:0:
308,324,7521,6,0,B|264:316|240:276,1,70,4|0,0:0|0:0,0:0:0:0:
244,280,8146,1,0,0:0:0:0:
240,272,8458,1,0,0:0:0:0:
236,264,8771,1,2,0:0:0:0:
256,40,9999,6,0,B|256:108,2,70,4|0|0,0:0|0:0|0:0,0:0:0:0:
256,40,10936,1,0,0:0:0:0:
256,184,11249,1,2,0:0:0:0:
32,192,11874,2,0,B|64:228|116:212,1,70,0|0,0:0|0:0,0:0:0:0:
184,212,12499,1,4,0:0:0:0:
188,208,12811,1,0,0:0:0:0:
192,204,13124,1,0,0:0:0:0:
196,200,13436,5,0,0:0:0:0:
232,176,13592,1,0,0:0:0:0:
268,152,13749,1,2,0:0:0:0:
404,52,14374,6,0,B|440:76|440:124,1,70,0|0,0:0|0:0,0:0:0:0:
368,208,14999,2,0,B|400:180|448:196,2,70,4|0|0,0:0|0:0|0:0,0:0:0:0:
316,276,15936,1,0,0:0:0:0:
236,296,16249,1,2,0:0:0:0:
156,276,16561,5,0,0:0:0:0:
148,236,16717,1,0,0:0:0:0:
168,200,16874,1,0,0:0:0:0:
156,160,17030,1,0,0:0:0:0:
164,120,17186,1,0,0:0:0:0:
72,192,17499,5,4,0:0:0:0:
256,80,18124,1,0,0:0:0:0:
424,192,18749,1,2,0:0:0:0:
256,300,19374,1,0,0:0:0:0:
84,236,20033,6,0,B|128:244|160:216,1,70,4|0,0:0|0:0,0:0:0:0:
224,204,20658,2,0,P|280:156|356:152,1,140,0|2,0:0|0:0,0:0:0:0:
343,149,21908,1,0,0:0:0:0:
316,228,22220,1,0,0:0:0:0:
360,300,22533,1,4,0:0:0:0:
188,260,23158,5,0,0:0:0:0:
52,248,23470,1,2,0:0:0:0:
156,340,23783,1,0,0:0:0:0:
124,204,24095,1,0,0:0:0:0:
72,328,24408,1,0,0:0:0:0:
236,192,25033,6,0,B|276:180|292:140,1,70,4|0,0:0|0:0,0:0:0:0:
300,108,25501,1,0,0:0:0:0:
340,120,25658,2,0,B|408:156|484:120,1,140,0|2,0:0|0:0,0:0:0:0:
440,296,26908,2,0,P|420:268|417:232,1,70,0|0,0:0|0:0,0:0:0:0:
312,304,27533,2,0,B|244:340|164:312,1,140,4|0,0:0|0:0,0:0:0:0:
104,268,28470,5,0,0:0:0:0:
80,188,28783,1,2,0:0:0:0:
24,124,29095,1,0,0:0:0:0:
88,72,29408,1,0,0:0:0:0:
88,72,29720,1,0,0:0:0:0:
88,72,30033,6,0,B|144:112|204:100,1,105,4|0,0:0|0:0,0:0:0:0:
220,76,30658,2,0,B|240:112|296:120,1,70,0|0,0:0|0:0,0:0:0:0:
276,116,31283,1,2,0:0:0:0:
376,152,31595,1,0,0:0:0:0:
436,244,31908,1,0,0:0:0:0:
412,348,32220,1,0,0:0:0:0:
312,364,32533,6,0,P|264:352|244:332,1,70,4|0,0:0|0:0,0:0:0:0:
168,244,33158,1,0,0:0:0:0:
52,208,33470,1,0,0:0:0:0:
64,328,33783,1,2,0:0:0:0:
180,92,34408,5,0,0:0:0:0:
264,80,34720,1,0,0:0:0:0:
336,120,35033,2,0,B|384:152|440:136,1,105,4|0,0:0|0:0,0:0:0:0:
436,136,35658,1,0,0:0:0:0:
488,80,35970,1,0,0:0:0:0:
396,68,36283,1,2,0:0:0:0:
296,108,36595,1,0,0:0:0:0:
224,204,36908,1,0,0:0:0:0:
176,316,37220,1,0,0:0:0:0:
176,316,37376,1,0,0:0:0:0:
176,316,37533,6,0,B|244:356|312:316,1,140,4|0,0:0|0:0,0:0:0:0:
382,293,38470,1,0,0:0:0:0:
472,228,38783,1,2,0:0:0:0:
486,342,39095,1,0,0:0:0:0:
472,228,39408,1,0,0:0:0:0:
382,293,39720,1,0,0:0:0:0:
156,208,40033,5,4,0:0:0:0:
236,188,40345,1,0,0:0:0:0:
304,136,40658,2,0,B|372:104|444:140,1,140,0|2,0:0|0:0,0:0:0:0:
492,208,41595,1,0,0:0:0:0:
412,236,41908,2,0,B|416:284|376:316,1,70,0|0,0:0|0:0,0:0:0:0:
328,244,42533,1,4,0:0:0:0:
172,192,43158,5,0,0:0:0:0:
92,172,43470,1,0,0:0:0:0:
88,88,43783,1,2,0:0:0:0:
164,56,44095,1,0,0:0:0:0:
220,120,44408,1,0,0:0:0:0:
268,336,45033,6,0,B|280:284|340:268,1,105,4|0,0:0|0:0,0:0:0:0:
372,296,45658,2,0,B|432:276|440:208,1,105,0|0,0:0|0:0,0:0:0:0:
476,236,46283,6,0,B|512:216,1,35,2|0,0:0|0:0,0:0:0:0:
492,180,46595,2,0,B|508:140,1,35,0|0,0:0|0:0,0:0:0:0:
464,136,46908,2,0,B|448:104,1,35,0|0,0:0|0:0,0:0:0:0:
416,128,47220,2,0,B|376:108,1,35,0|0,0:0|0:0,0:0:0:0:
364,148,47533,2,0,B|296:184|216:136,1,140,4|0,0:0|0:0,0:0:0:0:
156,100,48470,5,0,0:0:0:0:
92,152,48783,1,2,0:0:0:0:
76,68,49095,1,0,0:0:0:0:
156,100,49408,1,0,0:0:0:0:
176,180,49720,1,0,0:0:0:0:
176,180,50033,6,0,B|140:252|64:260,1,140,4|0,0:0|0:0,0:0:0:0:
20,328,50970,1,0,0:0:0:0:
100,352,51283,2,0,P|160:360|204:344,1,105,2|0,0:0|0:0,0:0:0:0:
244,352,51908,2,0,P|276:328|320:328,1,70,0|0,0:0|0:0,0:0:0:0:
392,336,52533,6,0,P|448:324|472:244,1,140,4|0,0:0|0:0,0:0:0:0:
420,184,53470,1,0,0:0:0:0:
440,104,53783,1,2,0:0:0:0:
268,32,54408,1,0,0:0:0:0:
268,32,54720,1,0,0:0:0:0:
268,32,55033,6,0,B|268:144,1,105,4|0,0:0|0:0,0:0:0:0:
268,180,55658,2,0,B|268:252,1,70,0|0,0:0|0:0,0:0:0:0:
184,268,56283,2,0,B|136:304|88:288,1,70,2|0,0:0|0:0,0:0:0:0:
0,260,56908,2,0,B|20:232|84:232,1,70,0|0,0:0|0:0,0:0:0:0:
140,200,57533,2,0,B|200:160|200:48,1,140,4|0,0:0|0:0,0:0:0:0:
116,96,58470,5,0,0:0:0:0:
200,136,58783,1,2,0:0:0:0:
292,140,59095,1,0,0:0:0:0:
384,120,59408,1,0,0:0:0:0:
436,276,60033,5,4,0:0:0:0:
384,120,60658,1,0,0:0:0:0:
308,184,60970,1,0,0:0:0:0:
212,200,61283,1,2,0:0:0:0:
24,136,61908,1,0,0:0:0:0:
68,292,62533,6,0,B|104:336|188:328,1,105,4|0,0:0|0:0,0:0:0:0:
188,364,63158,2,0,B|224:336|264:348,1,70,0|0,0:0|0:0,0:0:0:0:
348,336,63783,6,0,B|432:212|396:160|276:128|252:244|288:312|448:272,1,419.999987483025,2|0,0:0|0:0,0:0:0:0:
456,144,66283,2,0,B|381:117|364:33|282:35,1,210,2|0,0:0|0:0,0:0:0:0:
172,56,67533,1,4,0:0:0:0:
56,192,68158,1,0,0:0:0:0:
172,56,68783,5,2,0:0:0:0:
248,92,69095,1,0,0:0:0:0:
328,72,69408,2,0,P|368:56|408:64,1,70,0|0,0:0|0:0,0:0:0:0:
412,144,70033,2,0,B|440:172|492:164,1,70,4|0,0:0|0:0,0:0:0:0:
480,248,70658,1,0,0:0:0:0:
340,248,71283,2,0,B|284:296|200:280,1,140,2|0,0:0|0:0,0:0:0:0:
52,160,72533,6,0,B|128:168|184:104,1,140,4|0,0:0|0:0,0:0:0:0:
264,60,73470,1,0,0:0:0:0:
264,152,73783,2,0,B|300:172|340:160,1,70,2|0,0:0|0:0,0:0:0:0:
344,72,74408,2,0,B|420:84|460:152,1,140,0|4,0:0|0:0,0:0:0:0:
328,336,75658,5,0,0:0:0:0:
260,288,75970,1,0,0:0:0:0:
184,324,76283,2,0,B|100:344|48:276,1,140,2|0,0:0|0:0,0:0:0:0:
152,184,77533,6,0,B|128:104|212:76|212:76|248:148|328:156,1,280,4|2,0:0|0:0,0:0:0:0:
348,336,79408,2,0,B|308:328|288:288,1,70,0|0,0:0|0:0,0:0:0:0:
256,192,80033,12,0,82533,0:0:0:0:
92,56,82845,5,0,0:0:0:0:
164,100,83158,1,0,0:0:0:0:
92,144,83470,1,0,0:0:0:0:
236,56,83783,1,2,0:0:0:0:
244,220,84095,1,0,0:0:0:0:
84,228,84408,1,0,0:0:0:0:
164,100,84720,1,0,0:0:0:0:
244,220,85033,6,0,B|276:268|340:268,1,105,4|0,0:0|0:0,0:0:0:0:
312,304,85658,2,0,B|360:328|440:300,1,105,0|0,0:0|0:0,0:0:0:0:
436,344,86283,2,0,B|476:344|512:296,1,70,2|0,0:0|0:0,0:0:0:0:
464,236,86908,2,0,B|497:213|499:167,1,70,0|0,0:0|0:0,0:0:0:0:
408,168,87533,2,0,B|360:104|272:116,1,140,4|0,0:0|0:0,0:0:0:0:
232,180,88470,5,0,0:0:0:0:
152,208,88783,1,2,0:0:0:0:
164,124,89095,1,0,0:0:0:0:
232,180,89408,1,0,0:0:0:0:
388,60,90033,6,0,B|376:104|320:116,1,70,4|0,0:0|0:0,0:0:0:0:
200,140,90658,2,0,B|240:124|288:144,1,70,0|0,0:0|0:0,0:0:0:0:
344,176,91283,2,0,B|364:256|300:300,1,140,2|0,0:0|0:0,0:0:0:0:
301,299,92220,1,0,0:0:0:0:
224,264,92533,2,0,B|152:232|72:260,1,140,4|0,0:0|0:0,0:0:0:0:
12,288,93470,5,0,0:0:0:0:
28,204,93783,1,2,0:0:0:0:
112,192,94095,1,0,0:0:0:0:
148,268,94408,1,0,0:0:0:0:
88,328,94720,1,0,0:0:0:0:
148,268,95033,6,0,B|216:260|248:180,1,140,4|0,0:0|0:0,0:0:0:0:
280,104,95970,1,0,0:0:0:0:
248,180,96283,2,0,B|316:224|397:194,1,140,2|0,0:0|0:0,0:0:0:0:
464,168,97220,1,0,0:0:0:0:
382,198,97533,2,0,B|388:275|460:311,1,140,4|0,0:0|0:0,0:0:0:0:
388,356,98470,1,0,0:0:0:0:
312,316,98783,1,2,0:0:0:0:
152,264,99408,1,0,0:0:0:0:
152,264,99720,6,0,B|200:228|204:180,1,70,0|4,0:0|0:0,0:0:0:0:
168,131,100345,2,0,B|211:108,2,35,0|0|0,0:0|0:0|0:0,0:0:0:0:
280,64,100970,2,0,B|292:108|332:124,1,70,0|2,0:0|0:0,0:0:0:0:
384,176,101595,2,0,B|376:216|336:236,1,70,0|0,0:0|0:0,0:0:0:0:
260,244,102220,1,0,0:0:0:0:
260,244,102533,2,0,B|220:320|136:312,1,140,4|0,0:0|0:0,0:0:0:0:
68,292,103470,5,0,0:0:0:0:
36,212,103783,1,2,0:0:0:0:
88,148,104095,1,0,0:0:0:0:
120,224,104408,1,0,0:0:0:0:
36,212,104720,1,0,0:0:0:0:
88,148,105033,6,0,B|144:148|200:88,1,105,4|0,0:0|0:0,0:0:0:0:
172,64,105658,2,0,B|192:124|268:140,1,105,0|0,0:0|0:0,0:0:0:0:
276,108,106283,2,0,B|268:184|320:240,1,140,2|0,0:0|0:0,0:0:0:0:
317,237,107220,1,0,0:0:0:0:
320,368,107533,2,0,B|348:300|432:288,1,140,4|0,0:0|0:0,0:0:0:0:
480,224,108470,5,0,0:0:0:0:
352,184,108783,1,2,0:0:0:0:
448,96,109095,1,0,0:0:0:0:
480,224,109408,1,0,0:0:0:0:
64,276,110033,6,0,B|108:212|192:228,1,140,4|0,0:0|0:0,0:0:0:0:
186,226,110970,1,0,0:0:0:0:
264,176,111283,2,0,B|312:176,1,35,2|0,0:0|0:0,0:0:0:0:
316,140,111595,2,0,B|348:104,1,35,0|0,0:0|0:0,0:0:0:0:
316,80,111908,2,0,B|324:44,1,35,0|0,0:0|0:0,0:0:0:0:
284,36,112220,2,0,B|260:8,1,35,0|0,0:0|0:0,0:0:0:0:
220,16,112533,6,0,B|180:100|100:96,1,140,4|0,0:0|0:0,0:0:0:0:
56,36,113470,1,0,0:0:0:0:
32,116,113783,1,2,0:0:0:0:
88,180,114095,1,0,0:0:0:0:
172,188,114408,1,0,0:0:0:0:
256,180,114720,6,0,B|284:160|328:164,1,70,0|4,0:0|0:0,0:0:0:0:
404,172,115345,2,0,B|424:248|500:272,1,140,0|0,0:0|0:0,0:0:0:0:
496,128,116283,2,0,B|476:52|400:28,1,140,2|0,0:0|0:0,0:0:0:0:
352,96,117220,1,0,0:0:0:0:
288,152,117533,6,0,B|216:108,1,70,4|0,0:0|0:0,0:0:0:0:
96,140,118158,2,0,B|168:184,1,70,0|0,0:0|0:0,0:0:0:0:
155,176,118783,1,2,0:0:0:0:
356,148,119408,1,0,0:0:0:0:
356,148,119720,6,0,B|356:236,1,70,0|4,0:0|0:0,0:0:0:0:
356,304,120345,2,0,B|356:352,2,35,0|0|0,0:0|0:0|0:0,0:0:0:0:
280,264,120970,2,0,B|228:268|192:236,1,70,0|2,0:0|0:0,0:0:0:0:
132,220,121595,1,0,0:0:0:0:
200,168,121908,1,0,0:0:0:0:
248,100,122220,2,0,B|284:68|272:16,1,70,0|4,0:0|0:0,0:0:0:0:
108,56,123158,5,0,0:0:0:0:
140,136,123470,1,0,0:0:0:0:
216,168,123783,1,2,0:0:0:0:
380,196,124408,2,0,B|456:228|472:312,1,140,0|4,0:0|0:0,0:0:0:0:
108,57,125658,5,0,0:0:0:0:
102,143,125970,1,0,0:0:0:0:
144,216,126283,1,2,0:0:0:0:
280,108,126908,1,0,0:0:0:0:
256,192,127533,12,0,129808,0:0:0:0:
256,188,131192,5,4,0:0:0:0:
