osu file format v12

[General]
AudioFilename: Jian Wu Hong Xiu.mp3
AudioLeadIn: 3000
PreviewTime: 85031
Countdown: 0
SampleSet: Soft
StackLeniency: 0.7
Mode: 0
LetterboxInBreaks: 0

[Editor]
DistanceSpacing: 1.2
BeatDivisor: 4
GridSize: 4

[Metadata]
Title:Jian Wu Hong Xiu
TitleUnicode:剑舞红袖
Artist:Luo Jiyi
ArtistUnicode:骆集益
Creator:Megurine Luka
Version:Normal
Source:Gu Jian Qi Tan
Tags:古剑奇谭 红玉 Lo Chiyi
BeatmapID:275191
BeatmapSetID:52131

[Difficulty]
HPDrainRate:4
CircleSize:4
OverallDifficulty:4
ApproachRate:5
SliderMultiplier:1.2
SliderTickRate:1

[Events]
//Background and Video events
0,0,"8ef089529822720e8c80f7b97bcb0a46f21fab2a.jpg",0,0
//Break Periods
//Storyboard Layer 0 (Background)
//Storyboard Layer 1 (Fail)
//Storyboard Layer 2 (Pass)
//Storyboard Layer 3 (Foreground)
//Storyboard Sound Samples
//Background Colour Transformations
3,100,163,162,255

[TimingPoints]
21,625,4,2,1,40,1,0
9999,625,4,2,1,40,1,0
20033,625,4,2,1,40,1,0
80033,-100,4,2,1,5,0,0
82845,-100,4,2,1,40,0,0
85033,-100,4,2,1,40,0,1
122533,-100,4,2,1,40,0,0
127533,659.340659340659,4,2,1,40,1,0
128192,681.818181818182,4,2,1,40,1,0
128532,789.473684210526,4,2,1,40,1,0
128926,857.142857142857,4,2,1,40,1,0
129354,909.090909090909,4,2,1,40,1,0
129808,923.076923076923,4,2,1,40,1,0

[Colours]
Combo1 : 183,0,0
Combo2 : 128,128,192
Combo3 : 255,128,128
Combo4 : 193,193,225
SliderBorder : 255,255,255

[HitObjects]
100,240,21,2,0,P|164:208|212:108,1,180,4|0,0:0|0:0,0:0:0:0:
264,64,1271,2,0,P|320:48|384:64,1,120,2|0,0:0|0:0,0:0:0:0:
444,88,2208,1,0,0:0:0:0:
432,160,2521,6,0,L|408:284,1,120,4|0,0:0|0:0,0:0:0:0:
396,348,3458,1,0,0:0:0:0:
328,328,3771,2,0,P|240:300|148:308,1,180,2|0,0:0|0:0,0:0:0:0:
80,308,5021,6,0,P|48:288|20:200,1,120,4|0,0:0|0:0,0:0:0:0:
20,144,5958,1,0,0:0:0:0:
76,100,6271,2,0,P|144:92|168:48,2,120,2|0|4,0:0|0:0|0:0,0:0:0:0:
20,144,7833,1,0,0:0:0:0:
40,212,8146,2,0,P|76:264|144:272,1,120,0|2,0:0|0:0,0:0:0:0:
416,240,9999,5,4,0:0:0:0:
456,68,10624,2,0,L|400:24,2,60,0|0|2,0:0|0:0|0:0,0:0:0:0:
312,88,11874,2,0,P|252:96|188:76,1,120,0|4,0:0|0:0,0:0:0:0:
128,52,12811,1,0,0:0:0:0:
128,124,13124,2,0,P|136:192|112:252,1,120,0|2,0:0|0:0,0:0:0:0:
32,352,14374,5,0,0:0:0:0:
168,304,14999,1,4,0:0:0:0:
312,292,15624,2,0,L|244:276,2,60,0|0|2,0:0|0:0|0:0,0:0:0:0:
416,196,16874,1,0,0:0:0:0:
432,48,17499,6,0,P|356:52|300:24,1,120,4|0,0:0|0:0,0:0:0:0:
208,132,18749,2,0,P|284:128|340:156,1,120,2|0,0:0|0:0,0:0:0:0:
380,276,20033,6,0,P|428:172|412:44,1,240,4|2,0:0|0:0,0:0:0:0:
272,40,21908,1,0,0:0:0:0:
156,124,22533,2,0,P|128:184|60:208,1,120,4|0,0:0|0:0,0:0:0:0:
48,272,23470,1,0,0:0:0:0:
100,324,23783,2,0,P|144:356|216:360,1,120,2|0,0:0|0:0,0:0:0:0:
344,348,25033,6,0,P|360:256|444:200,1,180,4|0,0:0|0:0,0:0:0:0:
472,148,26283,2,0,L|500:28,1,120,2|0,0:0|0:0,0:0:0:0:
499,31,27220,1,0,0:0:0:0:
424,28,27533,2,0,P|332:52|184:28,1,240,4|2,0:0|0:0,0:0:0:0:
52,64,29408,1,0,0:0:0:0:
52,64,29720,1,0,0:0:0:0:
52,64,30033,6,0,P|48:148|72:188,1,120,4|0,0:0|0:0,0:0:0:0:
108,236,30970,1,0,0:0:0:0:
176,212,31283,2,0,P|216:184|296:184,1,120,2|0,0:0|0:0,0:0:0:0:
356,196,32220,1,0,0:0:0:0:
428,208,32533,6,0,P|456:152|460:68,1,120,4|0,0:0|0:0,0:0:0:0:
464,24,33470,1,0,0:0:0:0:
396,44,33783,2,0,P|304:92|164:96,1,240,2|4,0:0|0:0,0:0:0:0:
28,80,35658,1,0,0:0:0:0:
156,148,36283,6,0,P|172:212|152:280,1,120,2|0,0:0|0:0,0:0:0:0:
112,316,37220,1,0,0:0:0:0:
60,268,37533,2,0,P|48:152|84:36,1,240,4|2,0:0|0:0,0:0:0:0:
228,52,39408,1,0,0:0:0:0:
360,112,40033,6,0,P|392:160|452:168,1,120,4|0,0:0|0:0,0:0:0:0:
432,100,40970,1,0,0:0:0:0:
388,44,41283,2,0,P|328:48|288:96,1,120,2|0,0:0|0:0,0:0:0:0:
248,148,42220,1,0,0:0:0:0:
200,200,42533,2,0,P|160:228|72:228,1,120,4|0,0:0|0:0,0:0:0:0:
44,180,43470,1,0,0:0:0:0:
20,248,43783,2,0,L|-4:304,2,60,2|0|0,0:0|0:0|0:0,0:0:0:0:
96,128,45033,6,0,P|168:160|276:128,1,180,4|0,0:0|0:0,0:0:0:0:
324,100,46283,2,0,L|388:72,1,60,2|0,0:0|0:0,0:0:0:0:
424,132,46908,2,0,L|369:156,1,60,0|0,0:0|0:0,0:0:0:0:
308,196,47533,2,0,P|352:256|476:280,1,180,4|0,0:0|0:0,0:0:0:0:
450,284,48783,1,2,0:0:0:0:
492,148,49408,1,0,0:0:0:0:
404,32,50033,6,0,P|320:60|220:44,1,180,4|0,0:0|0:0,0:0:0:0:
160,56,51283,2,0,P|176:144|132:244,1,180,2|0,0:0|0:0,0:0:0:0:
152,300,52533,2,0,P|252:272|336:284,1,180,4|0,0:0|0:0,0:0:0:0:
326,280,53783,1,2,0:0:0:0:
448,208,54408,1,0,0:0:0:0:
364,92,55033,6,0,P|272:96|184:48,1,180,4|0,0:0|0:0,0:0:0:0:
128,28,56283,2,0,B|88:88|120:152|120:152|120:204,1,180,2|0,0:0|0:0,0:0:0:0:
132,272,57533,2,0,P|208:256|320:284,1,180,4|0,0:0|0:0,0:0:0:0:
306,277,58783,1,0,0:0:0:0:
432,208,59408,1,0,0:0:0:0:
480,72,60033,6,0,B|408:48|356:92|356:92|296:104,1,180,4|0,0:0|0:0,0:0:0:0:
308,101,61283,1,2,0:0:0:0:
164,84,61908,1,0,0:0:0:0:
80,196,62533,6,0,P|96:264|256:312,1,240,4|2,0:0|0:0,0:0:0:0:
256,192,63939,12,0,66283,0:0:0:0:
148,76,67533,6,0,P|128:172|140:208,2,120
268,156,69408,1,0,0:0:0:0:
256,192,70033,12,0,71908,0:0:0:0:
440,216,72533,6,0,B|384:228|264:176|196:188,1,240,4|2,0:0|0:0,0:0:0:0:
60,188,74408,1,0,0:0:0:0:
132,64,75033,2,0,B|193:52|313:104|369:92,1,240,4|2,0:0|0:0,0:0:0:0:
448,212,76908,1,0,0:0:0:0:
256,192,77533,12,0,80033,0:0:0:0:
256,192,80345,12,0,82845,0:0:0:0:
240,56,83470,5,0,0:0:0:0:
212,196,84095,1,0,0:0:0:0:
316,296,84720,1,0,0:0:0:0:
316,296,85033,6,0,P|352:252|360:172,1,120,4|0,0:0|0:0,0:0:0:0:
328,52,86283,2,0,P|292:96|284:176,1,120,2|0,0:0|0:0,0:0:0:0:
280,228,87220,1,0,0:0:0:0:
288,300,87533,2,0,P|236:312|104:256,1,180,4|0,0:0|0:0,0:0:0:0:
76,216,88783,2,0,L|48:152,2,60,2|0|0,0:0|0:0|0:0,0:0:0:0:
184,312,90033,5,4,0:0:0:0:
308,240,90658,1,0,0:0:0:0:
452,216,91283,2,0,L|500:152,1,60,2|0,0:0|0:0,0:0:0:0:
480,96,91908,2,0,L|460:24,1,60,0|0,0:0|0:0,0:0:0:0:
392,36,92533,2,0,P|304:48|204:24,1,180,4|0,0:0|0:0,0:0:0:0:
144,44,93783,2,0,L|104:104,2,60,2|0|0,0:0|0:0|0:0,0:0:0:0:
212,64,94720,1,0,0:0:0:0:
284,80,95033,6,0,P|372:92|416:80,1,120,4|0,0:0|0:0,0:0:0:0:
472,64,95970,1,0,0:0:0:0:
468,136,96283,2,0,L|456:268,1,120,2|0,0:0|0:0,0:0:0:0:
452,328,97220,1,0,0:0:0:0:
384,304,97533,2,0,P|288:288|200:312,1,180,4|0,0:0|0:0,0:0:0:0:
144,336,98783,1,2,0:0:0:0:
56,224,99408,1,0,0:0:0:0:
56,224,99720,1,0,0:0:0:0:
56,224,100033,6,0,P|136:212|176:184,1,120,4|0,0:0|0:0,0:0:0:0:
232,160,100970,1,0,0:0:0:0:
232,160,101283,2,0,L|352:148,1,120,2|0,0:0|0:0,0:0:0:0:
424,144,102220,1,0,0:0:0:0:
424,144,102533,2,0,P|440:212|496:256,1,120,4|0,0:0|0:0,0:0:0:0:
500,312,103470,1,0,0:0:0:0:
452,364,103783,2,0,L|384:336,1,60,2|0,0:0|0:0,0:0:0:0:
352,284,104408,2,0,L|284:256,1,60,0|0,0:0|0:0,0:0:0:0:
236,220,105033,6,0,P|144:244|40:216,1,180,4|0,0:0|0:0,0:0:0:0:
36,296,106283,2,0,L|4:372,2,60,2|0|0,0:0|0:0|0:0,0:0:0:0:
108,308,107220,1,0,0:0:0:0:
180,296,107533,2,0,P|272:304|356:248,1,180,4|0,0:0|0:0,0:0:0:0:
396,212,108783,1,2,0:0:0:0:
408,68,109408,1,0,0:0:0:0:
280,132,110033,6,0,P|216:144|144:124,1,120,4|0,0:0|0:0,0:0:0:0:
20,132,111283,2,0,L|-8:196,1,60,2|0,0:0|0:0,0:0:0:0:
60,224,111908,2,0,L|28:300,1,60,0|0,0:0|0:0,0:0:0:0:
108,300,112533,6,0,P|164:348|228:348,1,120,4|0,0:0|0:0,0:0:0:0:
280,344,113470,1,0,0:0:0:0:
348,324,113783,2,0,P|412:296|464:304,1,120,2|0,0:0|0:0,0:0:0:0:
460,302,114720,1,0,0:0:0:0:
472,232,115033,6,0,L|492:104,1,120,4|0,0:0|0:0,0:0:0:0:
500,44,115970,1,0,0:0:0:0:
432,64,116283,2,0,P|316:96|252:80,1,180,2|0,0:0|0:0,0:0:0:0:
192,60,117533,1,4,0:0:0:0:
96,168,118158,5,0,0:0:0:0:
160,200,118470,1,0,0:0:0:0:
232,208,118783,1,2,0:0:0:0:
376,188,119408,1,0,0:0:0:0:
376,188,119720,1,0,0:0:0:0:
376,188,120033,6,0,P|448:240|496:240,1,120,4|0,0:0|0:0,0:0:0:0:
500,308,120970,1,0,0:0:0:0:
436,340,121283,2,0,P|368:356|304:332,1,120,2|0,0:0|0:0,0:0:0:0:
256,316,122220,1,0,0:0:0:0:
244,244,122533,6,0,L|220:120,1,120,4|0,0:0|0:0,0:0:0:0:
208,56,123470,1,0,0:0:0:0:
208,56,123783,1,2,0:0:0:0:
348,92,124408,1,0,0:0:0:0:
240,188,125033,1,0,0:0:0:0:
184,320,125658,6,0,P|232:336|312:300,2,120,0|2|0,0:0|0:0|0:0,0:0:0:0:
256,192,127533,12,0,129808,0:0:0:0:
256,192,131192,5,4,0:0:0:0:
