osu file format v12

[General]
AudioFilename: Jian Wu Hong Xiu.mp3
AudioLeadIn: 3000
PreviewTime: 85031
Countdown: 0
SampleSet: Soft
StackLeniency: 0.7
Mode: 0
LetterboxInBreaks: 0

[Editor]
DistanceSpacing: 1.1
BeatDivisor: 4
GridSize: 4

[Metadata]
Title:Jian Wu Hong Xiu
TitleUnicode:剑舞红袖
Artist:Luo Jiyi
ArtistUnicode:骆集益
Creator:Megurine Luka
Version:Easy
Source:Gu Jian Qi Tan
Tags:古剑奇谭 红玉 Lo Chiyi
BeatmapID:159530
BeatmapSetID:52131

[Difficulty]
HPDrainRate:2
CircleSize:3
OverallDifficulty:2
ApproachRate:3
SliderMultiplier:0.8
SliderTickRate:1

[Events]
//Background and Video events
0,0,"8ef089529822720e8c80f7b97bcb0a46f21fab2a.jpg",0,0
//Break Periods
//Storyboard Layer 0 (Background)
//Storyboard Layer 1 (Fail)
//Storyboard Layer 2 (Pass)
//Storyboard Layer 3 (Foreground)
//Storyboard Sound Samples
//Background Colour Transformations
3,100,163,162,255

[TimingPoints]
21,625,4,2,1,40,1,0
9999,625,4,2,1,40,1,0
20033,625,4,2,1,40,1,0
80033,-100,4,2,1,5,0,0
82845,-100,4,2,1,40,0,0
85033,-100,4,2,1,40,0,1
122533,-100,4,2,1,40,0,0
127533,659.340659340659,4,2,1,40,1,0
128192,681.818181818182,4,2,1,40,1,0
128532,789.473684210526,4,2,1,40,1,0
128926,857.142857142857,4,2,1,40,1,0
129354,909.090909090909,4,2,1,40,1,0
129808,923.076923076923,4,2,1,40,1,0

[Colours]
Combo1 : 183,0,0
Combo2 : 128,128,192
Combo3 : 255,128,128
Combo4 : 193,193,225
SliderBorder : 255,255,255

[HitObjects]
136,192,21,2,0,B|160:136|136:68,2,120,4|0|0,0:0|0:0|0:0,0:0:0:0:
104,272,2521,1,2,0:0:0:0:
160,340,3146,1,0,0:0:0:0:
248,348,3771,1,0,0:0:0:0:
332,316,4396,1,0,0:0:0:0:
376,240,5021,6,0,B|408:164|512:156,1,160,4|0,0:0|0:0,0:0:0:0:
484,72,6896,1,0,0:0:0:0:
400,96,7521,2,0,B|328:128|236:108,1,160,2|0,0:0|0:0,0:0:0:0:
120,236,9999,6,0,B|92:200|48:196,2,80,4|0|0,0:0|0:0|0:0,0:0:0:0:
152,320,11874,1,0,0:0:0:0:
236,352,12499,2,0,B|304:328|364:248,1,160,2|0,0:0|0:0,0:0:0:0:
404,180,14374,1,0,0:0:0:0:
484,140,14999,6,0,P|432:92|348:108,1,160,4|0,0:0|0:0,0:0:0:0:
268,132,16874,1,0,0:0:0:0:
192,176,17499,2,0,B|136:120,1,80,4|0,0:0|0:0,0:0:0:0:
72,180,18749,2,0,B|12:120,1,80,4|0,0:0|0:0,0:0:0:0:
68,52,20033,6,0,B|144:96|228:56,1,160,4|0,0:0|0:0,0:0:0:0:
308,40,21908,1,0,0:0:0:0:
392,16,22533,2,0,P|424:64|412:136,2,120,2|0|0,0:0|0:0|0:0,0:0:0:0:
340,88,25033,6,0,B|312:120|268:124,1,80,4|0,0:0|0:0,0:0:0:0:
184,100,26283,2,0,B|176:148|204:176,1,80
144,240,27533,2,0,B|180:296|248:288,2,120,2|0|0,0:0|0:0|0:0,0:0:0:0:
224,204,30033,6,0,B|252:148|324:144,2,120,4|0|0,0:0|0:0|0:0,0:0:0:0:
184,284,32533,1,2,0:0:0:0:
112,332,33158,1,0,0:0:0:0:
32,364,33783,2,0,P|24:332|40:288,1,80
80,208,35033,6,0,B|148:224|184:160,2,120,4|0|0,0:0|0:0|0:0,0:0:0:0:
104,124,37533,2,0,B|136:44,1,80,2|0,0:0|0:0,0:0:0:0:
212,88,38783,2,0,B|180:168,1,80
144,244,40033,6,0,B|180:256|224:252|256:208,2,120,4|0|0,0:0|0:0|0:0,0:0:0:0:
68,196,42533,2,0,B|40:232|60:272,1,80,2|0,0:0|0:0,0:0:0:0:
48,360,43783,2,0,B|92:368|128:332,1,80
208,356,45033,6,0,B|236:268|320:240,1,160,4|0,0:0|0:0,0:0:0:0:
400,232,46908,1,0,0:0:0:0:
444,156,47533,2,0,P|472:140|496:96,2,80,2|0|0,0:0|0:0|0:0,0:0:0:0:
408,76,49408,1,0,0:0:0:0:
332,116,50033,6,0,B|260:152|168:128,1,160,4|0,0:0|0:0,0:0:0:0:
92,108,51908,1,0,0:0:0:0:
80,196,52533,2,0,B|168:200|216:280,1,160,2|0,0:0|0:0,0:0:0:0:
260,348,54408,1,0,0:0:0:0:
344,368,55033,6,0,B|408:360|424:288,2,120,4|0|0,0:0|0:0|0:0,0:0:0:0:
336,280,57533,2,0,B|308:236|264:236,1,80,2|0,0:0|0:0,0:0:0:0:
196,276,58783,2,0,B|224:320|268:320,2,80,0|0|2,0:0|0:0|0:0,0:0:0:0:
100,260,60658,2,0,P|124:204|220:184,1,160
260,256,62533,6,0,B|304:268|336:236,1,80,4|0,0:0|0:0,0:0:0:0:
280,168,63783,2,0,B|184:124|104:192|104:192|136:264|72:316,1,320
248,364,67533,6,0,B|308:348|316:284|384:276,1,160,2|0,0:0|0:0,0:0:0:0:
468,280,69408,1,0,0:0:0:0:
472,192,70033,6,0,P|360:80|232:160,1,320,2|2,0:0|0:0,0:0:0:0:
148,148,73158,1,0,0:0:0:0:
72,192,73783,2,0,B|96:236|144:232,1,80
168,316,75033,6,0,B|224:272|288:340|352:332|404:300,1,240,2|0,0:0|0:0,0:0:0:0:
472,348,77533,2,0,B|520:256|440:208|412:188|376:212|328:252|300:208|268:176,1,320,2|0,0:0|0:0,0:0:0:0:
256,192,80345,12,0,82845,0:0:0:0:
256,192,83470,5,0,0:0:0:0:
248,104,84095,2,0,B|200:108|180:148,1,80
140,148,85033,6,0,B|180:216|160:308,1,160,4|0,0:0|0:0,0:0:0:0:
100,368,86908,1,0,0:0:0:0:
48,296,87533,2,0,B|92:272|132:284,1,80,2|0,0:0|0:0,0:0:0:0:
212,292,88783,1,0,0:0:0:0:
296,324,89408,1,0,0:0:0:0:
384,344,90033,6,0,B|416:324|420:268,1,80,4|0,0:0|0:0,0:0:0:0:
400,188,91283,2,0,B|316:208|240:168,1,160,0|2,0:0|0:0,0:0:0:0:
168,124,93158,1,0,0:0:0:0:
84,152,93783,1,0,0:0:0:0:
24,84,94408,1,0,0:0:0:0:
84,152,95033,6,0,B|120:232|92:320,1,160,4|0,0:0|0:0,0:0:0:0:
184,316,96908,1,0,0:0:0:0:
268,340,97533,2,0,B|336:356|428:348,1,160,2|0,0:0|0:0,0:0:0:0:
404,264,99408,1,0,0:0:0:0:
428,180,100033,6,0,B|480:120|468:20,1,160,4|0,0:0|0:0,0:0:0:0:
384,44,101908,1,0,0:0:0:0:
296,60,102533,2,0,P|228:40|156:92,1,160,4|0,0:0|0:0,0:0:0:0:
240,124,104408,1,0,0:0:0:0:
300,188,105033,6,0,P|224:208|164:160,1,160,4|0,0:0|0:0,0:0:0:0:
92,112,106908,1,0,0:0:0:0:
60,196,107533,2,0,B|40:280,1,80,2|0,0:0|0:0,0:0:0:0:
128,296,108783,2,0,B|108:376,1,80
196,360,110033,6,0,B|268:376|304:304,2,120,4|0|0,0:0|0:0|0:0,0:0:0:0:
220,276,112533,2,0,B|208:204|272:168,2,120,2|0|0,0:0|0:0|0:0,0:0:0:0:
304,252,115033,6,0,B|392:248|452:168,1,160,4|0,0:0|0:0,0:0:0:0:
480,100,116908,1,0,0:0:0:0:
404,60,117533,2,0,B|354:127|266:131,1,160,4|0,0:0|0:0,0:0:0:0:
180,128,119408,1,0,0:0:0:0:
108,80,120033,6,0,B|72:132|108:184|108:184|80:232,1,160,4|0,0:0|0:0,0:0:0:0:
72,312,121908,1,0,0:0:0:0:
160,336,122533,2,0,B|220:308|272:328|340:340|408:316,1,240,2|0,0:0|0:0,0:0:0:0:
480,292,125033,5,4,0:0:0:0:
452,208,125658,2,0,B|448:136|476:128|468:48,1,160
256,192,127533,12,0,129808,0:0:0:0:
256,192,131192,5,4,0:0:0:0:
