osu file format v13

[General]
AudioFilename: 6QcYhgPQbvRS.128.mp3
AudioLeadIn: 0
PreviewTime: -1
Countdown: 1
SampleSet: Soft
StackLeniency: 0.7
Mode: 3
LetterboxInBreaks: 1
SpecialStyle: 0
WidescreenStoryboard: 0

[Editor]
DistanceSpacing: 0.8
BeatDivisor: 4
GridSize: 32
TimelineZoom: 3.899998

[Metadata]
Title:Legend
TitleUnicode:Legend
Artist:Lunatic Sounds
ArtistUnicode:Lunatic Sounds
Creator:Paulmrm
Version:Sudden Death
Source:EZ2SOMETHING
Tags:
BeatmapID:458483
BeatmapSetID:192858

[Difficulty]
HPDrainRate:8
CircleSize:7
OverallDifficulty:7
ApproachRate:5
SliderMultiplier:1.4
SliderTickRate:1

[Events]
//Background and Video events
0,0,"don't delete me.jpg",0,0
//Break Periods
2,1380,9580
2,10980,19180
//Storyboard Layer 0 (Background)
//Storyboard Layer 1 (Fail)
//Storyboard Layer 2 (Pass)
//Storyboard Layer 3 (Foreground)
//Storyboard Sound Samples
//Background Colour Transformations
3,100,163,162,255

[TimingPoints]
1180,300,4,2,0,30,1,0

[HitObjects]
36,192,1180,5,0,0:0:0:0:
468,192,1180,1,0,0:0:0:0:
324,192,1180,1,0,0:0:0:0:
180,192,1180,1,0,0:0:0:0:
180,192,10780,5,0,0:0:0:0:
324,192,10780,1,0,0:0:0:0:
36,192,10780,1,0,0:0:0:0:
36,192,20380,5,0,0:0:0:0:
324,192,20380,1,0,0:0:0:0:
180,192,20380,1,0,0:0:0:0:
108,192,20680,1,0,0:0:0:0:
396,192,20980,1,0,0:0:0:0:
468,192,21280,1,0,0:0:0:0:
36,192,21580,1,0,0:0:0:0:
108,192,21880,1,0,0:0:0:0:
396,192,22180,1,0,0:0:0:0:
468,192,22480,1,0,0:0:0:0:
36,192,22780,1,0,0:0:0:0:
108,192,23080,1,0,0:0:0:0:
396,192,23380,1,0,0:0:0:0:
468,192,23680,1,0,0:0:0:0:
36,192,23980,1,0,0:0:0:0:
108,192,24280,1,0,0:0:0:0:
396,192,24580,1,0,0:0:0:0:
468,192,24880,1,0,0:0:0:0:
108,192,25180,1,0,0:0:0:0:
180,192,25480,1,0,0:0:0:0:
324,192,25780,1,0,0:0:0:0:
396,192,26080,1,0,0:0:0:0:
108,192,26380,1,0,0:0:0:0:
180,192,26680,1,0,0:0:0:0:
324,192,26980,1,0,0:0:0:0:
396,192,27280,1,0,0:0:0:0:
108,192,27580,1,0,0:0:0:0:
180,192,27880,1,0,0:0:0:0:
324,192,28180,1,0,0:0:0:0:
396,192,28480,1,0,0:0:0:0:
108,192,28780,1,0,0:0:0:0:
180,192,29080,1,0,0:0:0:0:
324,192,29380,1,0,0:0:0:0:
396,192,29680,1,0,0:0:0:0:
36,192,29980,1,0,0:0:0:0:
396,192,29980,1,0,0:0:0:0:
252,192,29980,1,0,0:0:0:0:
108,192,29980,1,0,0:0:0:0:
180,192,30280,1,0,0:0:0:0:
324,192,30580,1,0,0:0:0:0:
468,192,30880,1,0,0:0:0:0:
396,192,31180,1,0,0:0:0:0:
36,192,31180,1,0,0:0:0:0:
252,192,31180,1,0,0:0:0:0:
180,192,31480,1,0,0:0:0:0:
324,192,31780,1,0,0:0:0:0:
468,192,32080,1,0,0:0:0:0:
252,192,32380,1,0,0:0:0:0:
36,192,32380,1,0,0:0:0:0:
396,192,32380,1,0,0:0:0:0:
180,192,32680,1,0,0:0:0:0:
324,192,32980,1,0,0:0:0:0:
468,192,33280,1,0,0:0:0:0:
36,192,33580,1,0,0:0:0:0:
252,192,33580,1,0,0:0:0:0:
396,192,33580,1,0,0:0:0:0:
180,192,33880,1,0,0:0:0:0:
324,192,34180,1,0,0:0:0:0:
468,192,34480,1,0,0:0:0:0:
396,192,34780,1,0,0:0:0:0:
180,192,34780,1,0,0:0:0:0:
36,192,34780,1,0,0:0:0:0:
252,192,34780,1,0,0:0:0:0:
108,192,35080,1,0,0:0:0:0:
324,192,35380,1,0,0:0:0:0:
468,192,35680,1,0,0:0:0:0:
180,192,35980,1,0,0:0:0:0:
252,192,35980,1,0,0:0:0:0:
396,192,35980,1,0,0:0:0:0:
36,192,35980,1,0,0:0:0:0:
108,192,36280,1,0,0:0:0:0:
324,192,36580,1,0,0:0:0:0:
468,192,36880,1,0,0:0:0:0:
396,192,37180,1,0,0:0:0:0:
252,192,37180,128,0,37780:0:0:0:0:
108,192,37180,1,0,0:0:0:0:
180,192,39280,128,0,39505:0:0:0:0:
324,192,39280,128,0,39505:0:0:0:0:
108,192,39580,1,0,0:0:0:0:
396,192,39580,128,0,39655:0:0:0:0:
252,192,39580,128,0,39655:0:0:0:0:
468,192,39580,1,0,0:0:0:0:
36,192,39655,1,0,0:0:0:0:
108,192,39730,1,0,0:0:0:0:
180,192,39805,1,0,0:0:0:0:
36,192,39880,1,0,0:0:0:0:
468,192,39880,1,0,0:0:0:0:
324,192,39880,1,0,0:0:0:0:
180,192,39955,1,0,0:0:0:0:
108,192,40030,1,0,0:0:0:0:
396,192,40030,128,0,40105:0:0:0:0:
252,192,40030,128,0,40105:0:0:0:0:
36,192,40105,1,0,0:0:0:0:
108,192,40180,1,0,0:0:0:0:
180,192,40255,1,0,0:0:0:0:
252,192,40330,1,0,0:0:0:0:
324,192,40330,1,0,0:0:0:0:
180,192,40480,1,0,0:0:0:0:
396,192,40555,1,0,0:0:0:0:
468,192,40630,1,0,0:0:0:0:
324,192,40630,1,0,0:0:0:0:
108,192,40780,1,0,0:0:0:0:
36,192,40780,1,0,0:0:0:0:
396,192,40780,1,0,0:0:0:0:
180,192,40855,1,0,0:0:0:0:
468,192,40855,1,0,0:0:0:0:
252,192,40930,1,0,0:0:0:0:
324,192,40930,1,0,0:0:0:0:
396,192,40930,1,0,0:0:0:0:
108,192,41005,1,0,0:0:0:0:
180,192,41080,1,0,0:0:0:0:
324,192,41080,1,0,0:0:0:0:
468,192,41080,1,0,0:0:0:0:
36,192,41080,1,0,0:0:0:0:
108,192,41155,1,0,0:0:0:0:
396,192,41155,1,0,0:0:0:0:
180,192,41230,1,0,0:0:0:0:
36,192,41230,1,0,0:0:0:0:
324,192,41230,1,0,0:0:0:0:
252,192,41305,1,0,0:0:0:0:
396,192,41380,1,0,0:0:0:0:
324,192,41380,1,0,0:0:0:0:
180,192,41380,1,0,0:0:0:0:
108,192,41455,1,0,0:0:0:0:
468,192,41455,1,0,0:0:0:0:
324,192,41530,1,0,0:0:0:0:
396,192,41530,1,0,0:0:0:0:
108,192,41605,1,0,0:0:0:0:
180,192,41680,128,0,41980:0:0:0:0:
36,192,41680,1,0,0:0:0:0:
396,192,41680,1,0,0:0:0:0:
252,192,41755,1,0,0:0:0:0:
108,192,41755,1,0,0:0:0:0:
36,192,41830,1,0,0:0:0:0:
468,192,41830,1,0,0:0:0:0:
324,192,41830,1,0,0:0:0:0:
36,192,41980,1,0,0:0:0:0:
396,192,41980,128,0,42055:0:0:0:0:
108,192,41980,1,0,0:0:0:0:
252,192,41980,128,0,42055:0:0:0:0:
180,192,42055,1,0,0:0:0:0:
108,192,42130,1,0,0:0:0:0:
324,192,42280,1,0,0:0:0:0:
468,192,42280,1,0,0:0:0:0:
396,192,42430,128,0,42505:0:0:0:0:
252,192,42430,128,0,42505:0:0:0:0:
108,192,42430,1,0,0:0:0:0:
36,192,42430,1,0,0:0:0:0:
324,192,42580,1,0,0:0:0:0:
324,192,42655,1,0,0:0:0:0:
108,192,42730,1,0,0:0:0:0:
36,192,42730,1,0,0:0:0:0:
396,192,42805,1,0,0:0:0:0:
180,192,42880,1,0,0:0:0:0:
180,192,42955,1,0,0:0:0:0:
324,192,43030,1,0,0:0:0:0:
468,192,43030,1,0,0:0:0:0:
36,192,43180,1,0,0:0:0:0:
108,192,43180,1,0,0:0:0:0:
252,192,43180,1,0,0:0:0:0:
396,192,43180,1,0,0:0:0:0:
324,192,43255,1,0,0:0:0:0:
468,192,43255,1,0,0:0:0:0:
396,192,43330,1,0,0:0:0:0:
108,192,43330,1,0,0:0:0:0:
36,192,43330,1,0,0:0:0:0:
252,192,43330,1,0,0:0:0:0:
180,192,43480,1,0,0:0:0:0:
468,192,43480,1,0,0:0:0:0:
324,192,43480,1,0,0:0:0:0:
252,192,43555,1,0,0:0:0:0:
108,192,43630,1,0,0:0:0:0:
324,192,43630,1,0,0:0:0:0:
36,192,43630,1,0,0:0:0:0:
396,192,43780,1,0,0:0:0:0:
180,192,43780,1,0,0:0:0:0:
468,192,43855,1,0,0:0:0:0:
324,192,43855,1,0,0:0:0:0:
252,192,43930,1,0,0:0:0:0:
36,192,43930,1,0,0:0:0:0:
108,192,43930,1,0,0:0:0:0:
180,192,43930,1,0,0:0:0:0:
324,192,44005,1,0,0:0:0:0:
180,192,44080,1,0,0:0:0:0:
396,192,44080,1,0,0:0:0:0:
468,192,44080,1,0,0:0:0:0:
252,192,44155,1,0,0:0:0:0:
108,192,44230,1,0,0:0:0:0:
36,192,44230,1,0,0:0:0:0:
324,192,44230,1,0,0:0:0:0:
180,192,44380,1,0,0:0:0:0:
252,192,44380,128,0,44455:0:0:0:0:
468,192,44380,1,0,0:0:0:0:
396,192,44380,128,0,44455:0:0:0:0:
36,192,44455,1,0,0:0:0:0:
108,192,44530,1,0,0:0:0:0:
180,192,44605,1,0,0:0:0:0:
36,192,44680,1,0,0:0:0:0:
468,192,44680,1,0,0:0:0:0:
324,192,44680,1,0,0:0:0:0:
180,192,44755,1,0,0:0:0:0:
396,192,44830,128,0,44905:0:0:0:0:
252,192,44830,128,0,44905:0:0:0:0:
108,192,44830,1,0,0:0:0:0:
36,192,44905,1,0,0:0:0:0:
108,192,44980,1,0,0:0:0:0:
180,192,45055,1,0,0:0:0:0:
252,192,45130,1,0,0:0:0:0:
324,192,45130,1,0,0:0:0:0:
180,192,45280,1,0,0:0:0:0:
396,192,45355,1,0,0:0:0:0:
468,192,45430,1,0,0:0:0:0:
324,192,45430,1,0,0:0:0:0:
108,192,45580,1,0,0:0:0:0:
36,192,45580,1,0,0:0:0:0:
396,192,45580,1,0,0:0:0:0:
180,192,45655,1,0,0:0:0:0:
468,192,45655,1,0,0:0:0:0:
108,192,45730,1,0,0:0:0:0:
396,192,45730,1,0,0:0:0:0:
324,192,45730,1,0,0:0:0:0:
252,192,45805,1,0,0:0:0:0:
324,192,45880,1,0,0:0:0:0:
468,192,45880,1,0,0:0:0:0:
36,192,45880,1,0,0:0:0:0:
180,192,45880,1,0,0:0:0:0:
396,192,45955,1,0,0:0:0:0:
108,192,45955,1,0,0:0:0:0:
36,192,46030,1,0,0:0:0:0:
180,192,46030,1,0,0:0:0:0:
324,192,46030,1,0,0:0:0:0:
252,192,46105,1,0,0:0:0:0:
396,192,46180,1,0,0:0:0:0:
324,192,46180,1,0,0:0:0:0:
180,192,46180,1,0,0:0:0:0:
108,192,46255,1,0,0:0:0:0:
468,192,46255,1,0,0:0:0:0:
324,192,46330,1,0,0:0:0:0:
396,192,46330,1,0,0:0:0:0:
108,192,46405,1,0,0:0:0:0:
36,192,46480,1,0,0:0:0:0:
396,192,46480,1,0,0:0:0:0:
180,192,46480,128,0,46780:0:0:0:0:
252,192,46555,1,0,0:0:0:0:
108,192,46555,1,0,0:0:0:0:
324,192,46630,1,0,0:0:0:0:
468,192,46630,1,0,0:0:0:0:
36,192,46630,1,0,0:0:0:0:
36,192,46780,1,0,0:0:0:0:
252,192,46780,128,0,46855:0:0:0:0:
108,192,46780,1,0,0:0:0:0:
396,192,46780,128,0,46855:0:0:0:0:
180,192,46855,1,0,0:0:0:0:
108,192,46930,1,0,0:0:0:0:
324,192,47080,1,0,0:0:0:0:
468,192,47080,1,0,0:0:0:0:
36,192,47230,1,0,0:0:0:0:
252,192,47230,128,0,47305:0:0:0:0:
108,192,47230,1,0,0:0:0:0:
396,192,47230,128,0,47305:0:0:0:0:
324,192,47380,1,0,0:0:0:0:
324,192,47455,1,0,0:0:0:0:
108,192,47530,1,0,0:0:0:0:
36,192,47530,1,0,0:0:0:0:
396,192,47605,1,0,0:0:0:0:
180,192,47680,1,0,0:0:0:0:
180,192,47755,1,0,0:0:0:0:
324,192,47830,1,0,0:0:0:0:
468,192,47830,1,0,0:0:0:0:
108,192,47980,1,0,0:0:0:0:
36,192,47980,1,0,0:0:0:0:
180,192,47980,128,0,48580:0:0:0:0:
108,192,48130,1,0,0:0:0:0:
36,192,48130,1,0,0:0:0:0:
108,192,48280,1,0,0:0:0:0:
252,192,48280,1,0,0:0:0:0:
396,192,48280,1,0,0:0:0:0:
36,192,48430,1,0,0:0:0:0:
36,192,48505,1,0,0:0:0:0:
108,192,48580,1,0,0:0:0:0:
324,192,48580,128,0,49180:0:0:0:0:
396,192,48655,1,0,0:0:0:0:
468,192,48655,1,0,0:0:0:0:
180,192,48730,1,0,0:0:0:0:
108,192,48730,1,0,0:0:0:0:
468,192,48805,1,0,0:0:0:0:
396,192,48805,1,0,0:0:0:0:
252,192,48880,1,0,0:0:0:0:
180,192,48905,1,0,0:0:0:0:
108,192,48930,1,0,0:0:0:0:
36,192,48955,1,0,0:0:0:0:
396,192,48980,1,0,0:0:0:0:
468,192,49005,1,0,0:0:0:0:
252,192,49030,1,0,0:0:0:0:
180,192,49055,1,0,0:0:0:0:
108,192,49080,1,0,0:0:0:0:
36,192,49105,1,0,0:0:0:0:
396,192,49130,1,0,0:0:0:0:
468,192,49155,1,0,0:0:0:0:
252,192,49180,1,0,0:0:0:0:
180,192,49180,1,0,0:0:0:0:
108,192,49180,128,0,50380:0:0:0:0:
324,192,49255,1,0,0:0:0:0:
252,192,49330,1,0,0:0:0:0:
180,192,49405,1,0,0:0:0:0:
324,192,49480,1,0,0:0:0:0:
468,192,49480,1,0,0:0:0:0:
36,192,49480,1,0,0:0:0:0:
396,192,49630,1,0,0:0:0:0:
252,192,49630,1,0,0:0:0:0:
180,192,49630,1,0,0:0:0:0:
468,192,49705,1,0,0:0:0:0:
396,192,49780,1,0,0:0:0:0:
324,192,49855,1,0,0:0:0:0:
180,192,49930,1,0,0:0:0:0:
252,192,49930,1,0,0:0:0:0:
468,192,49930,1,0,0:0:0:0:
396,192,50080,1,0,0:0:0:0:
36,192,50155,1,0,0:0:0:0:
252,192,50230,1,0,0:0:0:0:
468,192,50230,1,0,0:0:0:0:
324,192,50230,1,0,0:0:0:0:
180,192,50380,1,0,0:0:0:0:
324,192,50380,1,0,0:0:0:0:
396,192,50380,128,0,51580:0:0:0:0:
252,192,50455,1,0,0:0:0:0:
324,192,50530,1,0,0:0:0:0:
180,192,50530,1,0,0:0:0:0:
108,192,50530,1,0,0:0:0:0:
36,192,50605,1,0,0:0:0:0:
324,192,50680,1,0,0:0:0:0:
468,192,50680,1,0,0:0:0:0:
252,192,50680,1,0,0:0:0:0:
36,192,50755,1,0,0:0:0:0:
108,192,50830,1,0,0:0:0:0:
180,192,50830,1,0,0:0:0:0:
324,192,50830,1,0,0:0:0:0:
468,192,50905,1,0,0:0:0:0:
180,192,50980,1,0,0:0:0:0:
36,192,51055,1,0,0:0:0:0:
252,192,51130,1,0,0:0:0:0:
468,192,51130,1,0,0:0:0:0:
180,192,51130,1,0,0:0:0:0:
36,192,51205,1,0,0:0:0:0:
324,192,51280,1,0,0:0:0:0:
468,192,51430,1,0,0:0:0:0:
252,192,51430,1,0,0:0:0:0:
180,192,51430,1,0,0:0:0:0:
324,192,51505,1,0,0:0:0:0:
252,192,51580,1,0,0:0:0:0:
36,192,51580,1,0,0:0:0:0:
180,192,51580,128,0,53380:0:0:0:0:
108,192,51580,1,0,0:0:0:0:
468,192,51655,1,0,0:0:0:0:
396,192,51730,1,0,0:0:0:0:
108,192,51880,1,0,0:0:0:0:
324,192,51880,1,0,0:0:0:0:
468,192,51880,1,0,0:0:0:0:
36,192,51955,1,0,0:0:0:0:
108,192,52030,1,0,0:0:0:0:
252,192,52030,1,0,0:0:0:0:
396,192,52030,1,0,0:0:0:0:
468,192,52105,1,0,0:0:0:0:
324,192,52180,1,0,0:0:0:0:
396,192,52255,1,0,0:0:0:0:
252,192,52330,1,0,0:0:0:0:
108,192,52330,1,0,0:0:0:0:
324,192,52330,1,0,0:0:0:0:
468,192,52405,1,0,0:0:0:0:
36,192,52480,1,0,0:0:0:0:
108,192,52555,1,0,0:0:0:0:
324,192,52630,1,0,0:0:0:0:
468,192,52630,1,0,0:0:0:0:
396,192,52780,1,0,0:0:0:0:
252,192,52780,1,0,0:0:0:0:
108,192,52780,1,0,0:0:0:0:
36,192,52855,1,0,0:0:0:0:
396,192,52930,1,0,0:0:0:0:
252,192,52930,1,0,0:0:0:0:
108,192,52930,1,0,0:0:0:0:
36,192,53005,1,0,0:0:0:0:
396,192,53080,1,0,0:0:0:0:
324,192,53080,1,0,0:0:0:0:
468,192,53080,1,0,0:0:0:0:
36,192,53155,1,0,0:0:0:0:
396,192,53230,1,0,0:0:0:0:
252,192,53230,1,0,0:0:0:0:
108,192,53230,1,0,0:0:0:0:
36,192,53305,1,0,0:0:0:0:
324,192,53380,128,0,53980:0:0:0:0:
468,192,53380,1,0,0:0:0:0:
396,192,53380,1,0,0:0:0:0:
252,192,53380,1,0,0:0:0:0:
252,192,53455,1,0,0:0:0:0:
108,192,53530,1,0,0:0:0:0:
180,192,53530,1,0,0:0:0:0:
252,192,53680,1,0,0:0:0:0:
468,192,53680,1,0,0:0:0:0:
396,192,53680,1,0,0:0:0:0:
36,192,53755,1,0,0:0:0:0:
396,192,53830,1,0,0:0:0:0:
108,192,53830,1,0,0:0:0:0:
180,192,53830,1,0,0:0:0:0:
396,192,53980,1,0,0:0:0:0:
180,192,53980,1,0,0:0:0:0:
252,192,53980,1,0,0:0:0:0:
36,192,53980,128,0,55180:0:0:0:0:
468,192,54055,1,0,0:0:0:0:
396,192,54130,1,0,0:0:0:0:
108,192,54280,1,0,0:0:0:0:
324,192,54280,1,0,0:0:0:0:
468,192,54280,1,0,0:0:0:0:
396,192,54355,1,0,0:0:0:0:
180,192,54430,1,0,0:0:0:0:
252,192,54430,1,0,0:0:0:0:
108,192,54430,1,0,0:0:0:0:
468,192,54580,1,0,0:0:0:0:
324,192,54655,1,0,0:0:0:0:
468,192,54730,1,0,0:0:0:0:
252,192,54730,1,0,0:0:0:0:
180,192,54730,1,0,0:0:0:0:
324,192,54805,1,0,0:0:0:0:
108,192,54880,1,0,0:0:0:0:
252,192,54955,1,0,0:0:0:0:
468,192,55030,1,0,0:0:0:0:
324,192,55030,1,0,0:0:0:0:
324,192,55180,1,0,0:0:0:0:
108,192,55180,1,0,0:0:0:0:
180,192,55180,128,0,55780:0:0:0:0:
252,192,55180,1,0,0:0:0:0:
396,192,55255,1,0,0:0:0:0:
324,192,55330,1,0,0:0:0:0:
252,192,55330,1,0,0:0:0:0:
108,192,55330,1,0,0:0:0:0:
396,192,55405,1,0,0:0:0:0:
468,192,55480,1,0,0:0:0:0:
324,192,55480,1,0,0:0:0:0:
36,192,55480,1,0,0:0:0:0:
396,192,55555,1,0,0:0:0:0:
36,192,55630,1,0,0:0:0:0:
252,192,55630,1,0,0:0:0:0:
108,192,55630,1,0,0:0:0:0:
396,192,55705,1,0,0:0:0:0:
252,192,55780,128,0,56380:0:0:0:0:
108,192,55780,1,0,0:0:0:0:
36,192,55855,1,0,0:0:0:0:
324,192,55930,1,0,0:0:0:0:
468,192,55930,1,0,0:0:0:0:
108,192,55930,1,0,0:0:0:0:
180,192,56080,1,0,0:0:0:0:
324,192,56155,1,0,0:0:0:0:
396,192,56230,1,0,0:0:0:0:
468,192,56230,1,0,0:0:0:0:
36,192,56230,1,0,0:0:0:0:
108,192,56380,1,0,0:0:0:0:
180,192,56380,1,0,0:0:0:0:
324,192,56380,128,0,57580:0:0:0:0:
396,192,56455,1,0,0:0:0:0:
468,192,56530,1,0,0:0:0:0:
396,192,56680,1,0,0:0:0:0:
252,192,56680,1,0,0:0:0:0:
36,192,56680,1,0,0:0:0:0:
468,192,56755,1,0,0:0:0:0:
108,192,56830,1,0,0:0:0:0:
180,192,56830,1,0,0:0:0:0:
396,192,56830,1,0,0:0:0:0:
252,192,56980,1,0,0:0:0:0:
396,192,57055,1,0,0:0:0:0:
108,192,57130,1,0,0:0:0:0:
180,192,57130,1,0,0:0:0:0:
252,192,57130,1,0,0:0:0:0:
396,192,57205,1,0,0:0:0:0:
36,192,57280,1,0,0:0:0:0:
180,192,57355,1,0,0:0:0:0:
468,192,57430,1,0,0:0:0:0:
396,192,57430,1,0,0:0:0:0:
252,192,57580,128,0,58180:0:0:0:0:
108,192,57580,1,0,0:0:0:0:
180,192,57580,1,0,0:0:0:0:
402,192,57580,1,0,0:0:0:0:
468,192,57655,1,0,0:0:0:0:
396,192,57674,1,0,0:0:0:0:
324,192,57693,1,0,0:0:0:0:
36,192,57711,1,0,0:0:0:0:
108,192,57730,1,0,0:0:0:0:
180,192,57730,1,0,0:0:0:0:
396,192,57880,1,0,0:0:0:0:
468,192,57880,1,0,0:0:0:0:
36,192,57918,1,0,0:0:0:0:
108,192,57918,1,0,0:0:0:0:
396,192,57955,1,0,0:0:0:0:
468,192,57955,1,0,0:0:0:0:
36,192,57993,1,0,0:0:0:0:
108,192,57993,1,0,0:0:0:0:
396,192,58030,1,0,0:0:0:0:
468,192,58030,1,0,0:0:0:0:
108,192,58068,1,0,0:0:0:0:
36,192,58068,1,0,0:0:0:0:
468,192,58105,1,0,0:0:0:0:
396,192,58105,1,0,0:0:0:0:
36,192,58143,1,0,0:0:0:0:
108,192,58143,1,0,0:0:0:0:
324,192,58180,128,0,58780:0:0:0:0:
402,192,58180,1,0,0:0:0:0:
180,192,58180,1,0,0:0:0:0:
36,192,58255,1,0,0:0:0:0:
396,192,58274,1,0,0:0:0:0:
468,192,58293,1,0,0:0:0:0:
108,192,58311,1,0,0:0:0:0:
252,192,58330,1,0,0:0:0:0:
180,192,58330,1,0,0:0:0:0:
468,192,58480,1,0,0:0:0:0:
396,192,58480,1,0,0:0:0:0:
180,192,58480,1,0,0:0:0:0:
108,192,58480,1,0,0:0:0:0:
468,192,58630,1,0,0:0:0:0:
180,192,58630,1,0,0:0:0:0:
252,192,58630,1,0,0:0:0:0:
396,192,58630,1,0,0:0:0:0:
108,192,58780,128,0,60130:0:0:0:0:
36,192,58780,1,0,0:0:0:0:
252,192,58930,1,0,0:0:0:0:
180,192,59080,1,0,0:0:0:0:
468,192,59080,1,0,0:0:0:0:
252,192,59380,1,0,0:0:0:0:
324,192,59530,1,0,0:0:0:0:
324,192,59830,1,0,0:0:0:0:
468,192,59980,1,0,0:0:0:0:
36,192,59980,1,0,0:0:0:0:
402,192,60130,128,0,61180:0:0:0:0:
468,192,60280,1,0,0:0:0:0:
36,192,60430,1,0,0:0:0:0:
180,192,60430,1,0,0:0:0:0:
36,192,60730,1,0,0:0:0:0:
256,192,60730,128,0,61180:0:0:0:0:
108,192,60880,1,0,0:0:0:0:
36,192,61180,1,0,0:0:0:0:
324,192,61180,1,0,0:0:0:0:
468,192,61180,1,0,0:0:0:0:
180,192,61180,128,0,63580:0:0:0:0:
108,192,61330,1,0,0:0:0:0:
36,192,61480,1,0,0:0:0:0:
36,192,61780,1,0,0:0:0:0:
324,192,61930,1,0,0:0:0:0:
324,192,62230,1,0,0:0:0:0:
36,192,62230,1,0,0:0:0:0:
468,192,62380,1,0,0:0:0:0:
108,192,62380,1,0,0:0:0:0:
396,192,62380,1,0,0:0:0:0:
252,192,62380,1,0,0:0:0:0:
329,192,62530,128,0,63580:0:0:0:0:
252,192,62680,1,0,0:0:0:0:
36,192,62680,1,0,0:0:0:0:
396,192,62830,1,0,0:0:0:0:
108,192,62980,1,0,0:0:0:0:
252,192,62980,1,0,0:0:0:0:
468,192,62980,1,0,0:0:0:0:
396,192,63130,1,0,0:0:0:0:
36,192,63280,1,0,0:0:0:0:
252,192,63280,1,0,0:0:0:0:
396,192,63430,1,0,0:0:0:0:
108,192,63580,128,0,65980:0:0:0:0:
252,192,63580,128,0,65980:0:0:0:0:
36,192,63580,1,0,0:0:0:0:
402,192,63580,1,0,0:0:0:0:
180,192,63730,1,0,0:0:0:0:
396,192,63730,1,0,0:0:0:0:
324,192,63880,1,0,0:0:0:0:
468,192,63880,1,0,0:0:0:0:
180,192,64030,1,0,0:0:0:0:
396,192,64030,1,0,0:0:0:0:
36,192,64030,1,0,0:0:0:0:
324,192,64180,1,0,0:0:0:0:
396,192,64330,1,0,0:0:0:0:
468,192,64480,1,0,0:0:0:0:
324,192,64480,1,0,0:0:0:0:
396,192,64630,1,0,0:0:0:0:
180,192,64780,1,0,0:0:0:0:
180,192,65080,1,0,0:0:0:0:
468,192,65230,1,0,0:0:0:0:
396,192,65380,1,0,0:0:0:0:
468,192,65530,1,0,0:0:0:0:
36,192,65680,1,0,0:0:0:0:
324,192,65680,1,0,0:0:0:0:
36,192,65980,128,0,68380:0:0:0:0:
324,192,65980,1,0,0:0:0:0:
180,192,65980,128,0,67180:0:0:0:0:
396,192,65980,1,0,0:0:0:0:
108,192,66130,1,0,0:0:0:0:
252,192,66280,1,0,0:0:0:0:
252,192,66580,1,0,0:0:0:0:
396,192,66730,1,0,0:0:0:0:
396,192,67030,1,0,0:0:0:0:
324,192,67180,1,0,0:0:0:0:
108,192,67180,1,0,0:0:0:0:
402,192,67180,1,0,0:0:0:0:
252,192,67180,128,0,67630:0:0:0:0:
108,192,67480,1,0,0:0:0:0:
180,192,67630,1,0,0:0:0:0:
109,192,67630,1,0,0:0:0:0:
396,192,67630,1,0,0:0:0:0:
324,192,67630,128,0,68080:0:0:0:0:
180,192,67930,1,0,0:0:0:0:
252,192,68080,128,0,68380:0:0:0:0:
396,192,68080,1,0,0:0:0:0:
468,192,68080,1,0,0:0:0:0:
109,192,68080,1,0,0:0:0:0:
396,192,68380,1,0,0:0:0:0:
475,192,68380,1,0,0:0:0:0:
324,192,68380,1,0,0:0:0:0:
180,192,68380,128,0,69580:0:0:0:0:
108,192,68680,1,0,0:0:0:0:
468,192,68980,1,0,0:0:0:0:
108,192,69280,1,0,0:0:0:0:
36,192,69430,1,0,0:0:0:0:
252,192,69580,128,0,70780:0:0:0:0:
402,192,69580,1,0,0:0:0:0:
468,192,69580,1,0,0:0:0:0:
108,192,69730,1,0,0:0:0:0:
324,192,69880,128,0,70480:0:0:0:0:
396,192,69880,1,0,0:0:0:0:
180,192,70030,1,0,0:0:0:0:
108,192,70180,128,0,70780:0:0:0:0:
468,192,70180,1,0,0:0:0:0:
180,192,70480,1,0,0:0:0:0:
396,192,70480,1,0,0:0:0:0:
324,192,70630,1,0,0:0:0:0:
396,192,70780,1,0,0:0:0:0:
36,192,70780,1,0,0:0:0:0:
180,192,70780,128,0,72880:0:0:0:0:
468,192,70780,1,0,0:0:0:0:
324,192,70930,1,0,0:0:0:0:
108,192,71080,1,0,0:0:0:0:
252,192,71080,1,0,0:0:0:0:
468,192,71380,1,0,0:0:0:0:
324,192,71380,1,0,0:0:0:0:
396,192,71530,1,0,0:0:0:0:
108,192,71680,1,0,0:0:0:0:
36,192,71830,1,0,0:0:0:0:
396,192,71830,1,0,0:0:0:0:
468,192,71980,1,0,0:0:0:0:
324,192,71980,1,0,0:0:0:0:
252,192,71980,1,0,0:0:0:0:
108,192,72130,1,0,0:0:0:0:
36,192,72130,1,0,0:0:0:0:
324,192,72280,1,0,0:0:0:0:
396,192,72280,1,0,0:0:0:0:
252,192,72430,1,0,0:0:0:0:
108,192,72430,1,0,0:0:0:0:
36,192,72580,1,0,0:0:0:0:
324,192,72580,1,0,0:0:0:0:
468,192,72580,1,0,0:0:0:0:
252,192,72730,1,0,0:0:0:0:
108,192,72880,128,0,73180:0:0:0:0:
36,192,72880,1,0,0:0:0:0:
396,192,72880,1,0,0:0:0:0:
324,192,73030,1,0,0:0:0:0:
468,192,73030,1,0,0:0:0:0:
475,192,73180,1,0,0:0:0:0:
396,192,73180,128,0,75580:0:0:0:0:
252,192,73180,128,0,75580:0:0:0:0:
36,192,73180,1,0,0:0:0:0:
180,192,73180,1,0,0:0:0:0:
108,192,73480,1,0,0:0:0:0:
324,192,73630,1,0,0:0:0:0:
180,192,73630,1,0,0:0:0:0:
36,192,73630,1,0,0:0:0:0:
468,192,73780,1,0,0:0:0:0:
108,192,74080,1,0,0:0:0:0:
468,192,74080,1,0,0:0:0:0:
36,192,74230,1,0,0:0:0:0:
108,192,74530,1,0,0:0:0:0:
324,192,74680,1,0,0:0:0:0:
180,192,74830,1,0,0:0:0:0:
468,192,74980,1,0,0:0:0:0:
36,192,74980,1,0,0:0:0:0:
324,192,75130,1,0,0:0:0:0:
180,192,75280,1,0,0:0:0:0:
468,192,75280,1,0,0:0:0:0:
108,192,75430,1,0,0:0:0:0:
180,192,75580,1,0,0:0:0:0:
468,192,75580,128,0,77980:0:0:0:0:
324,192,75580,128,0,77980:0:0:0:0:
36,192,75580,1,0,0:0:0:0:
109,192,75580,1,0,0:0:0:0:
256,192,77980,1,0,0:0:0:0:
36,192,77980,1,0,0:0:0:0:
180,192,77980,1,0,0:0:0:0:
180,192,78280,1,0,0:0:0:0:
36,192,78280,1,0,0:0:0:0:
468,192,78280,1,0,0:0:0:0:
252,192,78430,1,0,0:0:0:0:
324,192,78730,1,0,0:0:0:0:
108,192,79180,1,0,0:0:0:0:
36,192,79180,1,0,0:0:0:0:
468,192,79180,1,0,0:0:0:0:
252,192,79180,1,0,0:0:0:0:
396,192,79180,1,0,0:0:0:0:
468,192,79480,1,0,0:0:0:0:
36,192,79480,1,0,0:0:0:0:
108,192,79480,1,0,0:0:0:0:
180,192,79630,1,0,0:0:0:0:
324,192,79930,1,0,0:0:0:0:
396,192,79930,1,0,0:0:0:0:
252,192,80080,1,0,0:0:0:0:
324,192,80380,1,0,0:0:0:0:
36,192,80380,1,0,0:0:0:0:
468,192,80380,1,0,0:0:0:0:
180,192,80380,1,0,0:0:0:0:
252,192,80380,1,0,0:0:0:0:
180,192,80680,1,0,0:0:0:0:
36,192,80680,1,0,0:0:0:0:
468,192,80680,1,0,0:0:0:0:
324,192,80830,1,0,0:0:0:0:
396,192,80830,1,0,0:0:0:0:
252,192,81130,1,0,0:0:0:0:
180,192,81580,1,0,0:0:0:0:
468,192,81580,1,0,0:0:0:0:
36,192,81580,1,0,0:0:0:0:
180,192,81880,1,0,0:0:0:0:
36,192,81880,1,0,0:0:0:0:
468,192,81880,1,0,0:0:0:0:
252,192,82030,1,0,0:0:0:0:
396,192,82330,1,0,0:0:0:0:
36,192,82780,1,0,0:0:0:0:
468,192,82780,1,0,0:0:0:0:
180,192,82780,1,0,0:0:0:0:
324,192,82780,1,0,0:0:0:0:
396,192,82780,1,0,0:0:0:0:
468,192,83080,1,0,0:0:0:0:
36,192,83080,1,0,0:0:0:0:
180,192,83080,1,0,0:0:0:0:
252,192,83230,1,0,0:0:0:0:
324,192,83530,1,0,0:0:0:0:
396,192,83980,1,0,0:0:0:0:
36,192,83980,1,0,0:0:0:0:
108,192,83980,1,0,0:0:0:0:
468,192,83980,1,0,0:0:0:0:
252,192,83980,1,0,0:0:0:0:
468,192,84280,1,0,0:0:0:0:
36,192,84280,1,0,0:0:0:0:
108,192,84280,1,0,0:0:0:0:
180,192,84430,1,0,0:0:0:0:
324,192,84580,1,0,0:0:0:0:
252,192,84730,1,0,0:0:0:0:
108,192,84880,1,0,0:0:0:0:
468,192,85180,1,0,0:0:0:0:
36,192,85180,1,0,0:0:0:0:
180,192,85180,1,0,0:0:0:0:
324,192,85180,1,0,0:0:0:0:
108,192,85180,1,0,0:0:0:0:
468,192,85480,1,0,0:0:0:0:
180,192,85480,1,0,0:0:0:0:
36,192,85480,1,0,0:0:0:0:
252,192,85630,1,0,0:0:0:0:
468,192,85780,1,0,0:0:0:0:
324,192,85780,1,0,0:0:0:0:
396,192,85930,1,0,0:0:0:0:
252,192,86080,1,0,0:0:0:0:
180,192,86380,1,0,0:0:0:0:
108,192,86380,1,0,0:0:0:0:
180,192,86530,1,0,0:0:0:0:
108,192,86530,1,0,0:0:0:0:
36,192,86605,1,0,0:0:0:0:
468,192,86680,1,0,0:0:0:0:
324,192,86680,1,0,0:0:0:0:
108,192,86830,1,0,0:0:0:0:
396,192,86905,1,0,0:0:0:0:
108,192,86980,1,0,0:0:0:0:
36,192,86980,1,0,0:0:0:0:
468,192,87055,1,0,0:0:0:0:
396,192,87055,1,0,0:0:0:0:
108,192,87130,1,0,0:0:0:0:
36,192,87130,1,0,0:0:0:0:
468,192,87205,1,0,0:0:0:0:
396,192,87205,1,0,0:0:0:0:
324,192,87280,128,0,87505:0:0:0:0:
180,192,87280,128,0,87505:0:0:0:0:
252,192,87580,1,0,0:0:0:0:
108,192,87580,1,0,0:0:0:0:
36,192,87580,1,0,0:0:0:0:
324,192,87580,1,0,0:0:0:0:
180,192,87655,1,0,0:0:0:0:
396,192,87655,1,0,0:0:0:0:
36,192,87730,1,0,0:0:0:0:
468,192,87730,1,0,0:0:0:0:
252,192,87805,1,0,0:0:0:0:
324,192,87880,1,0,0:0:0:0:
468,192,87880,1,0,0:0:0:0:
180,192,87880,1,0,0:0:0:0:
396,192,87955,1,0,0:0:0:0:
252,192,88030,1,0,0:0:0:0:
108,192,88030,1,0,0:0:0:0:
180,192,88030,1,0,0:0:0:0:
36,192,88030,1,0,0:0:0:0:
36,192,88180,1,0,0:0:0:0:
252,192,88180,1,0,0:0:0:0:
180,192,88255,1,0,0:0:0:0:
396,192,88255,1,0,0:0:0:0:
468,192,88330,1,0,0:0:0:0:
324,192,88330,1,0,0:0:0:0:
36,192,88330,1,0,0:0:0:0:
252,192,88330,1,0,0:0:0:0:
108,192,88480,1,0,0:0:0:0:
180,192,88555,1,0,0:0:0:0:
468,192,88630,1,0,0:0:0:0:
324,192,88630,1,0,0:0:0:0:
252,192,88630,1,0,0:0:0:0:
252,192,88780,1,0,0:0:0:0:
108,192,88780,1,0,0:0:0:0:
396,192,88780,1,0,0:0:0:0:
180,192,88780,1,0,0:0:0:0:
468,192,88855,1,0,0:0:0:0:
36,192,88855,1,0,0:0:0:0:
180,192,88930,1,0,0:0:0:0:
108,192,88930,1,0,0:0:0:0:
396,192,88930,1,0,0:0:0:0:
252,192,88930,1,0,0:0:0:0:
36,192,89005,1,0,0:0:0:0:
468,192,89080,1,0,0:0:0:0:
324,192,89080,1,0,0:0:0:0:
180,192,89080,1,0,0:0:0:0:
252,192,89080,1,0,0:0:0:0:
36,192,89155,1,0,0:0:0:0:
108,192,89230,1,0,0:0:0:0:
252,192,89230,1,0,0:0:0:0:
180,192,89230,1,0,0:0:0:0:
396,192,89230,1,0,0:0:0:0:
468,192,89305,1,0,0:0:0:0:
180,192,89380,1,0,0:0:0:0:
396,192,89380,1,0,0:0:0:0:
324,192,89380,1,0,0:0:0:0:
324,192,89455,1,0,0:0:0:0:
468,192,89455,1,0,0:0:0:0:
36,192,89455,1,0,0:0:0:0:
180,192,89530,1,0,0:0:0:0:
108,192,89530,1,0,0:0:0:0:
396,192,89530,1,0,0:0:0:0:
252,192,89530,1,0,0:0:0:0:
180,192,89680,1,0,0:0:0:0:
252,192,89755,1,0,0:0:0:0:
324,192,89830,1,0,0:0:0:0:
468,192,89830,1,0,0:0:0:0:
108,192,89980,1,0,0:0:0:0:
252,192,89980,1,0,0:0:0:0:
180,192,89980,1,0,0:0:0:0:
396,192,89980,1,0,0:0:0:0:
36,192,90055,1,0,0:0:0:0:
468,192,90055,1,0,0:0:0:0:
180,192,90130,1,0,0:0:0:0:
324,192,90130,1,0,0:0:0:0:
252,192,90205,1,0,0:0:0:0:
468,192,90280,1,0,0:0:0:0:
324,192,90280,1,0,0:0:0:0:
396,192,90280,1,0,0:0:0:0:
108,192,90280,1,0,0:0:0:0:
180,192,90355,1,0,0:0:0:0:
108,192,90430,1,0,0:0:0:0:
252,192,90430,1,0,0:0:0:0:
396,192,90430,1,0,0:0:0:0:
36,192,90430,1,0,0:0:0:0:
180,192,90580,1,0,0:0:0:0:
324,192,90580,1,0,0:0:0:0:
36,192,90655,1,0,0:0:0:0:
396,192,90655,1,0,0:0:0:0:
324,192,90730,1,0,0:0:0:0:
468,192,90730,1,0,0:0:0:0:
180,192,90730,1,0,0:0:0:0:
108,192,90880,1,0,0:0:0:0:
252,192,90955,1,0,0:0:0:0:
324,192,91030,1,0,0:0:0:0:
468,192,91030,1,0,0:0:0:0:
108,192,91180,1,0,0:0:0:0:
252,192,91180,1,0,0:0:0:0:
180,192,91180,1,0,0:0:0:0:
468,192,91180,1,0,0:0:0:0:
396,192,91255,1,0,0:0:0:0:
36,192,91255,1,0,0:0:0:0:
108,192,91330,1,0,0:0:0:0:
252,192,91330,1,0,0:0:0:0:
180,192,91330,1,0,0:0:0:0:
468,192,91330,1,0,0:0:0:0:
396,192,91405,1,0,0:0:0:0:
324,192,91480,1,0,0:0:0:0:
468,192,91480,1,0,0:0:0:0:
36,192,91480,1,0,0:0:0:0:
180,192,91555,1,0,0:0:0:0:
252,192,91630,1,0,0:0:0:0:
108,192,91630,1,0,0:0:0:0:
36,192,91630,1,0,0:0:0:0:
396,192,91630,1,0,0:0:0:0:
468,192,91705,1,0,0:0:0:0:
324,192,91780,1,0,0:0:0:0:
180,192,91780,1,0,0:0:0:0:
324,192,91855,1,0,0:0:0:0:
396,192,91855,1,0,0:0:0:0:
108,192,91930,1,0,0:0:0:0:
252,192,91930,1,0,0:0:0:0:
180,192,91930,1,0,0:0:0:0:
36,192,92080,1,0,0:0:0:0:
468,192,92080,1,0,0:0:0:0:
180,192,92155,1,0,0:0:0:0:
396,192,92155,1,0,0:0:0:0:
468,192,92230,1,0,0:0:0:0:
324,192,92230,1,0,0:0:0:0:
36,192,92230,1,0,0:0:0:0:
252,192,92230,1,0,0:0:0:0:
108,192,92380,1,0,0:0:0:0:
252,192,92380,1,0,0:0:0:0:
396,192,92380,1,0,0:0:0:0:
180,192,92455,1,0,0:0:0:0:
36,192,92455,1,0,0:0:0:0:
396,192,92530,1,0,0:0:0:0:
252,192,92530,1,0,0:0:0:0:
108,192,92605,1,0,0:0:0:0:
468,192,92680,1,0,0:0:0:0:
324,192,92680,1,0,0:0:0:0:
180,192,92680,1,0,0:0:0:0:
252,192,92680,1,0,0:0:0:0:
36,192,92755,1,0,0:0:0:0:
108,192,92830,1,0,0:0:0:0:
252,192,92830,1,0,0:0:0:0:
180,192,92830,1,0,0:0:0:0:
468,192,92830,1,0,0:0:0:0:
324,192,92905,1,0,0:0:0:0:
396,192,92980,1,0,0:0:0:0:
36,192,92980,1,0,0:0:0:0:
180,192,93055,1,0,0:0:0:0:
108,192,93055,1,0,0:0:0:0:
36,192,93130,1,0,0:0:0:0:
468,192,93130,1,0,0:0:0:0:
396,192,93130,1,0,0:0:0:0:
324,192,93130,1,0,0:0:0:0:
180,192,93280,1,0,0:0:0:0:
252,192,93355,1,0,0:0:0:0:
324,192,93430,1,0,0:0:0:0:
468,192,93430,1,0,0:0:0:0:
36,192,93430,1,0,0:0:0:0:
324,192,93580,1,0,0:0:0:0:
252,192,93580,1,0,0:0:0:0:
180,192,93580,1,0,0:0:0:0:
108,192,93580,1,0,0:0:0:0:
36,192,93655,1,0,0:0:0:0:
468,192,93655,1,0,0:0:0:0:
108,192,93730,1,0,0:0:0:0:
252,192,93730,1,0,0:0:0:0:
180,192,93730,1,0,0:0:0:0:
324,192,93730,1,0,0:0:0:0:
36,192,93805,1,0,0:0:0:0:
324,192,93880,1,0,0:0:0:0:
468,192,93880,1,0,0:0:0:0:
396,192,93880,1,0,0:0:0:0:
180,192,93955,1,0,0:0:0:0:
36,192,93955,1,0,0:0:0:0:
396,192,94030,1,0,0:0:0:0:
108,192,94030,1,0,0:0:0:0:
468,192,94030,1,0,0:0:0:0:
252,192,94030,1,0,0:0:0:0:
324,192,94180,1,0,0:0:0:0:
180,192,94180,1,0,0:0:0:0:
324,192,94255,1,0,0:0:0:0:
36,192,94255,1,0,0:0:0:0:
180,192,94330,1,0,0:0:0:0:
252,192,94330,1,0,0:0:0:0:
108,192,94330,1,0,0:0:0:0:
396,192,94480,1,0,0:0:0:0:
108,192,94555,1,0,0:0:0:0:
468,192,94630,1,0,0:0:0:0:
324,192,94630,1,0,0:0:0:0:
180,192,94630,1,0,0:0:0:0:
108,192,94780,1,0,0:0:0:0:
252,192,94780,1,0,0:0:0:0:
36,192,94780,1,0,0:0:0:0:
468,192,94780,1,0,0:0:0:0:
180,192,94855,1,0,0:0:0:0:
324,192,94855,1,0,0:0:0:0:
36,192,94930,1,0,0:0:0:0:
252,192,94930,1,0,0:0:0:0:
180,192,95005,1,0,0:0:0:0:
468,192,95080,1,0,0:0:0:0:
324,192,95080,1,0,0:0:0:0:
396,192,95080,1,0,0:0:0:0:
108,192,95080,1,0,0:0:0:0:
180,192,95155,1,0,0:0:0:0:
36,192,95155,1,0,0:0:0:0:
108,192,95230,1,0,0:0:0:0:
252,192,95230,1,0,0:0:0:0:
396,192,95230,1,0,0:0:0:0:
468,192,95230,1,0,0:0:0:0:
324,192,95305,1,0,0:0:0:0:
36,192,95380,1,0,0:0:0:0:
252,192,95380,1,0,0:0:0:0:
180,192,95455,1,0,0:0:0:0:
396,192,95455,1,0,0:0:0:0:
468,192,95530,1,0,0:0:0:0:
324,192,95530,1,0,0:0:0:0:
36,192,95530,1,0,0:0:0:0:
252,192,95530,1,0,0:0:0:0:
36,192,95680,1,0,0:0:0:0:
180,192,95755,1,0,0:0:0:0:
324,192,95830,1,0,0:0:0:0:
468,192,95830,1,0,0:0:0:0:
252,192,95830,1,0,0:0:0:0:
108,192,95980,1,0,0:0:0:0:
252,192,95980,1,0,0:0:0:0:
396,192,95980,1,0,0:0:0:0:
36,192,95980,1,0,0:0:0:0:
468,192,96055,1,0,0:0:0:0:
180,192,96055,1,0,0:0:0:0:
108,192,96130,1,0,0:0:0:0:
252,192,96130,1,0,0:0:0:0:
396,192,96130,1,0,0:0:0:0:
36,192,96130,1,0,0:0:0:0:
180,192,96205,1,0,0:0:0:0:
36,192,96280,1,0,0:0:0:0:
468,192,96280,1,0,0:0:0:0:
324,192,96280,1,0,0:0:0:0:
108,192,96280,1,0,0:0:0:0:
252,192,96280,1,0,0:0:0:0:
180,192,96355,1,0,0:0:0:0:
396,192,96355,1,0,0:0:0:0:
252,192,96430,1,0,0:0:0:0:
108,192,96430,1,0,0:0:0:0:
36,192,96430,1,0,0:0:0:0:
468,192,96430,1,0,0:0:0:0:
180,192,96505,1,0,0:0:0:0:
324,192,96580,1,0,0:0:0:0:
396,192,96580,1,0,0:0:0:0:
36,192,96580,1,0,0:0:0:0:
324,192,96655,1,0,0:0:0:0:
468,192,96655,1,0,0:0:0:0:
36,192,96655,1,0,0:0:0:0:
108,192,96730,1,0,0:0:0:0:
252,192,96730,1,0,0:0:0:0:
396,192,96730,1,0,0:0:0:0:
180,192,96730,1,0,0:0:0:0:
468,192,96880,1,0,0:0:0:0:
396,192,96880,1,0,0:0:0:0:
324,192,96880,1,0,0:0:0:0:
36,192,96880,1,0,0:0:0:0:
252,192,96955,1,0,0:0:0:0:
180,192,97030,1,0,0:0:0:0:
36,192,97030,1,0,0:0:0:0:
108,192,97180,1,0,0:0:0:0:
252,192,97180,1,0,0:0:0:0:
396,192,97180,1,0,0:0:0:0:
324,192,97180,1,0,0:0:0:0:
468,192,97180,1,0,0:0:0:0:
180,192,97255,1,0,0:0:0:0:
36,192,97255,1,0,0:0:0:0:
396,192,97330,1,0,0:0:0:0:
108,192,97330,1,0,0:0:0:0:
252,192,97405,1,0,0:0:0:0:
396,192,97480,1,0,0:0:0:0:
324,192,97480,1,0,0:0:0:0:
180,192,97480,1,0,0:0:0:0:
468,192,97480,1,0,0:0:0:0:
36,192,97555,1,0,0:0:0:0:
108,192,97630,1,0,0:0:0:0:
252,192,97630,1,0,0:0:0:0:
180,192,97630,1,0,0:0:0:0:
324,192,97630,1,0,0:0:0:0:
396,192,97780,1,0,0:0:0:0:
252,192,97780,1,0,0:0:0:0:
180,192,97855,1,0,0:0:0:0:
36,192,97855,1,0,0:0:0:0:
324,192,97930,1,0,0:0:0:0:
468,192,97930,1,0,0:0:0:0:
396,192,97930,1,0,0:0:0:0:
108,192,97930,1,0,0:0:0:0:
36,192,98005,1,0,0:0:0:0:
180,192,98080,1,0,0:0:0:0:
252,192,98155,1,0,0:0:0:0:
324,192,98230,1,0,0:0:0:0:
468,192,98230,1,0,0:0:0:0:
180,192,98305,1,0,0:0:0:0:
108,192,98380,1,0,0:0:0:0:
252,192,98380,1,0,0:0:0:0:
36,192,98380,1,0,0:0:0:0:
324,192,98380,1,0,0:0:0:0:
180,192,98455,1,0,0:0:0:0:
396,192,98455,1,0,0:0:0:0:
108,192,98530,1,0,0:0:0:0:
252,192,98530,1,0,0:0:0:0:
36,192,98530,1,0,0:0:0:0:
324,192,98530,1,0,0:0:0:0:
396,192,98605,1,0,0:0:0:0:
108,192,98680,1,0,0:0:0:0:
468,192,98680,1,0,0:0:0:0:
180,192,98680,1,0,0:0:0:0:
324,192,98680,1,0,0:0:0:0:
396,192,98755,1,0,0:0:0:0:
36,192,98755,1,0,0:0:0:0:
252,192,98830,1,0,0:0:0:0:
108,192,98830,1,0,0:0:0:0:
180,192,98830,1,0,0:0:0:0:
324,192,98830,1,0,0:0:0:0:
396,192,98905,1,0,0:0:0:0:
324,192,98980,1,0,0:0:0:0:
36,192,98980,1,0,0:0:0:0:
324,192,99055,1,0,0:0:0:0:
180,192,99055,1,0,0:0:0:0:
36,192,99130,1,0,0:0:0:0:
252,192,99130,1,0,0:0:0:0:
108,192,99130,1,0,0:0:0:0:
180,192,99280,1,0,0:0:0:0:
252,192,99355,1,0,0:0:0:0:
468,192,99430,1,0,0:0:0:0:
324,192,99430,1,0,0:0:0:0:
396,192,99580,1,0,0:0:0:0:
252,192,99580,1,0,0:0:0:0:
108,192,99580,1,0,0:0:0:0:
180,192,99580,1,0,0:0:0:0:
36,192,99655,1,0,0:0:0:0:
324,192,99655,1,0,0:0:0:0:
396,192,99730,1,0,0:0:0:0:
252,192,99730,1,0,0:0:0:0:
108,192,99805,1,0,0:0:0:0:
468,192,99880,1,0,0:0:0:0:
324,192,99880,1,0,0:0:0:0:
180,192,99880,1,0,0:0:0:0:
252,192,99880,1,0,0:0:0:0:
36,192,99955,1,0,0:0:0:0:
396,192,99955,1,0,0:0:0:0:
108,192,100030,1,0,0:0:0:0:
252,192,100030,1,0,0:0:0:0:
180,192,100030,1,0,0:0:0:0:
468,192,100030,1,0,0:0:0:0:
324,192,100105,1,0,0:0:0:0:
396,192,100180,1,0,0:0:0:0:
252,192,100180,1,0,0:0:0:0:
36,192,100255,1,0,0:0:0:0:
180,192,100255,1,0,0:0:0:0:
324,192,100330,1,0,0:0:0:0:
468,192,100330,1,0,0:0:0:0:
396,192,100330,1,0,0:0:0:0:
252,192,100330,1,0,0:0:0:0:
180,192,100480,1,0,0:0:0:0:
252,192,100555,1,0,0:0:0:0:
324,192,100630,1,0,0:0:0:0:
468,192,100630,1,0,0:0:0:0:
108,192,100780,1,0,0:0:0:0:
252,192,100780,1,0,0:0:0:0:
36,192,100780,1,0,0:0:0:0:
396,192,100780,1,0,0:0:0:0:
180,192,100855,1,0,0:0:0:0:
324,192,100855,1,0,0:0:0:0:
108,192,100930,1,0,0:0:0:0:
252,192,100930,1,0,0:0:0:0:
36,192,100930,1,0,0:0:0:0:
396,192,100930,1,0,0:0:0:0:
180,192,101005,1,0,0:0:0:0:
324,192,101080,1,0,0:0:0:0:
468,192,101080,1,0,0:0:0:0:
396,192,101080,1,0,0:0:0:0:
108,192,101080,1,0,0:0:0:0:
180,192,101155,1,0,0:0:0:0:
36,192,101155,1,0,0:0:0:0:
252,192,101230,1,0,0:0:0:0:
108,192,101230,1,0,0:0:0:0:
396,192,101230,1,0,0:0:0:0:
324,192,101230,1,0,0:0:0:0:
468,192,101305,1,0,0:0:0:0:
324,192,101380,1,0,0:0:0:0:
36,192,101380,1,0,0:0:0:0:
324,192,101455,1,0,0:0:0:0:
180,192,101455,1,0,0:0:0:0:
108,192,101530,1,0,0:0:0:0:
252,192,101530,1,0,0:0:0:0:
36,192,101530,1,0,0:0:0:0:
396,192,101680,1,0,0:0:0:0:
36,192,101680,1,0,0:0:0:0:
180,192,101755,1,0,0:0:0:0:
252,192,101755,1,0,0:0:0:0:
468,192,101830,1,0,0:0:0:0:
324,192,101830,1,0,0:0:0:0:
396,192,101830,1,0,0:0:0:0:
108,192,101980,1,0,0:0:0:0:
252,192,101980,1,0,0:0:0:0:
36,192,101980,1,0,0:0:0:0:
324,192,101980,1,0,0:0:0:0:
468,192,101980,1,0,0:0:0:0:
396,192,101980,1,0,0:0:0:0:
180,192,102055,1,0,0:0:0:0:
108,192,102130,1,0,0:0:0:0:
252,192,102130,1,0,0:0:0:0:
36,192,102130,1,0,0:0:0:0:
324,192,102130,1,0,0:0:0:0:
180,192,102205,1,0,0:0:0:0:
468,192,102280,1,0,0:0:0:0:
324,192,102280,1,0,0:0:0:0:
396,192,102280,1,0,0:0:0:0:
36,192,102280,1,0,0:0:0:0:
180,192,102355,1,0,0:0:0:0:
108,192,102430,1,0,0:0:0:0:
252,192,102430,1,0,0:0:0:0:
396,192,102430,1,0,0:0:0:0:
36,192,102430,1,0,0:0:0:0:
180,192,102505,1,0,0:0:0:0:
36,192,102580,1,0,0:0:0:0:
396,192,102580,1,0,0:0:0:0:
180,192,102655,1,0,0:0:0:0:
252,192,102655,1,0,0:0:0:0:
324,192,102730,1,0,0:0:0:0:
468,192,102730,1,0,0:0:0:0:
36,192,102730,1,0,0:0:0:0:
396,192,102730,1,0,0:0:0:0:
180,192,102880,1,0,0:0:0:0:
252,192,102955,1,0,0:0:0:0:
324,192,103030,1,0,0:0:0:0:
468,192,103030,1,0,0:0:0:0:
108,192,103180,1,0,0:0:0:0:
252,192,103180,1,0,0:0:0:0:
180,192,103180,1,0,0:0:0:0:
324,192,103180,1,0,0:0:0:0:
468,192,103255,1,0,0:0:0:0:
36,192,103255,1,0,0:0:0:0:
324,192,103330,1,0,0:0:0:0:
252,192,103330,1,0,0:0:0:0:
180,192,103330,1,0,0:0:0:0:
108,192,103330,1,0,0:0:0:0:
36,192,103405,1,0,0:0:0:0:
396,192,103480,1,0,0:0:0:0:
468,192,103480,1,0,0:0:0:0:
324,192,103480,1,0,0:0:0:0:
252,192,103480,1,0,0:0:0:0:
36,192,103555,1,0,0:0:0:0:
180,192,103555,1,0,0:0:0:0:
396,192,103630,1,0,0:0:0:0:
108,192,103630,1,0,0:0:0:0:
252,192,103630,1,0,0:0:0:0:
36,192,103705,1,0,0:0:0:0:
324,192,103780,1,0,0:0:0:0:
180,192,103780,1,0,0:0:0:0:
324,192,103855,1,0,0:0:0:0:
468,192,103855,1,0,0:0:0:0:
108,192,103930,1,0,0:0:0:0:
252,192,103930,1,0,0:0:0:0:
180,192,103930,1,0,0:0:0:0:
396,192,104005,1,0,0:0:0:0:
252,192,104080,1,0,0:0:0:0:
180,192,104155,1,0,0:0:0:0:
468,192,104230,1,0,0:0:0:0:
324,192,104230,1,0,0:0:0:0:
252,192,104230,1,0,0:0:0:0:
108,192,104380,1,0,0:0:0:0:
252,192,104380,1,0,0:0:0:0:
180,192,104380,1,0,0:0:0:0:
468,192,104380,1,0,0:0:0:0:
36,192,104455,1,0,0:0:0:0:
324,192,104455,1,0,0:0:0:0:
108,192,104530,1,0,0:0:0:0:
252,192,104530,1,0,0:0:0:0:
180,192,104530,1,0,0:0:0:0:
468,192,104530,1,0,0:0:0:0:
36,192,104605,1,0,0:0:0:0:
252,192,104680,1,0,0:0:0:0:
324,192,104680,1,0,0:0:0:0:
468,192,104680,1,0,0:0:0:0:
396,192,104680,1,0,0:0:0:0:
180,192,104755,1,0,0:0:0:0:
36,192,104755,1,0,0:0:0:0:
324,192,104830,1,0,0:0:0:0:
252,192,104830,1,0,0:0:0:0:
396,192,104830,1,0,0:0:0:0:
108,192,104830,1,0,0:0:0:0:
180,192,104980,1,0,0:0:0:0:
252,192,104980,1,0,0:0:0:0:
108,192,104980,1,0,0:0:0:0:
324,192,104980,1,0,0:0:0:0:
36,192,105055,1,0,0:0:0:0:
396,192,105055,1,0,0:0:0:0:
180,192,105130,1,0,0:0:0:0:
468,192,105130,1,0,0:0:0:0:
324,192,105130,1,0,0:0:0:0:
108,192,105130,1,0,0:0:0:0:
252,192,105130,1,0,0:0:0:0:
108,192,105280,1,0,0:0:0:0:
252,192,105280,1,0,0:0:0:0:
468,192,105280,1,0,0:0:0:0:
396,192,105355,1,0,0:0:0:0:
324,192,105430,1,0,0:0:0:0:
468,192,105430,1,0,0:0:0:0:
108,192,105430,1,0,0:0:0:0:
36,192,105430,1,0,0:0:0:0:
108,192,105580,1,0,0:0:0:0:
252,192,105580,1,0,0:0:0:0:
180,192,105580,1,0,0:0:0:0:
396,192,105580,1,0,0:0:0:0:
36,192,105655,1,0,0:0:0:0:
324,192,105655,1,0,0:0:0:0:
468,192,105655,1,0,0:0:0:0:
108,192,105730,1,0,0:0:0:0:
252,192,105730,1,0,0:0:0:0:
180,192,105730,1,0,0:0:0:0:
396,192,105730,1,0,0:0:0:0:
36,192,105805,1,0,0:0:0:0:
324,192,105880,1,0,0:0:0:0:
468,192,105880,1,0,0:0:0:0:
108,192,105880,1,0,0:0:0:0:
396,192,105880,1,0,0:0:0:0:
180,192,105880,1,0,0:0:0:0:
36,192,105955,1,0,0:0:0:0:
252,192,105955,1,0,0:0:0:0:
108,192,106030,1,0,0:0:0:0:
396,192,106030,1,0,0:0:0:0:
468,192,106030,1,0,0:0:0:0:
180,192,106068,1,0,0:0:0:0:
252,192,106105,1,0,0:0:0:0:
324,192,106143,1,0,0:0:0:0:
36,192,106180,1,0,0:0:0:0:
108,192,106180,1,0,0:0:0:0:
180,192,106180,1,0,0:0:0:0:
396,192,106255,1,0,0:0:0:0:
468,192,106255,1,0,0:0:0:0:
252,192,106255,1,0,0:0:0:0:
36,192,106330,1,0,0:0:0:0:
108,192,106330,1,0,0:0:0:0:
180,192,106330,1,0,0:0:0:0:
396,192,106405,1,0,0:0:0:0:
468,192,106405,1,0,0:0:0:0:
324,192,106405,1,0,0:0:0:0:
36,192,106480,1,0,0:0:0:0:
180,192,106480,1,0,0:0:0:0:
252,192,106480,1,0,0:0:0:0:
108,192,106480,1,0,0:0:0:0:
324,192,106555,1,0,0:0:0:0:
468,192,106555,1,0,0:0:0:0:
396,192,106555,1,0,0:0:0:0:
36,192,106630,1,0,0:0:0:0:
108,192,106649,1,0,0:0:0:0:
180,192,106668,1,0,0:0:0:0:
252,192,106686,1,0,0:0:0:0:
324,192,106705,1,0,0:0:0:0:
252,192,106780,1,0,0:0:0:0:
180,192,106780,1,0,0:0:0:0:
396,192,106780,1,0,0:0:0:0:
108,192,106780,1,0,0:0:0:0:
36,192,106855,1,0,0:0:0:0:
324,192,106855,1,0,0:0:0:0:
396,192,106930,1,0,0:0:0:0:
252,192,106930,1,0,0:0:0:0:
108,192,107005,1,0,0:0:0:0:
468,192,107080,1,0,0:0:0:0:
324,192,107080,1,0,0:0:0:0:
180,192,107080,1,0,0:0:0:0:
252,192,107080,1,0,0:0:0:0:
36,192,107155,1,0,0:0:0:0:
108,192,107230,1,0,0:0:0:0:
252,192,107230,1,0,0:0:0:0:
180,192,107230,1,0,0:0:0:0:
396,192,107230,1,0,0:0:0:0:
324,192,107305,1,0,0:0:0:0:
396,192,107380,1,0,0:0:0:0:
252,192,107380,1,0,0:0:0:0:
36,192,107455,1,0,0:0:0:0:
180,192,107455,1,0,0:0:0:0:
324,192,107530,1,0,0:0:0:0:
468,192,107530,1,0,0:0:0:0:
396,192,107530,1,0,0:0:0:0:
252,192,107530,1,0,0:0:0:0:
108,192,107605,1,0,0:0:0:0:
180,192,107680,1,0,0:0:0:0:
252,192,107755,1,0,0:0:0:0:
324,192,107830,1,0,0:0:0:0:
468,192,107830,1,0,0:0:0:0:
396,192,107830,1,0,0:0:0:0:
468,192,107980,1,0,0:0:0:0:
252,192,107980,1,0,0:0:0:0:
180,192,107980,1,0,0:0:0:0:
108,192,107980,1,0,0:0:0:0:
36,192,108055,1,0,0:0:0:0:
324,192,108055,1,0,0:0:0:0:
108,192,108130,1,0,0:0:0:0:
252,192,108130,1,0,0:0:0:0:
180,192,108130,1,0,0:0:0:0:
468,192,108130,1,0,0:0:0:0:
36,192,108205,1,0,0:0:0:0:
324,192,108280,1,0,0:0:0:0:
468,192,108280,1,0,0:0:0:0:
396,192,108280,1,0,0:0:0:0:
108,192,108280,1,0,0:0:0:0:
180,192,108355,1,0,0:0:0:0:
36,192,108355,1,0,0:0:0:0:
324,192,108430,1,0,0:0:0:0:
108,192,108430,1,0,0:0:0:0:
396,192,108430,1,0,0:0:0:0:
252,192,108430,1,0,0:0:0:0:
468,192,108505,1,0,0:0:0:0:
324,192,108580,1,0,0:0:0:0:
180,192,108580,1,0,0:0:0:0:
396,192,108580,1,0,0:0:0:0:
324,192,108655,1,0,0:0:0:0:
36,192,108655,1,0,0:0:0:0:
108,192,108730,1,0,0:0:0:0:
252,192,108730,1,0,0:0:0:0:
180,192,108730,1,0,0:0:0:0:
36,192,108805,1,0,0:0:0:0:
180,192,108880,1,0,0:0:0:0:
252,192,108955,1,0,0:0:0:0:
468,192,109030,1,0,0:0:0:0:
324,192,109030,1,0,0:0:0:0:
108,192,109180,1,0,0:0:0:0:
252,192,109180,1,0,0:0:0:0:
180,192,109180,1,0,0:0:0:0:
36,192,109180,1,0,0:0:0:0:
396,192,109255,1,0,0:0:0:0:
324,192,109255,1,0,0:0:0:0:
180,192,109330,1,0,0:0:0:0:
252,192,109330,1,0,0:0:0:0:
108,192,109405,1,0,0:0:0:0:
468,192,109480,1,0,0:0:0:0:
324,192,109480,1,0,0:0:0:0:
36,192,109480,1,0,0:0:0:0:
252,192,109480,1,0,0:0:0:0:
180,192,109555,1,0,0:0:0:0:
396,192,109555,1,0,0:0:0:0:
324,192,109630,1,0,0:0:0:0:
252,192,109630,1,0,0:0:0:0:
36,192,109630,1,0,0:0:0:0:
108,192,109630,1,0,0:0:0:0:
468,192,109705,1,0,0:0:0:0:
180,192,109780,1,0,0:0:0:0:
108,192,109780,1,0,0:0:0:0:
396,192,109855,1,0,0:0:0:0:
36,192,109855,1,0,0:0:0:0:
108,192,109930,1,0,0:0:0:0:
468,192,109930,1,0,0:0:0:0:
180,192,109930,1,0,0:0:0:0:
324,192,109930,1,0,0:0:0:0:
252,192,110005,1,0,0:0:0:0:
396,192,110080,1,0,0:0:0:0:
252,192,110155,1,0,0:0:0:0:
324,192,110230,1,0,0:0:0:0:
468,192,110230,1,0,0:0:0:0:
180,192,110230,1,0,0:0:0:0:
108,192,110380,1,0,0:0:0:0:
252,192,110380,1,0,0:0:0:0:
36,192,110380,1,0,0:0:0:0:
468,192,110380,1,0,0:0:0:0:
180,192,110455,1,0,0:0:0:0:
324,192,110455,1,0,0:0:0:0:
36,192,110530,1,0,0:0:0:0:
252,192,110530,1,0,0:0:0:0:
108,192,110530,1,0,0:0:0:0:
468,192,110530,1,0,0:0:0:0:
180,192,110605,1,0,0:0:0:0:
324,192,110680,1,0,0:0:0:0:
468,192,110680,1,0,0:0:0:0:
396,192,110680,1,0,0:0:0:0:
108,192,110680,1,0,0:0:0:0:
180,192,110755,1,0,0:0:0:0:
36,192,110755,1,0,0:0:0:0:
324,192,110830,1,0,0:0:0:0:
108,192,110830,1,0,0:0:0:0:
396,192,110830,1,0,0:0:0:0:
252,192,110830,1,0,0:0:0:0:
468,192,110905,1,0,0:0:0:0:
324,192,110980,1,0,0:0:0:0:
36,192,110980,1,0,0:0:0:0:
396,192,110980,1,0,0:0:0:0:
324,192,111055,1,0,0:0:0:0:
180,192,111055,1,0,0:0:0:0:
108,192,111130,1,0,0:0:0:0:
252,192,111130,1,0,0:0:0:0:
36,192,111130,1,0,0:0:0:0:
396,192,111280,1,0,0:0:0:0:
108,192,111280,1,0,0:0:0:0:
180,192,111355,1,0,0:0:0:0:
252,192,111355,1,0,0:0:0:0:
396,192,111430,1,0,0:0:0:0:
324,192,111430,1,0,0:0:0:0:
468,192,111430,1,0,0:0:0:0:
36,192,111580,1,0,0:0:0:0:
252,192,111580,1,0,0:0:0:0:
108,192,111580,1,0,0:0:0:0:
396,192,111580,1,0,0:0:0:0:
468,192,111580,1,0,0:0:0:0:
180,192,111655,1,0,0:0:0:0:
324,192,111655,1,0,0:0:0:0:
36,192,111730,1,0,0:0:0:0:
396,192,111730,1,0,0:0:0:0:
180,192,111805,1,0,0:0:0:0:
468,192,111880,1,0,0:0:0:0:
324,192,111880,1,0,0:0:0:0:
396,192,111880,1,0,0:0:0:0:
252,192,111880,1,0,0:0:0:0:
36,192,111955,1,0,0:0:0:0:
180,192,111955,1,0,0:0:0:0:
108,192,112030,1,0,0:0:0:0:
252,192,112030,1,0,0:0:0:0:
396,192,112030,1,0,0:0:0:0:
324,192,112030,1,0,0:0:0:0:
468,192,112105,1,0,0:0:0:0:
36,192,112180,1,0,0:0:0:0:
252,192,112180,1,0,0:0:0:0:
180,192,112255,1,0,0:0:0:0:
396,192,112255,1,0,0:0:0:0:
324,192,112330,1,0,0:0:0:0:
468,192,112330,1,0,0:0:0:0:
36,192,112330,1,0,0:0:0:0:
252,192,112330,1,0,0:0:0:0:
396,192,112405,1,0,0:0:0:0:
180,192,112480,1,0,0:0:0:0:
252,192,112555,1,0,0:0:0:0:
324,192,112630,1,0,0:0:0:0:
468,192,112630,1,0,0:0:0:0:
108,192,112780,1,0,0:0:0:0:
252,192,112780,1,0,0:0:0:0:
396,192,112780,1,0,0:0:0:0:
180,192,112780,1,0,0:0:0:0:
468,192,112855,1,0,0:0:0:0:
36,192,112855,1,0,0:0:0:0:
108,192,112930,1,0,0:0:0:0:
252,192,112930,1,0,0:0:0:0:
396,192,112930,1,0,0:0:0:0:
180,192,112930,1,0,0:0:0:0:
36,192,113005,1,0,0:0:0:0:
252,192,113080,1,0,0:0:0:0:
468,192,113080,1,0,0:0:0:0:
180,192,113080,1,0,0:0:0:0:
324,192,113080,1,0,0:0:0:0:
36,192,113155,1,0,0:0:0:0:
396,192,113155,1,0,0:0:0:0:
252,192,113230,1,0,0:0:0:0:
108,192,113230,1,0,0:0:0:0:
180,192,113230,1,0,0:0:0:0:
468,192,113230,1,0,0:0:0:0:
36,192,113380,1,0,0:0:0:0:
396,192,113380,1,0,0:0:0:0:
324,192,113380,1,0,0:0:0:0:
324,192,113455,1,0,0:0:0:0:
468,192,113455,1,0,0:0:0:0:
108,192,113530,1,0,0:0:0:0:
252,192,113530,1,0,0:0:0:0:
396,192,113530,1,0,0:0:0:0:
324,192,113605,1,0,0:0:0:0:
180,192,113680,1,0,0:0:0:0:
252,192,113755,1,0,0:0:0:0:
468,192,113830,1,0,0:0:0:0:
324,192,113830,1,0,0:0:0:0:
324,192,113980,1,0,0:0:0:0:
252,192,113980,1,0,0:0:0:0:
36,192,113980,1,0,0:0:0:0:
108,192,113980,1,0,0:0:0:0:
180,192,114055,1,0,0:0:0:0:
396,192,114055,1,0,0:0:0:0:
108,192,114130,1,0,0:0:0:0:
252,192,114130,1,0,0:0:0:0:
36,192,114130,1,0,0:0:0:0:
324,192,114130,1,0,0:0:0:0:
396,192,114205,1,0,0:0:0:0:
468,192,114280,1,0,0:0:0:0:
324,192,114280,1,0,0:0:0:0:
180,192,114280,1,0,0:0:0:0:
108,192,114280,1,0,0:0:0:0:
396,192,114355,1,0,0:0:0:0:
36,192,114355,1,0,0:0:0:0:
108,192,114430,1,0,0:0:0:0:
252,192,114430,1,0,0:0:0:0:
180,192,114430,1,0,0:0:0:0:
36,192,114580,1,0,0:0:0:0:
324,192,114580,1,0,0:0:0:0:
180,192,114655,1,0,0:0:0:0:
396,192,114655,1,0,0:0:0:0:
324,192,114730,1,0,0:0:0:0:
468,192,114730,1,0,0:0:0:0:
36,192,114730,1,0,0:0:0:0:
252,192,114730,1,0,0:0:0:0:
396,192,114805,1,0,0:0:0:0:
180,192,114880,1,0,0:0:0:0:
252,192,114955,1,0,0:0:0:0:
324,192,115030,1,0,0:0:0:0:
468,192,115030,1,0,0:0:0:0:
108,192,115180,1,0,0:0:0:0:
252,192,115180,1,0,0:0:0:0:
396,192,115180,1,0,0:0:0:0:
324,192,115180,1,0,0:0:0:0:
180,192,115255,1,0,0:0:0:0:
468,192,115255,1,0,0:0:0:0:
108,192,115330,1,0,0:0:0:0:
252,192,115330,1,0,0:0:0:0:
396,192,115330,1,0,0:0:0:0:
324,192,115330,1,0,0:0:0:0:
36,192,115405,1,0,0:0:0:0:
324,192,115480,1,0,0:0:0:0:
468,192,115480,1,0,0:0:0:0:
108,192,115480,1,0,0:0:0:0:
180,192,115480,1,0,0:0:0:0:
252,192,115480,1,0,0:0:0:0:
36,192,115555,1,0,0:0:0:0:
396,192,115555,1,0,0:0:0:0:
252,192,115630,1,0,0:0:0:0:
108,192,115630,1,0,0:0:0:0:
180,192,115630,1,0,0:0:0:0:
324,192,115630,1,0,0:0:0:0:
36,192,115705,1,0,0:0:0:0:
468,192,115780,1,0,0:0:0:0:
396,192,115780,1,0,0:0:0:0:
180,192,115780,1,0,0:0:0:0:
36,192,115855,1,0,0:0:0:0:
108,192,115855,1,0,0:0:0:0:
324,192,115855,1,0,0:0:0:0:
468,192,115930,1,0,0:0:0:0:
396,192,115930,1,0,0:0:0:0:
252,192,115930,1,0,0:0:0:0:
180,192,116005,1,0,0:0:0:0:
36,192,116005,1,0,0:0:0:0:
108,192,116005,1,0,0:0:0:0:
252,192,116080,1,0,0:0:0:0:
324,192,116080,1,0,0:0:0:0:
396,192,116080,1,0,0:0:0:0:
180,192,116230,1,0,0:0:0:0:
396,192,116230,1,0,0:0:0:0:
324,192,116230,1,0,0:0:0:0:
108,192,116380,1,0,0:0:0:0:
252,192,116380,1,0,0:0:0:0:
36,192,116380,1,0,0:0:0:0:
468,192,116380,1,0,0:0:0:0:
180,192,116455,1,0,0:0:0:0:
324,192,116455,1,0,0:0:0:0:
36,192,116530,1,0,0:0:0:0:
252,192,116530,1,0,0:0:0:0:
108,192,116605,1,0,0:0:0:0:
468,192,116680,1,0,0:0:0:0:
324,192,116680,1,0,0:0:0:0:
396,192,116680,1,0,0:0:0:0:
36,192,116680,1,0,0:0:0:0:
180,192,116755,1,0,0:0:0:0:
108,192,116830,1,0,0:0:0:0:
252,192,116830,1,0,0:0:0:0:
396,192,116830,1,0,0:0:0:0:
324,192,116830,1,0,0:0:0:0:
36,192,116980,1,0,0:0:0:0:
108,192,116980,1,0,0:0:0:0:
180,192,117055,1,0,0:0:0:0:
252,192,117055,1,0,0:0:0:0:
324,192,117130,1,0,0:0:0:0:
468,192,117130,1,0,0:0:0:0:
36,192,117130,1,0,0:0:0:0:
108,192,117130,1,0,0:0:0:0:
396,192,117205,1,0,0:0:0:0:
180,192,117280,1,0,0:0:0:0:
252,192,117355,1,0,0:0:0:0:
324,192,117430,1,0,0:0:0:0:
468,192,117430,1,0,0:0:0:0:
36,192,117430,1,0,0:0:0:0:
396,192,117505,1,0,0:0:0:0:
108,192,117580,1,0,0:0:0:0:
252,192,117580,1,0,0:0:0:0:
180,192,117580,1,0,0:0:0:0:
468,192,117580,1,0,0:0:0:0:
36,192,117655,1,0,0:0:0:0:
324,192,117655,1,0,0:0:0:0:
108,192,117730,1,0,0:0:0:0:
252,192,117730,1,0,0:0:0:0:
180,192,117730,1,0,0:0:0:0:
468,192,117730,1,0,0:0:0:0:
36,192,117805,1,0,0:0:0:0:
324,192,117880,1,0,0:0:0:0:
468,192,117880,1,0,0:0:0:0:
396,192,117880,1,0,0:0:0:0:
108,192,117880,1,0,0:0:0:0:
180,192,117955,1,0,0:0:0:0:
36,192,117955,1,0,0:0:0:0:
324,192,118030,1,0,0:0:0:0:
108,192,118030,1,0,0:0:0:0:
396,192,118030,1,0,0:0:0:0:
252,192,118030,1,0,0:0:0:0:
468,192,118105,1,0,0:0:0:0:
324,192,118180,1,0,0:0:0:0:
180,192,118180,1,0,0:0:0:0:
396,192,118180,1,0,0:0:0:0:
324,192,118255,1,0,0:0:0:0:
36,192,118255,1,0,0:0:0:0:
180,192,118330,1,0,0:0:0:0:
252,192,118330,1,0,0:0:0:0:
108,192,118330,1,0,0:0:0:0:
396,192,118330,1,0,0:0:0:0:
324,192,118405,1,0,0:0:0:0:
180,192,118480,1,0,0:0:0:0:
252,192,118555,1,0,0:0:0:0:
468,192,118630,1,0,0:0:0:0:
324,192,118630,1,0,0:0:0:0:
36,192,118705,1,0,0:0:0:0:
108,192,118780,1,0,0:0:0:0:
252,192,118780,1,0,0:0:0:0:
180,192,118780,1,0,0:0:0:0:
468,192,118780,1,0,0:0:0:0:
396,192,118855,1,0,0:0:0:0:
36,192,118855,1,0,0:0:0:0:
180,192,118930,1,0,0:0:0:0:
468,192,118930,1,0,0:0:0:0:
36,192,119005,1,0,0:0:0:0:
468,192,119080,1,0,0:0:0:0:
324,192,119080,1,0,0:0:0:0:
396,192,119080,1,0,0:0:0:0:
108,192,119080,1,0,0:0:0:0:
36,192,119155,1,0,0:0:0:0:
180,192,119155,1,0,0:0:0:0:
108,192,119230,1,0,0:0:0:0:
252,192,119230,1,0,0:0:0:0:
396,192,119230,1,0,0:0:0:0:
324,192,119230,1,0,0:0:0:0:
468,192,119305,1,0,0:0:0:0:
180,192,119380,1,0,0:0:0:0:
36,192,119380,1,0,0:0:0:0:
396,192,119455,1,0,0:0:0:0:
108,192,119455,1,0,0:0:0:0:
324,192,119530,1,0,0:0:0:0:
468,192,119530,1,0,0:0:0:0:
180,192,119530,1,0,0:0:0:0:
36,192,119530,1,0,0:0:0:0:
252,192,119605,1,0,0:0:0:0:
180,192,119680,1,0,0:0:0:0:
252,192,119755,1,0,0:0:0:0:
324,192,119830,1,0,0:0:0:0:
468,192,119830,1,0,0:0:0:0:
108,192,119980,1,0,0:0:0:0:
252,192,119980,1,0,0:0:0:0:
180,192,119980,1,0,0:0:0:0:
468,192,119980,1,0,0:0:0:0:
36,192,120055,1,0,0:0:0:0:
324,192,120055,1,0,0:0:0:0:
108,192,120130,1,0,0:0:0:0:
252,192,120130,1,0,0:0:0:0:
180,192,120130,1,0,0:0:0:0:
468,192,120130,1,0,0:0:0:0:
36,192,120205,1,0,0:0:0:0:
324,192,120280,1,0,0:0:0:0:
468,192,120280,1,0,0:0:0:0:
396,192,120280,1,0,0:0:0:0:
252,192,120280,1,0,0:0:0:0:
180,192,120355,1,0,0:0:0:0:
36,192,120355,1,0,0:0:0:0:
324,192,120430,1,0,0:0:0:0:
108,192,120430,1,0,0:0:0:0:
396,192,120430,1,0,0:0:0:0:
252,192,120430,1,0,0:0:0:0:
468,192,120505,1,0,0:0:0:0:
324,192,120580,1,0,0:0:0:0:
180,192,120580,1,0,0:0:0:0:
396,192,120580,1,0,0:0:0:0:
324,192,120655,1,0,0:0:0:0:
36,192,120655,1,0,0:0:0:0:
468,192,120655,1,0,0:0:0:0:
396,192,120730,1,0,0:0:0:0:
252,192,120730,1,0,0:0:0:0:
180,192,120730,1,0,0:0:0:0:
108,192,120730,1,0,0:0:0:0:
36,192,120805,1,0,0:0:0:0:
324,192,120880,1,0,0:0:0:0:
252,192,120880,1,0,0:0:0:0:
396,192,120880,1,0,0:0:0:0:
108,192,120880,1,0,0:0:0:0:
180,192,120955,1,0,0:0:0:0:
36,192,120955,1,0,0:0:0:0:
468,192,121030,1,0,0:0:0:0:
324,192,121030,1,0,0:0:0:0:
396,192,121030,1,0,0:0:0:0:
108,192,121030,1,0,0:0:0:0:
180,192,121105,1,0,0:0:0:0:
108,192,121180,1,0,0:0:0:0:
252,192,121180,1,0,0:0:0:0:
36,192,121180,1,0,0:0:0:0:
468,192,121180,1,0,0:0:0:0:
396,192,121180,1,0,0:0:0:0:
180,192,121255,1,0,0:0:0:0:
324,192,121255,1,0,0:0:0:0:
252,192,121330,1,0,0:0:0:0:
108,192,121330,1,0,0:0:0:0:
36,192,121330,1,0,0:0:0:0:
468,192,121330,1,0,0:0:0:0:
180,192,121405,1,0,0:0:0:0:
108,192,121480,1,0,0:0:0:0:
324,192,121480,1,0,0:0:0:0:
396,192,121480,1,0,0:0:0:0:
468,192,121480,1,0,0:0:0:0:
180,192,121555,1,0,0:0:0:0:
36,192,121555,1,0,0:0:0:0:
108,192,121630,1,0,0:0:0:0:
252,192,121630,1,0,0:0:0:0:
396,192,121630,1,0,0:0:0:0:
324,192,121630,1,0,0:0:0:0:
468,192,121705,1,0,0:0:0:0:
36,192,121780,1,0,0:0:0:0:
396,192,121780,1,0,0:0:0:0:
180,192,121855,1,0,0:0:0:0:
252,192,121855,1,0,0:0:0:0:
324,192,121930,1,0,0:0:0:0:
468,192,121930,1,0,0:0:0:0:
36,192,121930,1,0,0:0:0:0:
396,192,122005,1,0,0:0:0:0:
108,192,122080,1,0,0:0:0:0:
252,192,122080,1,0,0:0:0:0:
468,192,122080,1,0,0:0:0:0:
180,192,122155,1,0,0:0:0:0:
396,192,122155,1,0,0:0:0:0:
324,192,122230,1,0,0:0:0:0:
468,192,122230,1,0,0:0:0:0:
36,192,122230,1,0,0:0:0:0:
108,192,122268,1,0,0:0:0:0:
180,192,122305,1,0,0:0:0:0:
252,192,122343,1,0,0:0:0:0:
36,192,122380,1,0,0:0:0:0:
468,192,122380,1,0,0:0:0:0:
324,192,122380,1,0,0:0:0:0:
396,192,122380,1,0,0:0:0:0:
108,192,122455,1,0,0:0:0:0:
180,192,122455,1,0,0:0:0:0:
468,192,122530,1,0,0:0:0:0:
396,192,122530,1,0,0:0:0:0:
108,192,122605,1,0,0:0:0:0:
252,192,122605,1,0,0:0:0:0:
180,192,122605,1,0,0:0:0:0:
36,192,122680,1,0,0:0:0:0:
468,192,122680,1,0,0:0:0:0:
324,192,122680,1,0,0:0:0:0:
396,192,122755,1,0,0:0:0:0:
180,192,122755,1,0,0:0:0:0:
324,192,122830,1,0,0:0:0:0:
252,192,122830,1,0,0:0:0:0:
36,192,122830,1,0,0:0:0:0:
108,192,122830,1,0,0:0:0:0:
396,192,122905,1,0,0:0:0:0:
324,192,122980,1,0,0:0:0:0:
180,192,122980,1,0,0:0:0:0:
468,192,122980,1,0,0:0:0:0:
36,192,122980,1,0,0:0:0:0:
108,192,123055,1,0,0:0:0:0:
180,192,123055,1,0,0:0:0:0:
324,192,123055,1,0,0:0:0:0:
36,192,123055,1,0,0:0:0:0:
468,192,123130,1,0,0:0:0:0:
396,192,123168,1,0,0:0:0:0:
324,192,123205,1,0,0:0:0:0:
252,192,123243,1,0,0:0:0:0:
108,192,123280,1,0,0:0:0:0:
180,192,123280,1,0,0:0:0:0:
36,192,123280,1,0,0:0:0:0:
108,192,123355,1,0,0:0:0:0:
180,192,123355,1,0,0:0:0:0:
36,192,123355,1,0,0:0:0:0:
468,192,123430,1,0,0:0:0:0:
396,192,123449,1,0,0:0:0:0:
324,192,123468,1,0,0:0:0:0:
252,192,123486,1,0,0:0:0:0:
180,192,123505,1,0,0:0:0:0:
108,192,123580,1,0,0:0:0:0:
252,192,123580,1,0,0:0:0:0:
36,192,123580,1,0,0:0:0:0:
468,192,123580,1,0,0:0:0:0:
396,192,123655,1,0,0:0:0:0:
324,192,123655,1,0,0:0:0:0:
468,192,123730,1,0,0:0:0:0:
252,192,123730,1,0,0:0:0:0:
36,192,123730,1,0,0:0:0:0:
108,192,123730,1,0,0:0:0:0:
396,192,123805,1,0,0:0:0:0:
468,192,123880,1,0,0:0:0:0:
324,192,123880,1,0,0:0:0:0:
108,192,123880,1,0,0:0:0:0:
180,192,123880,1,0,0:0:0:0:
252,192,123880,1,0,0:0:0:0:
36,192,123955,1,0,0:0:0:0:
396,192,123955,1,0,0:0:0:0:
108,192,124030,1,0,0:0:0:0:
252,192,124030,1,0,0:0:0:0:
180,192,124030,1,0,0:0:0:0:
468,192,124030,1,0,0:0:0:0:
324,192,124105,1,0,0:0:0:0:
108,192,124180,1,0,0:0:0:0:
252,192,124180,1,0,0:0:0:0:
36,192,124180,1,0,0:0:0:0:
468,192,124180,1,0,0:0:0:0:
396,192,124255,1,0,0:0:0:0:
180,192,124255,1,0,0:0:0:0:
108,192,124330,1,0,0:0:0:0:
468,192,124330,1,0,0:0:0:0:
324,192,124330,1,0,0:0:0:0:
36,192,124330,1,0,0:0:0:0:
252,192,124330,1,0,0:0:0:0:
396,192,124405,1,0,0:0:0:0:
108,192,124480,1,0,0:0:0:0:
180,192,124480,1,0,0:0:0:0:
36,192,124555,1,0,0:0:0:0:
252,192,124555,1,0,0:0:0:0:
324,192,124630,1,0,0:0:0:0:
468,192,124630,1,0,0:0:0:0:
108,192,124630,1,0,0:0:0:0:
180,192,124668,1,0,0:0:0:0:
252,192,124705,1,0,0:0:0:0:
324,192,124743,1,0,0:0:0:0:
180,192,124780,1,0,0:0:0:0:
396,192,124780,1,0,0:0:0:0:
468,192,124780,1,0,0:0:0:0:
108,192,124780,1,0,0:0:0:0:
36,192,124855,1,0,0:0:0:0:
180,192,124874,1,0,0:0:0:0:
324,192,124893,1,0,0:0:0:0:
396,192,124911,1,0,0:0:0:0:
108,192,124930,1,0,0:0:0:0:
252,192,124930,1,0,0:0:0:0:
468,192,124930,1,0,0:0:0:0:
36,192,125005,1,0,0:0:0:0:
180,192,125005,1,0,0:0:0:0:
108,192,125080,1,0,0:0:0:0:
396,192,125080,1,0,0:0:0:0:
180,192,125118,1,0,0:0:0:0:
252,192,125155,1,0,0:0:0:0:
324,192,125193,1,0,0:0:0:0:
180,192,125230,1,0,0:0:0:0:
468,192,125230,1,0,0:0:0:0:
252,192,125268,1,0,0:0:0:0:
324,192,125305,1,0,0:0:0:0:
396,192,125343,1,0,0:0:0:0:
252,192,125380,1,0,0:0:0:0:
36,192,125380,1,0,0:0:0:0:
108,192,125380,1,0,0:0:0:0:
324,192,125418,1,0,0:0:0:0:
396,192,125455,1,0,0:0:0:0:
252,192,125474,1,0,0:0:0:0:
468,192,125493,1,0,0:0:0:0:
180,192,125493,1,0,0:0:0:0:
324,192,125511,1,0,0:0:0:0:
36,192,125530,1,0,0:0:0:0:
396,192,125530,1,0,0:0:0:0:
108,192,125568,1,0,0:0:0:0:
180,192,125605,1,0,0:0:0:0:
252,192,125643,1,0,0:0:0:0:
324,192,125680,1,0,0:0:0:0:
36,192,125680,1,0,0:0:0:0:
108,192,125680,1,0,0:0:0:0:
396,192,125718,1,0,0:0:0:0:
468,192,125755,1,0,0:0:0:0:
180,192,125755,1,0,0:0:0:0:
396,192,125793,1,0,0:0:0:0:
108,192,125793,1,0,0:0:0:0:
324,192,125830,1,0,0:0:0:0:
36,192,125830,1,0,0:0:0:0:
252,192,125868,1,0,0:0:0:0:
468,192,125868,1,0,0:0:0:0:
180,192,125905,1,0,0:0:0:0:
396,192,125905,1,0,0:0:0:0:
108,192,125943,1,0,0:0:0:0:
324,192,125943,1,0,0:0:0:0:
252,192,125980,1,0,0:0:0:0:
468,192,125980,1,0,0:0:0:0:
36,192,125980,1,0,0:0:0:0:
36,192,126280,1,0,0:0:0:0:
468,192,126280,1,0,0:0:0:0:
36,192,127180,1,0,0:0:0:0:
468,192,127180,1,0,0:0:0:0:
252,192,127180,1,0,0:0:0:0:
396,192,127180,1,0,0:0:0:0:
468,192,127480,1,0,0:0:0:0:
36,192,127480,1,0,0:0:0:0:
396,192,127930,1,0,0:0:0:0:
252,192,128080,1,0,0:0:0:0:
468,192,128380,1,0,0:0:0:0:
36,192,128380,1,0,0:0:0:0:
324,192,128380,1,0,0:0:0:0:
252,192,128380,1,0,0:0:0:0:
468,192,128680,1,0,0:0:0:0:
36,192,128680,1,0,0:0:0:0:
396,192,128830,1,0,0:0:0:0:
468,192,129580,1,0,0:0:0:0:
36,192,129580,1,0,0:0:0:0:
36,192,129880,1,0,0:0:0:0:
468,192,129880,1,0,0:0:0:0:
396,192,130780,1,0,0:0:0:0:
468,192,130780,1,0,0:0:0:0:
324,192,130780,1,0,0:0:0:0:
36,192,130780,1,0,0:0:0:0:
36,192,131080,1,0,0:0:0:0:
468,192,131080,1,0,0:0:0:0:
36,192,131830,1,0,0:0:0:0:
468,192,131980,1,0,0:0:0:0:
396,192,131980,1,0,0:0:0:0:
252,192,131980,1,0,0:0:0:0:
36,192,132130,1,0,0:0:0:0:
468,192,132280,1,0,0:0:0:0:
324,192,132580,1,0,0:0:0:0:
108,192,132880,1,0,0:0:0:0:
108,192,133180,1,0,0:0:0:0:
324,192,133180,1,0,0:0:0:0:
329,192,133630,1,0,0:0:0:0:
475,192,133630,1,0,0:0:0:0:
252,192,134080,1,0,0:0:0:0:
180,192,134380,1,0,0:0:0:0:
108,192,134380,1,0,0:0:0:0:
