osu file format v12

[General]
AudioFilename: a.mp3
AudioLeadIn: 0
PreviewTime: 0
Countdown: 0
SampleSet: Soft
StackLeniency: 0.4
Mode: 3
LetterboxInBreaks: 1
SpecialStyle: 0
WidescreenStoryboard: 0

[Editor]
DistanceSpacing: 0.9
BeatDivisor: 4
GridSize: 32

[Metadata]
Title:Death
TitleUnicode:臨終
Artist:Lunatic Sounds
ArtistUnicode:Lunatic Sounds
Creator:Xin_U
Version:7K Normal
Source:
Tags:bms bof 2012
BeatmapID:345717
BeatmapSetID:138289

[Difficulty]
HPDrainRate:7
CircleSize:7
OverallDifficulty:7
ApproachRate:7
SliderMultiplier:0.4
SliderTickRate:1

[Events]
//Background and Video events
0,0,"Title.jpg",0,0
Video,0,"bga.flv"
//Break Periods
//Storyboard Layer 0 (Background)
//Storyboard Layer 1 (Fail)
//Storyboard Layer 2 (Pass)
//Storyboard Layer 3 (Foreground)
//Storyboard Sound Samples
Sample,900,0,"01.ogg",70
Sample,1200,0,"bbp_031.ogg",70
Sample,1200,0,"d1.ogg",70
Sample,1200,0,"perc.ogg",70
Sample,1500,0,"bbp_054.ogg",70
Sample,1500,0,"d2.ogg",70
Sample,1650,0,"d3.ogg",70
Sample,1800,0,"bbp_071.ogg",70
Sample,1800,0,"d4.ogg",70
Sample,2100,0,"bbp_087.ogg",70
Sample,2100,0,"d5.ogg",70
Sample,2250,0,"d6.ogg",70
Sample,2400,0,"d7.ogg",70
Sample,2700,0,"bbp_099.ogg",70
Sample,2700,0,"d8.ogg",70
Sample,3000,0,"d9.ogg",70
Sample,3600,0,"bbp_022.ogg",70
Sample,3600,0,"d1.ogg",70
Sample,3900,0,"d2.ogg",70
Sample,3900,0,"bbp_045.ogg",70
Sample,4050,0,"d3.ogg",70
Sample,4200,0,"d4.ogg",70
Sample,4200,0,"bbp_060.ogg",70
Sample,4500,0,"bbp_069.ogg",70
Sample,4500,0,"d5.ogg",70
Sample,4650,0,"d6.ogg",70
Sample,4800,0,"d7.ogg",70
Sample,5100,0,"bbp_079.ogg",70
Sample,5100,0,"d8.ogg",70
Sample,5400,0,"d9.ogg",70
Sample,6000,0,"bbp_019.ogg",70
Sample,6000,0,"d1.ogg",70
Sample,6300,0,"bbp_038.ogg",70
Sample,6300,0,"d2.ogg",70
Sample,6450,0,"d3.ogg",70
Sample,6600,0,"d4.ogg",70
Sample,6600,0,"bbp_057.ogg",70
Sample,6900,0,"bbp_063.ogg",70
Sample,6900,0,"d5.ogg",70
Sample,7050,0,"d6.ogg",70
Sample,7200,0,"d7.ogg",70
Sample,7500,0,"bbp_065.ogg",70
Sample,7500,0,"d8.ogg",70
Sample,7800,0,"d9.ogg",70
Sample,8400,0,"bbp_021.ogg",70
Sample,8400,0,"d1.ogg",70
Sample,8700,0,"bbp_044.ogg",70
Sample,8700,0,"d2.ogg",70
Sample,8850,0,"d3.ogg",70
Sample,9000,0,"bbp_059.ogg",70
Sample,9000,0,"d4.ogg",70
Sample,9300,0,"bbp_072.ogg",70
Sample,9300,0,"d5.ogg",70
Sample,9450,0,"d6.ogg",70
Sample,9600,0,"d7.ogg",70
Sample,9900,0,"bbp_080.ogg",70
Sample,9900,0,"d8.ogg",70
Sample,10200,0,"d9.ogg",70
Sample,10800,0,"bbp_031.ogg",70
Sample,10800,0,"d1.ogg",70
Sample,11100,0,"d2.ogg",70
Sample,11100,0,"bbp_054.ogg",70
Sample,11250,0,"d3.ogg",70
Sample,11400,0,"d4.ogg",70
Sample,11400,0,"bbp_071.ogg",70
Sample,11700,0,"bbp_087.ogg",70
Sample,11700,0,"d5.ogg",70
Sample,11850,0,"d6.ogg",70
Sample,12000,0,"d7.ogg",70
Sample,12300,0,"bbp_099.ogg",70
Sample,12300,0,"d8.ogg",70
Sample,12600,0,"d9.ogg",70
Sample,13200,0,"bbp_022.ogg",70
Sample,13200,0,"d1.ogg",70
Sample,13500,0,"bbp_045.ogg",70
Sample,13500,0,"d2.ogg",70
Sample,13650,0,"d3.ogg",70
Sample,13800,0,"d4.ogg",70
Sample,13800,0,"bbp_060.ogg",70
Sample,14100,0,"bbp_069.ogg",70
Sample,14100,0,"d5.ogg",70
Sample,14250,0,"d6.ogg",70
Sample,14400,0,"d7.ogg",70
Sample,14700,0,"bbp_079.ogg",70
Sample,14700,0,"d8.ogg",70
Sample,15000,0,"d9.ogg",70
Sample,15600,0,"ivio-01.ogg",70
Sample,15600,0,"ivio-03.ogg",70
Sample,15600,0,"iph-13.ogg",70
Sample,15600,0,"d1.ogg",70
Sample,15600,0,"bbp_019.ogg",70
Sample,15600,0,"ivio-02.ogg",70
Sample,15900,0,"bbp_038.ogg",70
Sample,15900,0,"d2.ogg",70
Sample,16050,0,"d3.ogg",70
Sample,16200,0,"d4.ogg",70
Sample,16200,0,"bbp_057.ogg",70
Sample,16500,0,"d5.ogg",70
Sample,16500,0,"bbp_063.ogg",70
Sample,16650,0,"d6.ogg",70
Sample,16800,0,"d7.ogg",70
Sample,17100,0,"bbp_065.ogg",70
Sample,17100,0,"d8.ogg",70
Sample,17400,0,"d9.ogg",70
Sample,17700,0,"ivio-05.ogg",70
Sample,17700,0,"ivio-04.ogg",70
Sample,17700,0,"ivio-06.ogg",70
Sample,18000,0,"bbp_021.ogg",70
Sample,18000,0,"d1.ogg",70
Sample,18300,0,"bbp_044.ogg",70
Sample,18300,0,"d2.ogg",70
Sample,18450,0,"d3.ogg",70
Sample,18600,0,"d4.ogg",70
Sample,18600,0,"bbp_059.ogg",70
Sample,18900,0,"bbp_072.ogg",70
Sample,18900,0,"d5.ogg",70
Sample,19050,0,"d6.ogg",70
Sample,19200,0,"d7.ogg",70
Sample,19500,0,"bbp_080.ogg",70
Sample,19500,0,"d8.ogg",70
Sample,19800,0,"rev kick.ogg",70
Sample,19800,0,"d9.ogg",70
Sample,20100,0,"ivo-10.ogg",70
Sample,20100,0,"ivo-07.ogg",70
Sample,20100,0,"ivo-09.ogg",70
Sample,20100,0,"ivo-08.ogg",70
Sample,20400,0,"md-01.ogg",70
Sample,20400,0,"bbp_006.ogg",70
Sample,20400,0,"perc.ogg",70
Sample,20400,0,"Crash.ogg",70
Sample,20400,0,"hapsi016.ogg",70
Sample,20400,0,"iph-22.ogg",70
Sample,20400,0,"bbp_027.ogg",70
Sample,20400,0,"kick1.ogg",70
Sample,20550,0,"hapsi006.ogg",70
Sample,20550,0,"md-02.ogg",70
Sample,20700,0,"hapsi017.ogg",70
Sample,20700,0,"md-03.ogg",70
Sample,20700,0,"bbp_052.ogg",70
Sample,20850,0,"hapsi006.ogg",70
Sample,20850,0,"md-04.ogg",70
Sample,21000,0,"hapsi018.ogg",70
Sample,21000,0,"bbp_068.ogg",70
Sample,21000,0,"md-05.ogg",70
Sample,21150,0,"hapsi006.ogg",70
Sample,21300,0,"md-06.ogg",70
Sample,21300,0,"hapsi017.ogg",70
Sample,21300,0,"bbp_091.ogg",70
Sample,21300,0,"kick2.ogg",70
Sample,21450,0,"hapsi006.ogg",70
Sample,21450,0,"md-07.ogg",70
Sample,21600,0,"hapsi016.ogg",70
Sample,21600,0,"md-08.ogg",70
Sample,21750,0,"hapsi006.ogg",70
Sample,21750,0,"md-09.ogg",70
Sample,21900,0,"bbp_095.ogg",70
Sample,21900,0,"md-10.ogg",70
Sample,21900,0,"hapsi015.ogg",70
Sample,22050,0,"hapsi006.ogg",70
Sample,22200,0,"hapsi016.ogg",70
Sample,22200,0,"md-11.ogg",70
Sample,22350,0,"md-12.ogg",70
Sample,22350,0,"hapsi006.ogg",70
Sample,22500,0,"hapsi017.ogg",70
Sample,22500,0,"md-13.ogg",70
Sample,22650,0,"hapsi006.ogg",70
Sample,22650,0,"md-14.ogg",70
Sample,22800,0,"bbp_000.ogg",70
Sample,22800,0,"md-15.ogg",70
Sample,22800,0,"bbp_020.ogg",70
Sample,22800,0,"hapsi013.ogg",70
Sample,22800,0,"kick1.ogg",70
Sample,22950,0,"md-16.ogg",70
Sample,22950,0,"hapsi005.ogg",70
Sample,23100,0,"md-17.ogg",70
Sample,23100,0,"bbp_045.ogg",70
Sample,23100,0,"hapsi016.ogg",70
Sample,23250,0,"md-18.ogg",70
Sample,23250,0,"hapsi005.ogg",70
Sample,23400,0,"hapsi017.ogg",70
Sample,23400,0,"md-19.ogg",70
Sample,23400,0,"noiz-01.ogg",70
Sample,23400,0,"bbp_060.ogg",70
Sample,23437,0,"noiz-02.ogg",70
Sample,23475,0,"noiz-03.ogg",70
Sample,23512,0,"noiz-04.ogg",70
Sample,23550,0,"hapsi005.ogg",70
Sample,23550,0,"noiz-05.ogg",70
Sample,23587,0,"noiz-06.ogg",70
Sample,23625,0,"noiz-07.ogg",70
Sample,23662,0,"noiz-08.ogg",70
Sample,23700,0,"bbp_069.ogg",70
Sample,23700,0,"md-20.ogg",70
Sample,23700,0,"hapsi018.ogg",70
Sample,23700,0,"noiz-09.ogg",70
Sample,23700,0,"kick2.ogg",70
Sample,23775,0,"noiz-10.ogg",70
Sample,23850,0,"hapsi005.ogg",70
Sample,23850,0,"noiz-11.ogg",70
Sample,23850,0,"md-21.ogg",70
Sample,23925,0,"noiz-12.ogg",70
Sample,24000,0,"hapsi019.ogg",70
Sample,24000,0,"md-22.ogg",70
Sample,24000,0,"noiz-13.ogg",70
Sample,24150,0,"md-23.ogg",70
Sample,24150,0,"noiz-14.ogg",70
Sample,24150,0,"hapsi005.ogg",70
Sample,24300,0,"bbp_079.ogg",70
Sample,24300,0,"md-24.ogg",70
Sample,24300,0,"noiz-15.ogg",70
Sample,24300,0,"hapsi016.ogg",70
Sample,24300,0,"kick1.ogg",70
Sample,24450,0,"hapsi005.ogg",70
Sample,24450,0,"noiz-16.ogg",70
Sample,24600,0,"md-25.ogg",70
Sample,24600,0,"hapsi015.ogg",70
Sample,24600,0,"rev kick.ogg",70
Sample,24750,0,"hapsi005.ogg",70
Sample,24750,0,"md-26.ogg",70
Sample,24900,0,"md-27.ogg",70
Sample,24900,0,"hapsi016.ogg",70
Sample,25050,0,"hapsi005.ogg",70
Sample,25050,0,"md-28.ogg",70
Sample,25200,0,"kick1.ogg",70
Sample,25200,0,"hapsi019.ogg",70
Sample,25200,0,"md-01.ogg",70
Sample,25200,0,"bbp_019.ogg",70
Sample,25350,0,"hapsi004.ogg",70
Sample,25350,0,"md-02.ogg",70
Sample,25500,0,"bbp_039.ogg",70
Sample,25500,0,"hapsi015.ogg",70
Sample,25500,0,"md-03.ogg",70
Sample,25650,0,"md-04.ogg",70
Sample,25650,0,"hapsi004.ogg",70
Sample,25800,0,"bbp_057.ogg",70
Sample,25800,0,"md-05.ogg",70
Sample,25800,0,"hapsi013.ogg",70
Sample,25950,0,"hapsi004.ogg",70
Sample,26100,0,"hapsi015.ogg",70
Sample,26100,0,"bbp_063.ogg",70
Sample,26100,0,"kick2.ogg",70
Sample,26100,0,"md-06.ogg",70
Sample,26250,0,"hapsi004.ogg",70
Sample,26250,0,"md-07.ogg",70
Sample,26400,0,"md-08.ogg",70
Sample,26400,0,"hapsi016.ogg",70
Sample,26550,0,"hapsi004.ogg",70
Sample,26550,0,"md-09.ogg",70
Sample,26700,0,"bbp_065.ogg",70
Sample,26700,0,"hapsi015.ogg",70
Sample,26700,0,"md-10.ogg",70
Sample,26850,0,"hapsi004.ogg",70
Sample,27000,0,"rev kick.ogg",70
Sample,27000,0,"md-11.ogg",70
Sample,27000,0,"hapsi016.ogg",70
Sample,27150,0,"md-12.ogg",70
Sample,27150,0,"hapsi004.ogg",70
Sample,27300,0,"hapsi017.ogg",70
Sample,27300,0,"md-13.ogg",70
Sample,27450,0,"hapsi004.ogg",70
Sample,27450,0,"md-14.ogg",70
Sample,27600,0,"kick1.ogg",70
Sample,27600,0,"bbp_000.ogg",70
Sample,27600,0,"hapsi018.ogg",70
Sample,27600,0,"bbp_021.ogg",70
Sample,27600,0,"md-15.ogg",70
Sample,27750,0,"hapsi005.ogg",70
Sample,27750,0,"md-16.ogg",70
Sample,27900,0,"md-17.ogg",70
Sample,27900,0,"hapsi017.ogg",70
Sample,27900,0,"bbp_044.ogg",70
Sample,28050,0,"hapsi005.ogg",70
Sample,28050,0,"md-18.ogg",70
Sample,28200,0,"md-19.ogg",70
Sample,28200,0,"bbp_059.ogg",70
Sample,28200,0,"hapsi016.ogg",70
Sample,28350,0,"hapsi005.ogg",70
Sample,28500,0,"hapsi015.ogg",70
Sample,28500,0,"md-20.ogg",70
Sample,28500,0,"kick2.ogg",70
Sample,28500,0,"bbp_072.ogg",70
Sample,28650,0,"hapsi005.ogg",70
Sample,28650,0,"md-21.ogg",70
Sample,28800,0,"md-22.ogg",70
Sample,28800,0,"hapsi016.ogg",70
Sample,28950,0,"hapsi005.ogg",70
Sample,28950,0,"md-23.ogg",70
Sample,29100,0,"bbp_080.ogg",70
Sample,29100,0,"md-24.ogg",70
Sample,29100,0,"kick1.ogg",70
Sample,29100,0,"hapsi017.ogg",70
Sample,29250,0,"hapsi005.ogg",70
Sample,29400,0,"rev kick.ogg",70
Sample,29400,0,"md-25.ogg",70
Sample,29400,0,"hapsi018.ogg",70
Sample,29550,0,"hapsi005.ogg",70
Sample,29550,0,"md-26.ogg",70
Sample,29700,0,"hapsi017.ogg",70
Sample,29700,0,"md-27.ogg",70
Sample,29850,0,"hapsi005.ogg",70
Sample,29850,0,"md-28.ogg",70
Sample,30000,0,"kick1.ogg",70
Sample,30000,0,"hapsi016.ogg",70
Sample,30000,0,"fx01.ogg",70
Sample,30000,0,"md-01.ogg",70
Sample,30000,0,"perc.ogg",70
Sample,30000,0,"bbp_027.ogg",70
Sample,30000,0,"bbp_008.ogg",70
Sample,30000,0,"hapsi007.ogg",70
Sample,30150,0,"hapsi002.ogg",70
Sample,30150,0,"hapsi006.ogg",70
Sample,30150,0,"md-02.ogg",70
Sample,30300,0,"hapsi017.ogg",70
Sample,30300,0,"bbp_052.ogg",70
Sample,30300,0,"hapsi008.ogg",70
Sample,30300,0,"md-03.ogg",70
Sample,30450,0,"hapsi002.ogg",70
Sample,30450,0,"md-04.ogg",70
Sample,30450,0,"hapsi006.ogg",70
Sample,30600,0,"hapsi018.ogg",70
Sample,30600,0,"bbp_068.ogg",70
Sample,30600,0,"md-05.ogg",70
Sample,30600,0,"hapsi009.ogg",70
Sample,30750,0,"hapsi006.ogg",70
Sample,30750,0,"hapsi002.ogg",70
Sample,30900,0,"kick2.ogg",70
Sample,30900,0,"hapsi017.ogg",70
Sample,30900,0,"bbp_091.ogg",70
Sample,30900,0,"md-06.ogg",70
Sample,30900,0,"hapsi008.ogg",70
Sample,31050,0,"hapsi002.ogg",70
Sample,31050,0,"md-07.ogg",70
Sample,31050,0,"hapsi006.ogg",70
Sample,31200,0,"hapsi016.ogg",70
Sample,31200,0,"hapsi007.ogg",70
Sample,31200,0,"md-08.ogg",70
Sample,31350,0,"md-09.ogg",70
Sample,31350,0,"hapsi002.ogg",70
Sample,31350,0,"hapsi006.ogg",70
Sample,31500,0,"hapsi015.ogg",70
Sample,31500,0,"kick2.ogg",70
Sample,31500,0,"md-10.ogg",70
Sample,31500,0,"hapsi006.ogg",70
Sample,31500,0,"bbp_095.ogg",70
Sample,31650,0,"hapsi002.ogg",70
Sample,31650,0,"hapsi006.ogg",70
Sample,31800,0,"hapsi007.ogg",70
Sample,31800,0,"md-11.ogg",70
Sample,31800,0,"hapsi016.ogg",70
Sample,31950,0,"md-12.ogg",70
Sample,31950,0,"hapsi006.ogg",70
Sample,31950,0,"hapsi002.ogg",70
Sample,32100,0,"hapsi017.ogg",70
Sample,32100,0,"md-13.ogg",70
Sample,32100,0,"hapsi008.ogg",70
Sample,32250,0,"hapsi006.ogg",70
Sample,32250,0,"hapsi002.ogg",70
Sample,32250,0,"md-14.ogg",70
Sample,32400,0,"bbp_000.ogg",70
Sample,32400,0,"bbp_020.ogg",70
Sample,32400,0,"hapsi005.ogg",70
Sample,32400,0,"md-15.ogg",70
Sample,32400,0,"hapsi013.ogg",70
Sample,32400,0,"kick1.ogg",70
Sample,32550,0,"hapsi001.ogg",70
Sample,32550,0,"md-16.ogg",70
Sample,32550,0,"hapsi005.ogg",70
Sample,32700,0,"md-17.ogg",70
Sample,32700,0,"hapsi007.ogg",70
Sample,32700,0,"hapsi016.ogg",70
Sample,32700,0,"bbp_045.ogg",70
Sample,32850,0,"hapsi001.ogg",70
Sample,32850,0,"hapsi005.ogg",70
Sample,32850,0,"md-18.ogg",70
Sample,33000,0,"hapsi017.ogg",70
Sample,33000,0,"bbp_060.ogg",70
Sample,33000,0,"hapsi008.ogg",70
Sample,33000,0,"md-19.ogg",70
Sample,33150,0,"hapsi005.ogg",70
Sample,33150,0,"hapsi001.ogg",70
Sample,33300,0,"hapsi018.ogg",70
Sample,33300,0,"md-20.ogg",70
Sample,33300,0,"kick2.ogg",70
Sample,33300,0,"hapsi009.ogg",70
Sample,33300,0,"bbp_069.ogg",70
Sample,33450,0,"hapsi005.ogg",70
Sample,33450,0,"md-21.ogg",70
Sample,33450,0,"hapsi001.ogg",70
Sample,33600,0,"hapsi019.ogg",70
Sample,33600,0,"md-22.ogg",70
Sample,33600,0,"hapsi010.ogg",70
Sample,33750,0,"hapsi001.ogg",70
Sample,33750,0,"hapsi005.ogg",70
Sample,33750,0,"md-23.ogg",70
Sample,33900,0,"kick1.ogg",70
Sample,33900,0,"bbp_079.ogg",70
Sample,33900,0,"hapsi007.ogg",70
Sample,33900,0,"md-24.ogg",70
Sample,33900,0,"hapsi016.ogg",70
Sample,34050,0,"hapsi001.ogg",70
Sample,34050,0,"hapsi005.ogg",70
Sample,34200,0,"hapsi006.ogg",70
Sample,34200,0,"md-25.ogg",70
Sample,34200,0,"hapsi015.ogg",70
Sample,34200,0,"rev kick.ogg",70
Sample,34350,0,"hapsi005.ogg",70
Sample,34350,0,"hapsi001.ogg",70
Sample,34350,0,"md-26.ogg",70
Sample,34500,0,"hapsi016.ogg",70
Sample,34500,0,"hapsi007.ogg",70
Sample,34500,0,"md-27.ogg",70
Sample,34650,0,"hapsi005.ogg",70
Sample,34650,0,"md-28.ogg",70
Sample,34650,0,"hapsi001.ogg",70
Sample,34800,0,"bbp_019.ogg",70
Sample,34800,0,"md-01.ogg",70
Sample,34800,0,"hapsi019.ogg",70
Sample,34800,0,"kick1.ogg",70
Sample,34800,0,"hapsi010.ogg",70
Sample,34950,0,"hapsi000.ogg",70
Sample,34950,0,"md-02.ogg",70
Sample,34950,0,"hapsi004.ogg",70
Sample,35100,0,"hapsi006.ogg",70
Sample,35100,0,"bbp_038.ogg",70
Sample,35100,0,"md-03.ogg",70
Sample,35100,0,"hapsi015.ogg",70
Sample,35250,0,"hapsi000.ogg",70
Sample,35250,0,"hapsi004.ogg",70
Sample,35250,0,"md-04.ogg",70
Sample,35400,0,"md-05.ogg",70
Sample,35400,0,"bbp_057.ogg",70
Sample,35400,0,"hapsi013.ogg",70
Sample,35400,0,"hapsi005.ogg",70
Sample,35550,0,"hapsi004.ogg",70
Sample,35550,0,"hapsi000.ogg",70
Sample,35700,0,"md-06.ogg",70
Sample,35700,0,"hapsi015.ogg",70
Sample,35700,0,"kick2.ogg",70
Sample,35700,0,"bbp_063.ogg",70
Sample,35700,0,"hapsi006.ogg",70
Sample,35850,0,"md-07.ogg",70
Sample,35850,0,"hapsi000.ogg",70
Sample,35850,0,"hapsi004.ogg",70
Sample,36000,0,"hapsi016.ogg",70
Sample,36000,0,"hapsi007.ogg",70
Sample,36000,0,"md-08.ogg",70
Sample,36150,0,"hapsi000.ogg",70
Sample,36150,0,"md-09.ogg",70
Sample,36150,0,"hapsi004.ogg",70
Sample,36300,0,"md-10.ogg",70
Sample,36300,0,"hapsi006.ogg",70
Sample,36300,0,"bbp_065.ogg",70
Sample,36300,0,"hapsi015.ogg",70
Sample,36450,0,"hapsi004.ogg",70
Sample,36450,0,"hapsi000.ogg",70
Sample,36600,0,"hapsi007.ogg",70
Sample,36600,0,"hapsi016.ogg",70
Sample,36600,0,"md-11.ogg",70
Sample,36750,0,"hapsi000.ogg",70
Sample,36750,0,"md-12.ogg",70
Sample,36750,0,"hapsi004.ogg",70
Sample,36900,0,"md-13.ogg",70
Sample,36900,0,"hapsi017.ogg",70
Sample,36900,0,"hapsi008.ogg",70
Sample,37050,0,"hapsi000.ogg",70
Sample,37050,0,"md-14.ogg",70
Sample,37050,0,"hapsi004.ogg",70
Sample,37200,0,"hapsi009.ogg",70
Sample,37200,0,"bbp_021.ogg",70
Sample,37200,0,"hapsi018.ogg",70
Sample,37200,0,"bbp_001.ogg",70
Sample,37200,0,"md-15.ogg",70
Sample,37200,0,"kick1.ogg",70
Sample,37350,0,"md-16.ogg",70
Sample,37350,0,"hapsi001.ogg",70
Sample,37350,0,"hapsi005.ogg",70
Sample,37500,0,"md-17.ogg",70
Sample,37500,0,"bbp_044.ogg",70
Sample,37500,0,"hapsi008.ogg",70
Sample,37500,0,"hapsi017.ogg",70
Sample,37650,0,"hapsi005.ogg",70
Sample,37650,0,"md-18.ogg",70
Sample,37650,0,"hapsi001.ogg",70
Sample,37800,0,"bbp_059.ogg",70
Sample,37800,0,"hapsi016.ogg",70
Sample,37800,0,"md-19.ogg",70
Sample,37800,0,"hapsi007.ogg",70
Sample,37950,0,"hapsi005.ogg",70
Sample,37950,0,"hapsi001.ogg",70
Sample,38100,0,"hapsi006.ogg",70
Sample,38100,0,"md-20.ogg",70
Sample,38100,0,"kick2.ogg",70
Sample,38100,0,"hapsi015.ogg",70
Sample,38100,0,"bbp_072.ogg",70
Sample,38100,0,"rev kick.ogg",70
Sample,38250,0,"hapsi005.ogg",70
Sample,38250,0,"hapsi001.ogg",70
Sample,38250,0,"md-21.ogg",70
Sample,38400,0,"hapsi007.ogg",70
Sample,38400,0,"hapsi016.ogg",70
Sample,38400,0,"md-22.ogg",70
Sample,38550,0,"hapsi001.ogg",70
Sample,38550,0,"hapsi005.ogg",70
Sample,38550,0,"md-23.ogg",70
Sample,38700,0,"rev kick.ogg",70
Sample,38700,0,"bbp_080.ogg",70
Sample,38700,0,"hapsi008.ogg",70
Sample,38700,0,"md-24.ogg",70
Sample,38700,0,"hapsi017.ogg",70
Sample,38700,0,"kick1.ogg",70
Sample,38850,0,"hapsi005.ogg",70
Sample,38850,0,"hapsi001.ogg",70
Sample,39000,0,"hapsi018.ogg",70
Sample,39000,0,"hapsi009.ogg",70
Sample,39000,0,"md-25.ogg",70
Sample,39150,0,"hapsi005.ogg",70
Sample,39150,0,"md-26.ogg",70
Sample,39150,0,"hapsi001.ogg",70
Sample,39300,0,"hapsi017.ogg",70
Sample,39300,0,"hapsi008.ogg",70
Sample,39300,0,"md-27.ogg",70
Sample,39450,0,"hapsi005.ogg",70
Sample,39450,0,"hapsi001.ogg",70
Sample,39450,0,"md-28.ogg",70
Sample,39600,0,"noiz2-01.ogg",70
Sample,39600,0,"noiz-01.ogg",70
Sample,39600,0,"dbk.ogg",70
Sample,39600,0,"perc.ogg",70
Sample,39600,0,"iep-03.ogg",70
Sample,39600,0,"bbp_030.ogg",70
Sample,39600,0,"iep-02.ogg",70
Sample,39600,0,"ride1.ogg",70
Sample,39600,0,"bbp_076.ogg",70
Sample,39600,0,"iep-01.ogg",70
Sample,39600,0,"bbp_005.ogg",70
Sample,39637,0,"noiz-02.ogg",70
Sample,39675,0,"noiz-03.ogg",70
Sample,39712,0,"noiz-04.ogg",70
Sample,39750,0,"noiz-05.ogg",70
Sample,39787,0,"noiz-06.ogg",70
Sample,39825,0,"noiz-07.ogg",70
Sample,39862,0,"noiz-08.ogg",70
Sample,39900,0,"noiz-09.ogg",70
Sample,39900,0,"ride1.ogg",70
Sample,39975,0,"noiz-10.ogg",70
Sample,40050,0,"ride1.ogg",70
Sample,40050,0,"noiz-11.ogg",70
Sample,40125,0,"noiz-12.ogg",70
Sample,40200,0,"noiz2-02.ogg",70
Sample,40350,0,"ride1.ogg",70
Sample,40650,0,"ride1.ogg",70
Sample,40950,0,"ride1.ogg",70
Sample,41400,0,"ride1.ogg",70
Sample,41700,0,"ride1.ogg",70
Sample,42000,0,"ride1.ogg",70
Sample,42000,0,"noiz-19.ogg",70
Sample,42037,0,"noiz-20.ogg",70
Sample,42075,0,"noiz-21.ogg",70
Sample,42112,0,"noiz-22.ogg",70
Sample,42150,0,"noiz-23.ogg",70
Sample,42187,0,"noiz-24.ogg",70
Sample,42225,0,"noiz-25.ogg",70
Sample,42262,0,"noiz-26.ogg",70
Sample,42300,0,"ride1.ogg",70
Sample,42300,0,"noiz-27.ogg",70
Sample,42375,0,"noiz-28.ogg",70
Sample,42450,0,"ride1.ogg",70
Sample,42450,0,"noiz-29.ogg",70
Sample,42525,0,"noiz-30.ogg",70
Sample,42750,0,"ride1.ogg",70
Sample,43050,0,"ride1.ogg",70
Sample,43200,0,"noiz2-03.ogg",70
Sample,43200,0,"bp_018.ogg",70
Sample,43350,0,"ride1.ogg",70
Sample,43650,0,"bp_030.ogg",70
Sample,43800,0,"ride1.ogg",70
Sample,43800,0,"noiz2-04.ogg",70
Sample,43800,0,"noiz-35.ogg",70
Sample,44100,0,"noiz-36.ogg",70
Sample,44100,0,"bp_047.ogg",70
Sample,44100,0,"ride1.ogg",70
Sample,44250,0,"02.ogg",70
Sample,44400,0,"ride2-01.ogg",70
Sample,44400,0,"perc.ogg",70
Sample,44400,0,"bp_056.ogg",70
Sample,44400,0,"bbp_042.ogg",70
Sample,44550,0,"bbp_078.ogg",70
Sample,44700,0,"ride2-02.ogg",70
Sample,44700,0,"bbp_112.ogg",70
Sample,44850,0,"ride2-03.ogg",70
Sample,44850,0,"bbp_123.ogg",70
Sample,45150,0,"ride2-04.ogg",70
Sample,45150,0,"bbp_131.ogg",70
Sample,45450,0,"ride2-05.ogg",70
Sample,45600,0,"bbp_050.ogg",70
Sample,45750,0,"ride2-06.ogg",70
Sample,45750,0,"bbp_093.ogg",70
Sample,45900,0,"bbp_124.ogg",70
Sample,46050,0,"ride2-07.ogg",70
Sample,46050,0,"bbp_138.ogg",70
Sample,46200,0,"ride2-08.ogg",70
Sample,46350,0,"bbp_145.ogg",70
Sample,46500,0,"ride2-09.ogg",70
Sample,46800,0,"ride2-01.ogg",70
Sample,46800,0,"bbp_023.ogg",70
Sample,46950,0,"bbp_051.ogg",70
Sample,47100,0,"ride2-02.ogg",70
Sample,47100,0,"bbp_066.ogg",70
Sample,47250,0,"bbp_085.ogg",70
Sample,47250,0,"ride2-03.ogg",70
Sample,47400,0,"bp_140.ogg",70
Sample,47550,0,"ride2-04.ogg",70
Sample,47550,0,"bbp_096.ogg",70
Sample,47850,0,"ride2-05.ogg",70
Sample,48000,0,"bp_090.ogg",70
Sample,48000,0,"bbp_037.ogg",70
Sample,48150,0,"ride2-06.ogg",70
Sample,48150,0,"bbp_061.ogg",70
Sample,48225,0,"bp_081.ogg",70
Sample,48300,0,"bbp_098.ogg",70
Sample,48450,0,"bbp_104.ogg",70
Sample,48450,0,"bp_076.ogg",70
Sample,48450,0,"ride2-07.ogg",70
Sample,48600,0,"ride2-08.ogg",70
Sample,48600,0,"bp_070.ogg",70
Sample,48750,0,"bbp_113.ogg",70
Sample,48825,0,"bp_065.ogg",70
Sample,48900,0,"ride2-09.ogg",70
Sample,49050,0,"bp_060.ogg",70
Sample,49200,0,"ride2-01.ogg",70
Sample,49200,0,"bp_039.ogg",70
Sample,49200,0,"bbp_041.ogg",70
Sample,49350,0,"bbp_074.ogg",70
Sample,49500,0,"ride2-02.ogg",70
Sample,49500,0,"bbp_110.ogg",70
Sample,49650,0,"ride2-03.ogg",70
Sample,49650,0,"bp_061.ogg",70
Sample,49650,0,"bbp_115.ogg",70
Sample,49800,0,"pp01.ogg",70
Sample,49950,0,"bbp_126.ogg",70
Sample,49950,0,"bp_010.ogg",70
Sample,49950,0,"ride2-04.ogg",70
Sample,50100,0,"bp_003.ogg",70
Sample,50250,0,"ride2-05.ogg",70
Sample,50250,0,"bp_011.ogg",70
Sample,50400,0,"pp02.ogg",70
Sample,50400,0,"bbp_046.ogg",70
Sample,50550,0,"ride2-06.ogg",70
Sample,50550,0,"bbp_090.ogg",70
Sample,50700,0,"bbp_120.ogg",70
Sample,50850,0,"ride2-07.ogg",70
Sample,50850,0,"bbp_132.ogg",70
Sample,51000,0,"ride2-08.ogg",70
Sample,51000,0,"pp03.ogg",70
Sample,51150,0,"bbp_146.ogg",70
Sample,51300,0,"ride2-09.ogg",70
Sample,51300,0,"bp_059.ogg",70
Sample,51600,0,"bbp_028.ogg",70
Sample,51600,0,"ride2-01.ogg",70
Sample,51600,0,"pp04.ogg",70
Sample,51600,0,"bp_048.ogg",70
Sample,51750,0,"bbp_055.ogg",70
Sample,51900,0,"ride2-02.ogg",70
Sample,51900,0,"bbp_067.ogg",70
Sample,52050,0,"ride2-03.ogg",70
Sample,52050,0,"bbp_084.ogg",70
Sample,52200,0,"bp_063.ogg",70
Sample,52350,0,"ride2-04.ogg",70
Sample,52350,0,"bbp_094.ogg",70
Sample,52650,0,"ride2-05.ogg",70
Sample,52800,0,"bbp_034.ogg",70
Sample,52800,0,"pp05.ogg",70
Sample,52950,0,"bbp_062.ogg",70
Sample,52950,0,"ride2-06.ogg",70
Sample,53100,0,"bbp_101.ogg",70
Sample,53100,0,"bp_027.ogg",70
Sample,53250,0,"ride2-07.ogg",70
Sample,53250,0,"bbp_107.ogg",70
Sample,53400,0,"ride2-08.ogg",70
Sample,53400,0,"bbp_035.ogg",70
Sample,53400,0,"bp_017.ogg",70
Sample,53400,0,"noiz3-01.ogg",70
Sample,53400,0,"pp06.ogg",70
Sample,53550,0,"bbp_103.ogg",70
Sample,53700,0,"ride2-09.ogg",70
Sample,53700,0,"bbp_033.ogg",70
Sample,53700,0,"noiz3-02.ogg",70
Sample,53850,0,"bbp_083.ogg",70
Sample,54000,0,"bbp_056.ogg",70
Sample,54000,0,"perc.ogg",70
Sample,54000,0,"ride2-01.ogg",70
Sample,54000,0,"noiz3-03.ogg",70
Sample,54000,0,"pp07.ogg",70
Sample,54150,0,"bbp_102.ogg",70
Sample,54300,0,"ride2-02.ogg",70
Sample,54300,0,"bbp_130.ogg",70
Sample,54450,0,"bbp_139.ogg",70
Sample,54450,0,"ride2-03.ogg",70
Sample,54600,0,"noiz3-05.ogg",70
Sample,54750,0,"ride2-04.ogg",70
Sample,54750,0,"bbp_148.ogg",70
Sample,55050,0,"ride2-05.ogg",70
Sample,55200,0,"bbp_047.ogg",70
Sample,55200,0,"noiz3-05.ogg",70
Sample,55350,0,"ride2-06.ogg",70
Sample,55350,0,"bbp_089.ogg",70
Sample,55500,0,"bbp_119.ogg",70
Sample,55650,0,"bbp_058.ogg",70
Sample,55650,0,"ride2-07.ogg",70
Sample,55650,0,"bbp_137.ogg",70
Sample,55800,0,"bp_000.ogg",70
Sample,56025,0,"bp_005.ogg",70
Sample,56250,0,"bp_012.ogg",70
Sample,56400,0,"bbp_026.ogg",70
Sample,56400,0,"ride2-01.ogg",70
Sample,56400,0,"noiz3-06.ogg",70
Sample,56550,0,"bbp_051.ogg",70
Sample,56700,0,"bbp_067.ogg",70
Sample,56700,0,"ride2-02.ogg",70
Sample,56850,0,"ride2-03.ogg",70
Sample,56850,0,"bbp_082.ogg",70
Sample,57000,0,"noiz3-07.ogg",70
Sample,57000,0,"bp_020.ogg",70
Sample,57075,0,"noiz3-08.ogg",70
Sample,57150,0,"noiz3-09.ogg",70
Sample,57150,0,"bbp_100.ogg",70
Sample,57150,0,"ride2-04.ogg",70
Sample,57225,0,"noiz3-10.ogg",70
Sample,57300,0,"noiz3-11.ogg",70
Sample,57450,0,"ride2-05.ogg",70
Sample,57600,0,"bp_035.ogg",70
Sample,57600,0,"noiz3-12.ogg",70
Sample,57600,0,"bbp_036.ogg",70
Sample,57750,0,"ride2-06.ogg",70
Sample,57750,0,"bbp_064.ogg",70
Sample,57825,0,"bp_026.ogg",70
Sample,57900,0,"bbp_099.ogg",70
Sample,57900,0,"noiz3-13.ogg",70
Sample,58050,0,"bp_046.ogg",70
Sample,58050,0,"ride2-07.ogg",70
Sample,58050,0,"bbp_111.ogg",70
Sample,58200,0,"ride2-08.ogg",70
Sample,58200,0,"noiz3-14.ogg",70
Sample,58200,0,"bp_055.ogg",70
Sample,58350,0,"bbp_113.ogg",70
Sample,58500,0,"ride2-09.ogg",70
Sample,58500,0,"bp_050.ogg",70
Sample,58800,0,"bbp_040.ogg",70
Sample,58800,0,"ride2-01.ogg",70
Sample,58800,0,"noiz3-15.ogg",70
Sample,58950,0,"bbp_075.ogg",70
Sample,59100,0,"ride2-02.ogg",70
Sample,59100,0,"bbp_108.ogg",70
Sample,59250,0,"bbp_116.ogg",70
Sample,59250,0,"ride2-03.ogg",70
Sample,59400,0,"noiz3-16.ogg",70
Sample,59550,0,"bp_007.ogg",70
Sample,59550,0,"bbp_128.ogg",70
Sample,59550,0,"ride2-04.ogg",70
Sample,59700,0,"bp_001.ogg",70
Sample,59850,0,"ride2-05.ogg",70
Sample,59850,0,"bp_008.ogg",70
Sample,60000,0,"bbp_048.ogg",70
Sample,60000,0,"noiz3-17.ogg",70
Sample,60150,0,"ride2-06.ogg",70
Sample,60150,0,"bbp_092.ogg",70
Sample,60300,0,"bbp_122.ogg",70
Sample,60450,0,"ride2-07.ogg",70
Sample,60450,0,"bbp_136.ogg",70
Sample,60600,0,"ride2-08.ogg",70
Sample,60600,0,"noiz3-18.ogg",70
Sample,60750,0,"bbp_142.ogg",70
Sample,60900,0,"ride2-09.ogg",70
Sample,61200,0,"noiz3-19.ogg",70
Sample,61200,0,"03.ogg",70
Sample,61200,0,"ride2-01.ogg",70
Sample,61200,0,"bp_036.ogg",70
Sample,61200,0,"bbp_029.ogg",70
Sample,61350,0,"bbp_053.ogg",70
Sample,61500,0,"ride2-02.ogg",70
Sample,61500,0,"bbp_073.ogg",70
Sample,61650,0,"ride2-03.ogg",70
Sample,61650,0,"bbp_081.ogg",70
Sample,61800,0,"noiz3-20.ogg",70
Sample,61950,0,"ride2-04.ogg",70
Sample,61950,0,"bbp_097.ogg",70
Sample,62250,0,"ride2-05.ogg",70
Sample,62250,0,"bbp_106.ogg",70
Sample,62400,0,"bbp_025.ogg",70
Sample,62400,0,"noiz3-21.ogg",70
Sample,62400,0,"noiz-01.ogg",70
Sample,62437,0,"noiz-02.ogg",70
Sample,62475,0,"noiz-03.ogg",70
Sample,62512,0,"noiz-04.ogg",70
Sample,62550,0,"ride2-06.ogg",70
Sample,62550,0,"noiz-05.ogg",70
Sample,62587,0,"noiz-06.ogg",70
Sample,62625,0,"noiz-07.ogg",70
Sample,62662,0,"noiz-08.ogg",70
Sample,62700,0,"noiz-09.ogg",70
Sample,62775,0,"noiz-10.ogg",70
Sample,62850,0,"ride2-07.ogg",70
Sample,62850,0,"noiz-11.ogg",70
Sample,62925,0,"noiz-12.ogg",70
Sample,63000,0,"noiz3-22.ogg",70
Sample,63000,0,"noiz-13.ogg",70
Sample,63000,0,"ride2-08.ogg",70
Sample,63150,0,"noiz-14.ogg",70
Sample,63300,0,"ride2-09.ogg",70
Sample,63300,0,"noiz-15.ogg",70
Sample,63450,0,"noiz-16.ogg",70
Sample,63600,0,"hapsi013.ogg",70
Sample,63600,0,"bp_052.ogg",70
Sample,63600,0,"hapsi016.ogg",70
Sample,63600,0,"bbp_043.ogg",70
Sample,63600,0,"md2-01.ogg",70
Sample,63600,0,"Crash.ogg",70
Sample,63600,0,"dbk.ogg",70
Sample,63750,0,"bbp_070.ogg",70
Sample,63750,0,"md2-02.ogg",70
Sample,63750,0,"hapsi009.ogg",70
Sample,63900,0,"hapsi015.ogg",70
Sample,63900,0,"bbp_109.ogg",70
Sample,63900,0,"FX02.ogg",70
Sample,63900,0,"md2-03.ogg",70
Sample,63900,0,"hapsi017.ogg",70
Sample,64050,0,"bbp_121.ogg",70
Sample,64050,0,"hapsi009.ogg",70
Sample,64050,0,"md2-04.ogg",70
Sample,64200,0,"hapsi016.ogg",70
Sample,64200,0,"hapsi018.ogg",70
Sample,64200,0,"md2-05.ogg",70
Sample,64350,0,"bbp_127.ogg",70
Sample,64350,0,"hapsi009.ogg",70
Sample,64500,0,"md2-06.ogg",70
Sample,64500,0,"hapsi017.ogg",70
Sample,64500,0,"hapsi019.ogg",70
Sample,64650,0,"hapsi009.ogg",70
Sample,64650,0,"md2-07.ogg",70
Sample,64800,0,"md2-08.ogg",70
Sample,64800,0,"bbp_049.ogg",70
Sample,64800,0,"hapsi018.ogg",70
Sample,64800,0,"hapsi016.ogg",70
Sample,64950,0,"md2-09.ogg",70
Sample,64950,0,"bbp_088.ogg",70
Sample,64950,0,"hapsi010.ogg",70
Sample,65100,0,"bbp_118.ogg",70
Sample,65100,0,"hapsi017.ogg",70
Sample,65100,0,"hapsi015.ogg",70
Sample,65100,0,"md2-10.ogg",70
Sample,65250,0,"bbp_134.ogg",70
Sample,65250,0,"hapsi010.ogg",70
Sample,65400,0,"hapsi016.ogg",70
Sample,65400,0,"md2-11.ogg",70
Sample,65400,0,"hapsi013.ogg",70
Sample,65475,0,"md2-12.ogg",70
Sample,65550,0,"hapsi010.ogg",70
Sample,65550,0,"md2-13.ogg",70
Sample,65550,0,"bbp_143.ogg",70
Sample,65625,0,"md2-14.ogg",70
Sample,65700,0,"md2-15.ogg",70
Sample,65700,0,"hapsi017.ogg",70
Sample,65700,0,"hapsi015.ogg",70
Sample,65775,0,"md2-16.ogg",70
Sample,65850,0,"bbp_152.ogg",70
Sample,65850,0,"hapsi010.ogg",70
Sample,65850,0,"md2-17.ogg",70
Sample,65925,0,"md2-18.ogg",70
Sample,66000,0,"hapsi010.ogg",70
Sample,66000,0,"md2-19.ogg",70
Sample,66000,0,"hapsi014.ogg",70
Sample,66000,0,"bbp_023.ogg",70
Sample,66150,0,"md2-20.ogg",70
Sample,66150,0,"hapsi006.ogg",70
Sample,66150,0,"bbp_051.ogg",70
Sample,66300,0,"hapsi015.ogg",70
Sample,66300,0,"hapsi012.ogg",70
Sample,66300,0,"md2-21.ogg",70
Sample,66300,0,"bbp_066.ogg",70
Sample,66450,0,"md2-22.ogg",70
Sample,66450,0,"hapsi006.ogg",70
Sample,66450,0,"bbp_085.ogg",70
Sample,66600,0,"hapsi016.ogg",70
Sample,66600,0,"md2-23.ogg",70
Sample,66600,0,"hapsi014.ogg",70
Sample,66600,0,"bp_129.ogg",70
Sample,66750,0,"hapsi006.ogg",70
Sample,66750,0,"bbp_096.ogg",70
Sample,66900,0,"hapsi012.ogg",70
Sample,66900,0,"hapsi015.ogg",70
Sample,66900,0,"md2-19.ogg",70
Sample,67050,0,"hapsi006.ogg",70
Sample,67050,0,"md2-20.ogg",70
Sample,67200,0,"hapsi014.ogg",70
Sample,67200,0,"bp_087.ogg",70
Sample,67200,0,"hapsi016.ogg",70
Sample,67200,0,"bbp_037.ogg",70
Sample,67200,0,"md2-21.ogg",70
Sample,67350,0,"hapsi003.ogg",70
Sample,67350,0,"md2-22.ogg",70
Sample,67350,0,"bbp_061.ogg",70
Sample,67425,0,"bp_080.ogg",70
Sample,67500,0,"md2-23.ogg",70
Sample,67500,0,"hapsi015.ogg",70
Sample,67500,0,"hapsi012.ogg",70
Sample,67500,0,"bbp_098.ogg",70
Sample,67650,0,"bp_074.ogg",70
Sample,67650,0,"bbp_104.ogg",70
Sample,67650,0,"hapsi003.ogg",70
Sample,67800,0,"md2-19.ogg",70
Sample,67800,0,"hapsi014.ogg",70
Sample,67800,0,"bp_069.ogg",70
Sample,67800,0,"hapsi016.ogg",70
Sample,67950,0,"hapsi003.ogg",70
Sample,67950,0,"md2-20.ogg",70
Sample,67950,0,"bbp_113.ogg",70
Sample,68025,0,"bp_067.ogg",70
Sample,68100,0,"md2-24.ogg",70
Sample,68100,0,"hapsi015.ogg",70
Sample,68100,0,"hapsi017.ogg",70
Sample,68175,0,"md2-25.ogg",70
Sample,68250,0,"bp_060.ogg",70
Sample,68250,0,"md2-21.ogg",70
Sample,68250,0,"hapsi003.ogg",70
Sample,68400,0,"hapsi013.ogg",70
Sample,68400,0,"hapsi016.ogg",70
Sample,68400,0,"bp_044.ogg",70
Sample,68400,0,"md2-19.ogg",70
Sample,68400,0,"bbp_041.ogg",70
Sample,68550,0,"md2-20.ogg",70
Sample,68550,0,"bbp_074.ogg",70
Sample,68550,0,"hapsi009.ogg",70
Sample,68700,0,"hapsi017.ogg",70
Sample,68700,0,"bbp_110.ogg",70
Sample,68700,0,"hapsi015.ogg",70
Sample,68700,0,"md2-21.ogg",70
Sample,68850,0,"md2-22.ogg",70
Sample,68850,0,"bbp_115.ogg",70
Sample,68850,0,"hapsi009.ogg",70
Sample,68850,0,"bp_053.ogg",70
Sample,69000,0,"hapsi016.ogg",70
Sample,69000,0,"md2-23.ogg",70
Sample,69000,0,"hapsi018.ogg",70
Sample,69150,0,"bp_006.ogg",70
Sample,69150,0,"hapsi009.ogg",70
Sample,69150,0,"bbp_126.ogg",70
Sample,69300,0,"hapsi017.ogg",70
Sample,69300,0,"md2-19.ogg",70
Sample,69300,0,"bp_002.ogg",70
Sample,69300,0,"hapsi019.ogg",70
Sample,69450,0,"bp_009.ogg",70
Sample,69450,0,"hapsi009.ogg",70
Sample,69450,0,"md2-20.ogg",70
Sample,69600,0,"hapsi016.ogg",70
Sample,69600,0,"hapsi018.ogg",70
Sample,69600,0,"bp_013.ogg",70
Sample,69600,0,"bbp_046.ogg",70
Sample,69600,0,"md2-21.ogg",70
Sample,69750,0,"bbp_090.ogg",70
Sample,69750,0,"hapsi010.ogg",70
Sample,69750,0,"md2-22.ogg",70
Sample,69900,0,"md2-23.ogg",70
Sample,69900,0,"bp_028.ogg",70
Sample,69900,0,"hapsi017.ogg",70
Sample,69900,0,"hapsi015.ogg",70
Sample,69900,0,"bbp_120.ogg",70
Sample,70050,0,"bbp_132.ogg",70
Sample,70050,0,"hapsi010.ogg",70
Sample,70200,0,"hapsi013.ogg",70
Sample,70200,0,"bp_042.ogg",70
Sample,70200,0,"hapsi016.ogg",70
Sample,70200,0,"md2-19.ogg",70
Sample,70350,0,"md2-20.ogg",70
Sample,70350,0,"bbp_146.ogg",70
Sample,70350,0,"hapsi010.ogg",70
Sample,70500,0,"bp_062.ogg",70
Sample,70500,0,"hapsi017.ogg",70
Sample,70500,0,"hapsi015.ogg",70
Sample,70500,0,"bp_157.ogg",70
Sample,70500,0,"md2-22.ogg",70
Sample,70650,0,"hapsi010.ogg",70
Sample,70650,0,"md2-21.ogg",70
Sample,70800,0,"hapsi014.ogg",70
Sample,70800,0,"md2-19.ogg",70
Sample,70800,0,"bbp_028.ogg",70
Sample,70800,0,"bp_064.ogg",70
Sample,70800,0,"hapsi010.ogg",70
Sample,70950,0,"bbp_055.ogg",70
Sample,70950,0,"md2-20.ogg",70
Sample,70950,0,"hapsi006.ogg",70
Sample,71100,0,"hapsi012.ogg",70
Sample,71100,0,"bbp_067.ogg",70
Sample,71100,0,"hapsi015.ogg",70
Sample,71100,0,"md2-21.ogg",70
Sample,71250,0,"hapsi006.ogg",70
Sample,71250,0,"bbp_084.ogg",70
Sample,71250,0,"md2-22.ogg",70
Sample,71400,0,"bp_056.ogg",70
Sample,71400,0,"hapsi014.ogg",70
Sample,71400,0,"md2-23.ogg",70
Sample,71400,0,"hapsi016.ogg",70
Sample,71550,0,"hapsi006.ogg",70
Sample,71550,0,"bbp_094.ogg",70
Sample,71700,0,"hapsi015.ogg",70
Sample,71700,0,"md2-19.ogg",70
Sample,71700,0,"hapsi012.ogg",70
Sample,71850,0,"md2-20.ogg",70
Sample,71850,0,"hapsi006.ogg",70
Sample,72000,0,"bbp_034.ogg",70
Sample,72000,0,"noiz-01.ogg",70
Sample,72000,0,"bp_151.ogg",70
Sample,72000,0,"hapsi014.ogg",70
Sample,72000,0,"md2-21.ogg",70
Sample,72000,0,"bp_061.ogg",70
Sample,72000,0,"hapsi016.ogg",70
Sample,72037,0,"noiz-02.ogg",70
Sample,72075,0,"noiz-03.ogg",70
Sample,72112,0,"noiz-04.ogg",70
Sample,72150,0,"noiz-05.ogg",70
Sample,72150,0,"bbp_062.ogg",70
Sample,72150,0,"md2-22.ogg",70
Sample,72150,0,"hapsi003.ogg",70
Sample,72187,0,"noiz-06.ogg",70
Sample,72225,0,"noiz-07.ogg",70
Sample,72262,0,"noiz-08.ogg",70
Sample,72300,0,"bp_120.ogg",70
Sample,72300,0,"hapsi015.ogg",70
Sample,72300,0,"bbp_101.ogg",70
Sample,72300,0,"md2-23.ogg",70
Sample,72300,0,"bp_043.ogg",70
Sample,72300,0,"noiz-09.ogg",70
Sample,72300,0,"hapsi012.ogg",70
Sample,72375,0,"noiz-10.ogg",70
Sample,72450,0,"bbp_107.ogg",70
Sample,72450,0,"hapsi003.ogg",70
Sample,72450,0,"noiz-11.ogg",70
Sample,72525,0,"noiz-12.ogg",70
Sample,72600,0,"md2-19.ogg",70
Sample,72600,0,"bp_027.ogg",70
Sample,72600,0,"hapsi016.ogg",70
Sample,72600,0,"hapsi014.ogg",70
Sample,72600,0,"bbp_035.ogg",70
Sample,72600,0,"noiz-13.ogg",70
Sample,72750,0,"hapsi003.ogg",70
Sample,72750,0,"bbp_103.ogg",70
Sample,72750,0,"md2-20.ogg",70
Sample,72750,0,"noiz-14.ogg",70
Sample,72900,0,"bp_016.ogg",70
Sample,72900,0,"md2-24.ogg",70
Sample,72900,0,"hapsi017.ogg",70
Sample,72900,0,"noiz-15.ogg",70
Sample,72900,0,"bbp_033.ogg",70
Sample,72900,0,"bp_072.ogg",70
Sample,72900,0,"hapsi015.ogg",70
Sample,72975,0,"md2-25.ogg",70
Sample,73050,0,"md2-21.ogg",70
Sample,73050,0,"hapsi003.ogg",70
Sample,73050,0,"bbp_083.ogg",70
Sample,73050,0,"noiz-16.ogg",70
Sample,73050,0,"vio_001.ogg",70
Sample,73050,0,"vio_026.ogg",70
Sample,73050,0,"vio_016.ogg",70
Sample,73200,0,"bp_066.ogg",70
Sample,73200,0,"hapsi016.ogg",70
Sample,73200,0,"bbp_056.ogg",70
Sample,73200,0,"md2-01.ogg",70
Sample,73200,0,"hapsi013.ogg",70
Sample,73350,0,"bbp_102.ogg",70
Sample,73350,0,"md2-02.ogg",70
Sample,73350,0,"hapsi009.ogg",70
Sample,73500,0,"hapsi017.ogg",70
Sample,73500,0,"bbp_130.ogg",70
Sample,73500,0,"hapsi015.ogg",70
Sample,73500,0,"md2-03.ogg",70
Sample,73650,0,"md2-04.ogg",70
Sample,73650,0,"bp_071.ogg",70
Sample,73650,0,"hapsi009.ogg",70
Sample,73650,0,"bbp_139.ogg",70
Sample,73800,0,"hapsi016.ogg",70
Sample,73800,0,"hapsi018.ogg",70
Sample,73800,0,"Sn.ogg",70
Sample,73800,0,"md2-05.ogg",70
Sample,73950,0,"hapsi009.ogg",70
Sample,73950,0,"bp_023.ogg",70
Sample,73950,0,"bbp_148.ogg",70
Sample,74100,0,"hapsi017.ogg",70
Sample,74100,0,"hapsi019.ogg",70
Sample,74100,0,"md2-06.ogg",70
Sample,74250,0,"hapsi009.ogg",70
Sample,74250,0,"vio_003.ogg",70
Sample,74250,0,"md2-07.ogg",70
Sample,74250,0,"vio_033.ogg",70
Sample,74250,0,"bp_041.ogg",70
Sample,74250,0,"vio_019.ogg",70
Sample,74400,0,"bbp_047.ogg",70
Sample,74400,0,"bp_055.ogg",70
Sample,74400,0,"hapsi016.ogg",70
Sample,74400,0,"md2-08.ogg",70
Sample,74400,0,"hapsi018.ogg",70
Sample,74550,0,"md2-09.ogg",70
Sample,74550,0,"bbp_089.ogg",70
Sample,74550,0,"hapsi010.ogg",70
Sample,74700,0,"bp_004.ogg",70
Sample,74700,0,"hapsi017.ogg",70
Sample,74700,0,"Sn.ogg",70
Sample,74700,0,"hapsi019.ogg",70
Sample,74700,0,"bbp_119.ogg",70
Sample,74700,0,"md2-10.ogg",70
Sample,74850,0,"vio_027.ogg",70
Sample,74850,0,"bbp_137.ogg",70
Sample,74850,0,"vio_005.ogg",70
Sample,74850,0,"hapsi010.ogg",70
Sample,74850,0,"vio_035.ogg",70
Sample,75000,0,"hapsi019.ogg",70
Sample,75000,0,"hapsi021.ogg",70
Sample,75000,0,"bp_000.ogg",70
Sample,75000,0,"md2-11.ogg",70
Sample,75075,0,"md2-12.ogg",70
Sample,75150,0,"md2-13.ogg",70
Sample,75150,0,"hapsi010.ogg",70
Sample,75225,0,"md2-14.ogg",70
Sample,75225,0,"bp_005.ogg",70
Sample,75300,0,"hapsi020.ogg",70
Sample,75300,0,"md2-15.ogg",70
Sample,75300,0,"hapsi018.ogg",70
Sample,75375,0,"md2-16.ogg",70
Sample,75450,0,"hapsi010.ogg",70
Sample,75450,0,"vio_028.ogg",70
Sample,75450,0,"vio_007.ogg",70
Sample,75450,0,"vio_036.ogg",70
Sample,75450,0,"md2-17.ogg",70
Sample,75450,0,"bp_012.ogg",70
Sample,75525,0,"md2-18.ogg",70
Sample,75600,0,"bbp_026.ogg",70
Sample,75600,0,"hapsi020.ogg",70
Sample,75600,0,"bp_034.ogg",70
Sample,75600,0,"hapsi018.ogg",70
Sample,75600,0,"md2-19.ogg",70
Sample,75750,0,"bbp_051.ogg",70
Sample,75750,0,"md2-20.ogg",70
Sample,75750,0,"hapsi006.ogg",70
Sample,75900,0,"md2-21.ogg",70
Sample,75900,0,"hapsi019.ogg",70
Sample,75900,0,"bbp_067.ogg",70
Sample,75900,0,"hapsi017.ogg",70
Sample,76050,0,"md2-22.ogg",70
Sample,76050,0,"bbp_082.ogg",70
Sample,76050,0,"hapsi006.ogg",70
Sample,76200,0,"hapsi017.ogg",70
Sample,76200,0,"Sn.ogg",70
Sample,76200,0,"hapsi019.ogg",70
Sample,76200,0,"bp_020.ogg",70
Sample,76200,0,"md2-23.ogg",70
Sample,76350,0,"hapsi006.ogg",70
Sample,76350,0,"bbp_100.ogg",70
Sample,76500,0,"hapsi016.ogg",70
Sample,76500,0,"hapsi018.ogg",70
Sample,76500,0,"md2-19.ogg",70
Sample,76650,0,"hapsi006.ogg",70
Sample,76650,0,"md2-20.ogg",70
Sample,76800,0,"bbp_036.ogg",70
Sample,76800,0,"bp_035.ogg",70
Sample,76800,0,"hapsi018.ogg",70
Sample,76800,0,"md2-21.ogg",70
Sample,76800,0,"hapsi016.ogg",70
Sample,76950,0,"bbp_064.ogg",70
Sample,76950,0,"md2-22.ogg",70
Sample,76950,0,"hapsi003.ogg",70
Sample,77025,0,"bp_026.ogg",70
Sample,77100,0,"md2-23.ogg",70
Sample,77100,0,"hapsi015.ogg",70
Sample,77100,0,"Sn.ogg",70
Sample,77100,0,"bbp_099.ogg",70
Sample,77100,0,"hapsi017.ogg",70
Sample,77250,0,"hapsi003.ogg",70
Sample,77250,0,"bbp_111.ogg",70
Sample,77250,0,"bp_046.ogg",70
Sample,77400,0,"md2-19.ogg",70
Sample,77400,0,"hapsi018.ogg",70
Sample,77400,0,"hapsi016.ogg",70
Sample,77400,0,"bp_131.ogg",70
Sample,77400,0,"bp_055.ogg",70
Sample,77550,0,"hapsi003.ogg",70
Sample,77550,0,"bbp_113.ogg",70
Sample,77550,0,"md2-20.ogg",70
Sample,77700,0,"bp_050.ogg",70
Sample,77700,0,"hapsi017.ogg",70
Sample,77700,0,"md2-24.ogg",70
Sample,77700,0,"hapsi019.ogg",70
Sample,77700,0,"bp_118.ogg",70
Sample,77775,0,"md2-25.ogg",70
Sample,77850,0,"vio_014.ogg",70
Sample,77850,0,"hapsi003.ogg",70
Sample,77850,0,"md2-21.ogg",70
Sample,77850,0,"vio_036.ogg",70
Sample,77850,0,"vio_041.ogg",70
Sample,77850,0,"vio_025.ogg",70
Sample,78000,0,"hapsi015.ogg",70
Sample,78000,0,"hapsi017.ogg",70
Sample,78000,0,"bbp_040.ogg",70
Sample,78000,0,"bp_033.ogg",70
Sample,78000,0,"md2-19.ogg",70
Sample,78150,0,"md2-20.ogg",70
Sample,78150,0,"hapsi009.ogg",70
Sample,78150,0,"bbp_075.ogg",70
Sample,78300,0,"md2-21.ogg",70
Sample,78300,0,"hapsi016.ogg",70
Sample,78300,0,"bbp_108.ogg",70
Sample,78300,0,"hapsi014.ogg",70
Sample,78450,0,"bbp_116.ogg",70
Sample,78450,0,"md2-22.ogg",70
Sample,78450,0,"bp_054.ogg",70
Sample,78450,0,"hapsi009.ogg",70
Sample,78600,0,"md2-23.ogg",70
Sample,78600,0,"Sn.ogg",70
Sample,78600,0,"hapsi015.ogg",70
Sample,78600,0,"hapsi017.ogg",70
Sample,78750,0,"hapsi009.ogg",70
Sample,78750,0,"bbp_128.ogg",70
Sample,78750,0,"bp_007.ogg",70
Sample,78900,0,"hapsi018.ogg",70
Sample,78900,0,"bp_001.ogg",70
Sample,78900,0,"md2-19.ogg",70
Sample,78900,0,"hapsi016.ogg",70
Sample,79050,0,"bp_008.ogg",70
Sample,79050,0,"hapsi009.ogg",70
Sample,79050,0,"md2-20.ogg",70
Sample,79200,0,"bp_015.ogg",70
Sample,79200,0,"bbp_048.ogg",70
Sample,79200,0,"hapsi016.ogg",70
Sample,79200,0,"hapsi018.ogg",70
Sample,79200,0,"md2-21.ogg",70
Sample,79350,0,"bbp_092.ogg",70
Sample,79350,0,"hapsi010.ogg",70
Sample,79350,0,"md2-22.ogg",70
Sample,79500,0,"hapsi015.ogg",70
Sample,79500,0,"bp_037.ogg",70
Sample,79500,0,"hapsi017.ogg",70
Sample,79500,0,"bp_110.ogg",70
Sample,79500,0,"Sn.ogg",70
Sample,79500,0,"md2-23.ogg",70
Sample,79500,0,"bbp_122.ogg",70
Sample,79650,0,"hapsi010.ogg",70
Sample,79650,0,"bbp_136.ogg",70
Sample,79800,0,"hapsi016.ogg",70
Sample,79800,0,"md2-19.ogg",70
Sample,79800,0,"hapsi014.ogg",70
Sample,79800,0,"bp_019.ogg",70
Sample,79800,0,"bp_088.ogg",70
Sample,79950,0,"hapsi010.ogg",70
Sample,79950,0,"bbp_142.ogg",70
Sample,79950,0,"md2-20.ogg",70
Sample,80100,0,"hapsi017.ogg",70
Sample,80100,0,"bp_038.ogg",70
Sample,80100,0,"md2-22.ogg",70
Sample,80100,0,"bp_110.ogg",70
Sample,80100,0,"hapsi015.ogg",70
Sample,80250,0,"md2-21.ogg",70
Sample,80250,0,"Viogl.ogg",70
Sample,80250,0,"hapsi010.ogg",70
Sample,80400,0,"hapsi010.ogg",70
Sample,80400,0,"noiz-01.ogg",70
Sample,80400,0,"hapsi014.ogg",70
Sample,80400,0,"bbp_029.ogg",70
Sample,80400,0,"bp_036.ogg",70
Sample,80400,0,"bp_079.ogg",70
Sample,80400,0,"md2-19.ogg",70
Sample,80437,0,"noiz-02.ogg",70
Sample,80475,0,"noiz-03.ogg",70
Sample,80512,0,"noiz-04.ogg",70
Sample,80550,0,"md2-20.ogg",70
Sample,80550,0,"bbp_053.ogg",70
Sample,80550,0,"hapsi006.ogg",70
Sample,80550,0,"noiz-05.ogg",70
Sample,80587,0,"noiz-06.ogg",70
Sample,80625,0,"noiz-07.ogg",70
Sample,80662,0,"noiz-08.ogg",70
Sample,80700,0,"hapsi012.ogg",70
Sample,80700,0,"hapsi015.ogg",70
Sample,80700,0,"noiz-09.ogg",70
Sample,80700,0,"bbp_073.ogg",70
Sample,80700,0,"md2-21.ogg",70
Sample,80775,0,"noiz-10.ogg",70
Sample,80850,0,"md2-22.ogg",70
Sample,80850,0,"noiz-11.ogg",70
Sample,80850,0,"hapsi006.ogg",70
Sample,80850,0,"bbp_081.ogg",70
Sample,80925,0,"noiz-12.ogg",70
Sample,81000,0,"bp_057.ogg",70
Sample,81000,0,"Sn.ogg",70
Sample,81000,0,"noiz-13.ogg",70
Sample,81000,0,"md2-23.ogg",70
Sample,81000,0,"hapsi014.ogg",70
Sample,81000,0,"hapsi016.ogg",70
Sample,81000,0,"bp_024.ogg",70
Sample,81150,0,"hapsi006.ogg",70
Sample,81150,0,"noiz-14.ogg",70
Sample,81150,0,"bbp_097.ogg",70
Sample,81300,0,"hapsi015.ogg",70
Sample,81300,0,"md2-19.ogg",70
Sample,81300,0,"hapsi017.ogg",70
Sample,81300,0,"noiz-15.ogg",70
Sample,81450,0,"noiz-16.ogg",70
Sample,81450,0,"hapsi006.ogg",70
Sample,81450,0,"bbp_106.ogg",70
Sample,81450,0,"md2-20.ogg",70
Sample,81600,0,"GL.ogg",70
Sample,81600,0,"md2-21.ogg",70
Sample,81600,0,"bbp_025.ogg",70
Sample,81900,0,"Sn.ogg",70
Sample,82650,0,"vio_002.ogg",70
Sample,82650,0,"vio_011.ogg",70
Sample,82650,0,"vio_022.ogg",70
Sample,82800,0,"Crash.ogg",70
Sample,82800,0,"kick3.ogg",70
Sample,82800,0,"md2-01.ogg",70
Sample,82800,0,"sss_009.ogg",70
Sample,82800,0,"db_01.ogg",70
Sample,82800,0,"hapsi016.ogg",70
Sample,82800,0,"bbp_014.ogg",70
Sample,82800,0,"hapsi013.ogg",70
Sample,82800,0,"bbp_043.ogg",70
Sample,82800,0,"sss_013.ogg",70
Sample,82800,0,"04.ogg",70
Sample,82875,0,"sss_009.ogg",70
Sample,82875,0,"sss_013.ogg",70
Sample,82950,0,"sss_008.ogg",70
Sample,82950,0,"hapsi009.ogg",70
Sample,82950,0,"sss_012.ogg",70
Sample,82950,0,"kick3.ogg",70
Sample,82950,0,"md2-02.ogg",70
Sample,82950,0,"bbp_070.ogg",70
Sample,82950,0,"db_02.ogg",70
Sample,83100,0,"bbp_109.ogg",70
Sample,83100,0,"sss_009.ogg",70
Sample,83100,0,"db_03.ogg",70
Sample,83100,0,"md2-03.ogg",70
Sample,83100,0,"FX02.ogg",70
Sample,83100,0,"sss_013.ogg",70
Sample,83100,0,"hapsi017.ogg",70
Sample,83100,0,"hapsi015.ogg",70
Sample,83175,0,"sss_009.ogg",70
Sample,83175,0,"sss_013.ogg",70
Sample,83250,0,"sss_012.ogg",70
Sample,83250,0,"db_04.ogg",70
Sample,83250,0,"sss_008.ogg",70
Sample,83250,0,"hapsi009.ogg",70
Sample,83250,0,"kick3.ogg",70
Sample,83250,0,"md2-04.ogg",70
Sample,83250,0,"bbp_121.ogg",70
Sample,83325,0,"db_05.ogg",70
Sample,83400,0,"md2-05.ogg",70
Sample,83400,0,"hapsi018.ogg",70
Sample,83400,0,"sss_013.ogg",70
Sample,83400,0,"bbp_129.ogg",70
Sample,83400,0,"sss_009.ogg",70
Sample,83400,0,"hapsi016.ogg",70
Sample,83400,0,"db_06.ogg",70
Sample,83475,0,"sss_009.ogg",70
Sample,83475,0,"db_07.ogg",70
Sample,83475,0,"sss_013.ogg",70
Sample,83550,0,"sss_008.ogg",70
Sample,83550,0,"hapsi009.ogg",70
Sample,83550,0,"sss_012.ogg",70
Sample,83550,0,"bbp_147.ogg",70
Sample,83550,0,"db_08.ogg",70
Sample,83550,0,"kick3.ogg",70
Sample,83700,0,"sss_013.ogg",70
Sample,83700,0,"md2-06.ogg",70
Sample,83700,0,"sss_009.ogg",70
Sample,83700,0,"db_09.ogg",70
Sample,83700,0,"hapsi019.ogg",70
Sample,83700,0,"hapsi017.ogg",70
Sample,83775,0,"sss_013.ogg",70
Sample,83775,0,"sss_009.ogg",70
Sample,83850,0,"vio_016.ogg",70
Sample,83850,0,"sss_008.ogg",70
Sample,83850,0,"vio_026.ogg",70
Sample,83850,0,"md2-07.ogg",70
Sample,83850,0,"sss_012.ogg",70
Sample,83850,0,"db_10.ogg",70
Sample,83850,0,"bbp_140.ogg",70
Sample,83850,0,"hapsi009.ogg",70
Sample,83850,0,"vio_004.ogg",70
Sample,84000,0,"kick3.ogg",70
Sample,84000,0,"sss_011.ogg",70
Sample,84000,0,"hapsi018.ogg",70
Sample,84000,0,"bbp_017.ogg",70
Sample,84000,0,"hapsi016.ogg",70
Sample,84000,0,"bbp_049.ogg",70
Sample,84000,0,"db_01.ogg",70
Sample,84000,0,"sss_007.ogg",70
Sample,84000,0,"md2-08.ogg",70
Sample,84075,0,"sss_011.ogg",70
Sample,84075,0,"sss_007.ogg",70
Sample,84150,0,"sss_010.ogg",70
Sample,84150,0,"md2-09.ogg",70
Sample,84150,0,"sss_006.ogg",70
Sample,84150,0,"hapsi010.ogg",70
Sample,84150,0,"bbp_088.ogg",70
Sample,84150,0,"kick3.ogg",70
Sample,84150,0,"db_02.ogg",70
Sample,84300,0,"hapsi017.ogg",70
Sample,84300,0,"db_03.ogg",70
Sample,84300,0,"bbp_118.ogg",70
Sample,84300,0,"sss_011.ogg",70
Sample,84300,0,"md2-10.ogg",70
Sample,84300,0,"hapsi015.ogg",70
Sample,84300,0,"sss_007.ogg",70
Sample,84375,0,"sss_011.ogg",70
Sample,84375,0,"sss_007.ogg",70
Sample,84450,0,"sss_010.ogg",70
Sample,84450,0,"db_04.ogg",70
Sample,84450,0,"hapsi010.ogg",70
Sample,84450,0,"sss_006.ogg",70
Sample,84450,0,"kick3.ogg",70
Sample,84450,0,"bbp_135.ogg",70
Sample,84525,0,"db_05.ogg",70
Sample,84600,0,"db_06.ogg",70
Sample,84600,0,"bbp_144.ogg",70
Sample,84600,0,"md2-11.ogg",70
Sample,84600,0,"sss_011.ogg",70
Sample,84600,0,"sss_007.ogg",70
Sample,84600,0,"hapsi016.ogg",70
Sample,84600,0,"hapsi013.ogg",70
Sample,84675,0,"sss_007.ogg",70
Sample,84675,0,"db_07.ogg",70
Sample,84675,0,"sss_011.ogg",70
Sample,84675,0,"md2-12.ogg",70
Sample,84750,0,"hapsi010.ogg",70
Sample,84750,0,"bbp_133.ogg",70
Sample,84750,0,"sss_006.ogg",70
Sample,84750,0,"db_08.ogg",70
Sample,84750,0,"md2-13.ogg",70
Sample,84750,0,"kick3.ogg",70
Sample,84750,0,"sss_010.ogg",70
Sample,84825,0,"md2-14.ogg",70
Sample,84900,0,"sss_007.ogg",70
Sample,84900,0,"hapsi017.ogg",70
Sample,84900,0,"sss_011.ogg",70
Sample,84900,0,"hapsi015.ogg",70
Sample,84900,0,"md2-15.ogg",70
Sample,84900,0,"db_09.ogg",70
Sample,84900,0,"bbp_144.ogg",70
Sample,84975,0,"sss_011.ogg",70
Sample,84975,0,"md2-16.ogg",70
Sample,84975,0,"sss_007.ogg",70
Sample,85050,0,"vio_008.ogg",70
Sample,85050,0,"hapsi010.ogg",70
Sample,85050,0,"sss_010.ogg",70
Sample,85050,0,"vio_021.ogg",70
Sample,85050,0,"db_10.ogg",70
Sample,85050,0,"bbp_152.ogg",70
Sample,85050,0,"vio_030.ogg",70
Sample,85050,0,"md2-17.ogg",70
Sample,85050,0,"sss_006.ogg",70
Sample,85125,0,"md2-18.ogg",70
Sample,85200,0,"db_01.ogg",70
Sample,85200,0,"hapsi014.ogg",70
Sample,85200,0,"md2-19.ogg",70
Sample,85200,0,"bbp_002.ogg",70
Sample,85200,0,"sss_013.ogg",70
Sample,85200,0,"Crash.ogg",70
Sample,85200,0,"hapsi010.ogg",70
Sample,85200,0,"sss_015.ogg",70
Sample,85200,0,"bbp_023.ogg",70
Sample,85200,0,"kick3.ogg",70
Sample,85275,0,"sss_013.ogg",70
Sample,85275,0,"sss_015.ogg",70
Sample,85350,0,"sss_012.ogg",70
Sample,85350,0,"md2-20.ogg",70
Sample,85350,0,"sss_014.ogg",70
Sample,85350,0,"bbp_051.ogg",70
Sample,85350,0,"hapsi006.ogg",70
Sample,85350,0,"kick3.ogg",70
Sample,85350,0,"db_02.ogg",70
Sample,85500,0,"hapsi012.ogg",70
Sample,85500,0,"sss_013.ogg",70
Sample,85500,0,"bbp_066.ogg",70
Sample,85500,0,"db_03.ogg",70
Sample,85500,0,"sss_015.ogg",70
Sample,85500,0,"md2-21.ogg",70
Sample,85500,0,"hapsi015.ogg",70
Sample,85575,0,"sss_015.ogg",70
Sample,85575,0,"sss_013.ogg",70
Sample,85650,0,"sss_014.ogg",70
Sample,85650,0,"sss_012.ogg",70
Sample,85650,0,"bbp_085.ogg",70
Sample,85650,0,"db_04.ogg",70
Sample,85650,0,"kick3.ogg",70
Sample,85650,0,"md2-22.ogg",70
Sample,85650,0,"hapsi006.ogg",70
Sample,85725,0,"db_05.ogg",70
Sample,85800,0,"md2-23.ogg",70
Sample,85800,0,"sss_015.ogg",70
Sample,85800,0,"db_06.ogg",70
Sample,85800,0,"hapsi016.ogg",70
Sample,85800,0,"sss_013.ogg",70
Sample,85800,0,"hapsi014.ogg",70
Sample,85875,0,"sss_013.ogg",70
Sample,85875,0,"sss_015.ogg",70
Sample,85875,0,"db_07.ogg",70
Sample,85950,0,"hapsi006.ogg",70
Sample,85950,0,"db_08.ogg",70
Sample,85950,0,"bbp_096.ogg",70
Sample,85950,0,"kick3.ogg",70
Sample,85950,0,"sss_014.ogg",70
Sample,85950,0,"sss_012.ogg",70
Sample,86100,0,"hapsi012.ogg",70
Sample,86100,0,"sss_015.ogg",70
Sample,86100,0,"db_09.ogg",70
Sample,86100,0,"sss_013.ogg",70
Sample,86100,0,"md2-19.ogg",70
Sample,86100,0,"hapsi015.ogg",70
Sample,86175,0,"sss_013.ogg",70
Sample,86175,0,"sss_015.ogg",70
Sample,86250,0,"db_10.ogg",70
Sample,86250,0,"sss_014.ogg",70
Sample,86250,0,"md2-20.ogg",70
Sample,86250,0,"hapsi006.ogg",70
Sample,86250,0,"sss_012.ogg",70
Sample,86250,0,"bbp_105.ogg",70
Sample,86400,0,"bbp_037.ogg",70
Sample,86400,0,"db_01.ogg",70
Sample,86400,0,"hapsi014.ogg",70
Sample,86400,0,"hapsi016.ogg",70
Sample,86400,0,"md2-21.ogg",70
Sample,86400,0,"sss_009.ogg",70
Sample,86400,0,"kick3.ogg",70
Sample,86400,0,"sss_005.ogg",70
Sample,86400,0,"bbp_011.ogg",70
Sample,86400,0,"bbp_114.ogg",70
Sample,86400,0,"Crashcut1.ogg",70
Sample,86475,0,"sss_009.ogg",70
Sample,86475,0,"sss_005.ogg",70
Sample,86550,0,"sss_004.ogg",70
Sample,86550,0,"bbp_061.ogg",70
Sample,86550,0,"sss_008.ogg",70
Sample,86550,0,"md2-22.ogg",70
Sample,86550,0,"db_02.ogg",70
Sample,86550,0,"kick3.ogg",70
Sample,86550,0,"hapsi003.ogg",70
Sample,86700,0,"hapsi012.ogg",70
Sample,86700,0,"sss_009.ogg",70
Sample,86700,0,"bbp_098.ogg",70
Sample,86700,0,"md2-23.ogg",70
Sample,86700,0,"hapsi015.ogg",70
Sample,86700,0,"sss_005.ogg",70
Sample,86700,0,"db_03.ogg",70
Sample,86775,0,"sss_005.ogg",70
Sample,86775,0,"sss_009.ogg",70
Sample,86850,0,"vio_005.ogg",70
Sample,86850,0,"vio_017.ogg",70
Sample,86850,0,"db_04.ogg",70
Sample,86850,0,"sss_004.ogg",70
Sample,86850,0,"bbp_104.ogg",70
Sample,86850,0,"vio_027.ogg",70
Sample,86850,0,"hapsi003.ogg",70
Sample,86850,0,"sss_008.ogg",70
Sample,86850,0,"kick3.ogg",70
Sample,86925,0,"db_05.ogg",70
Sample,87000,0,"sss_005.ogg",70
Sample,87000,0,"Crashcut1.ogg",70
Sample,87000,0,"hapsi016.ogg",70
Sample,87000,0,"md2-19.ogg",70
Sample,87000,0,"sss_009.ogg",70
Sample,87000,0,"db_06.ogg",70
Sample,87000,0,"hapsi014.ogg",70
Sample,87075,0,"sss_005.ogg",70
Sample,87075,0,"db_07.ogg",70
Sample,87075,0,"sss_009.ogg",70
Sample,87150,0,"sss_004.ogg",70
Sample,87150,0,"db_08.ogg",70
Sample,87150,0,"sss_008.ogg",70
Sample,87150,0,"hapsi003.ogg",70
Sample,87150,0,"bbp_113.ogg",70
Sample,87150,0,"md2-20.ogg",70
Sample,87150,0,"kick3.ogg",70
Sample,87300,0,"db_09.ogg",70
Sample,87300,0,"hapsi015.ogg",70
Sample,87300,0,"sss_005.ogg",70
Sample,87300,0,"sss_009.ogg",70
Sample,87300,0,"md2-24.ogg",70
Sample,87300,0,"hapsi017.ogg",70
Sample,87375,0,"sss_009.ogg",70
Sample,87375,0,"sss_005.ogg",70
Sample,87375,0,"md2-25.ogg",70
Sample,87450,0,"db_10.ogg",70
Sample,87450,0,"sss_004.ogg",70
Sample,87450,0,"sss_008.ogg",70
Sample,87450,0,"vio_032.ogg",70
Sample,87450,0,"vio_009.ogg",70
Sample,87450,0,"md2-21.ogg",70
Sample,87450,0,"vio_022.ogg",70
Sample,87450,0,"hapsi003.ogg",70
Sample,87600,0,"Crash.ogg",70
Sample,87600,0,"bbp_041.ogg",70
Sample,87600,0,"hapsi013.ogg",70
Sample,87600,0,"db_01.ogg",70
Sample,87600,0,"sss_005.ogg",70
Sample,87600,0,"sss_009.ogg",70
Sample,87600,0,"hapsi016.ogg",70
Sample,87600,0,"md2-19.ogg",70
Sample,87600,0,"kick3.ogg",70
Sample,87600,0,"bbp_013.ogg",70
Sample,87675,0,"sss_009.ogg",70
Sample,87675,0,"sss_005.ogg",70
Sample,87750,0,"bbp_074.ogg",70
Sample,87750,0,"md2-20.ogg",70
Sample,87750,0,"hapsi009.ogg",70
Sample,87750,0,"sss_004.ogg",70
Sample,87750,0,"kick3.ogg",70
Sample,87750,0,"sss_008.ogg",70
Sample,87750,0,"db_02.ogg",70
Sample,87900,0,"bbp_110.ogg",70
Sample,87900,0,"hapsi017.ogg",70
Sample,87900,0,"hapsi015.ogg",70
Sample,87900,0,"md2-21.ogg",70
Sample,87900,0,"sss_005.ogg",70
Sample,87900,0,"sss_009.ogg",70
Sample,87900,0,"db_03.ogg",70
Sample,87975,0,"sss_005.ogg",70
Sample,87975,0,"sss_009.ogg",70
Sample,88050,0,"bbp_115.ogg",70
Sample,88050,0,"sss_008.ogg",70
Sample,88050,0,"db_04.ogg",70
Sample,88050,0,"md2-22.ogg",70
Sample,88050,0,"kick3.ogg",70
Sample,88050,0,"hapsi009.ogg",70
Sample,88050,0,"sss_004.ogg",70
Sample,88125,0,"db_05.ogg",70
Sample,88200,0,"sss_009.ogg",70
Sample,88200,0,"md2-23.ogg",70
Sample,88200,0,"hapsi018.ogg",70
Sample,88200,0,"sss_005.ogg",70
Sample,88200,0,"hapsi016.ogg",70
Sample,88200,0,"db_06.ogg",70
Sample,88275,0,"sss_005.ogg",70
Sample,88275,0,"db_07.ogg",70
Sample,88275,0,"sss_009.ogg",70
Sample,88350,0,"db_08.ogg",70
Sample,88350,0,"bbp_126.ogg",70
Sample,88350,0,"sss_004.ogg",70
Sample,88350,0,"kick3.ogg",70
Sample,88350,0,"sss_008.ogg",70
Sample,88350,0,"hapsi009.ogg",70
Sample,88500,0,"db_09.ogg",70
Sample,88500,0,"sss_009.ogg",70
Sample,88500,0,"hapsi017.ogg",70
Sample,88500,0,"sss_005.ogg",70
Sample,88500,0,"kick4.ogg",70
Sample,88500,0,"hapsi019.ogg",70
Sample,88500,0,"md2-19.ogg",70
Sample,88575,0,"sss_009.ogg",70
Sample,88575,0,"kick4.ogg",70
Sample,88575,0,"sss_005.ogg",70
Sample,88650,0,"vio_005.ogg",70
Sample,88650,0,"hapsi009.ogg",70
Sample,88650,0,"vio_018.ogg",70
Sample,88650,0,"bbp_141.ogg",70
Sample,88650,0,"sss_008.ogg",70
Sample,88650,0,"db_10.ogg",70
Sample,88650,0,"md2-20.ogg",70
Sample,88650,0,"vio_027.ogg",70
Sample,88650,0,"kickgl.ogg",70
Sample,88650,0,"sss_004.ogg",70
Sample,88668,0,"kickgl.ogg",70
Sample,88687,0,"kickgl.ogg",70
Sample,88706,0,"kickgl.ogg",70
Sample,88725,0,"kickgl.ogg",70
Sample,88743,0,"kickgl.ogg",70
Sample,88762,0,"kickgl.ogg",70
Sample,88781,0,"kickgl.ogg",70
Sample,88800,0,"Crashcut2.ogg",70
Sample,88800,0,"md2-21.ogg",70
Sample,88800,0,"hapsi016.ogg",70
Sample,88800,0,"sss_003.ogg",70
Sample,88800,0,"db_01.ogg",70
Sample,88800,0,"sss_007.ogg",70
Sample,88800,0,"bbp_017.ogg",70
Sample,88800,0,"kick3.ogg",70
Sample,88800,0,"hapsi018.ogg",70
Sample,88800,0,"bbp_049.ogg",70
Sample,88875,0,"sss_003.ogg",70
Sample,88875,0,"sss_007.ogg",70
Sample,88950,0,"sss_006.ogg",70
Sample,88950,0,"db_02.ogg",70
Sample,88950,0,"sss_002.ogg",70
Sample,88950,0,"bbp_088.ogg",70
Sample,88950,0,"md2-22.ogg",70
Sample,88950,0,"hapsi010.ogg",70
Sample,89100,0,"Crashcut3.ogg",70
Sample,89100,0,"db_03.ogg",70
Sample,89100,0,"sss_003.ogg",70
Sample,89100,0,"bbp_118.ogg",70
Sample,89100,0,"kick3.ogg",70
Sample,89100,0,"hapsi017.ogg",70
Sample,89100,0,"md2-23.ogg",70
Sample,89100,0,"sss_007.ogg",70
Sample,89100,0,"hapsi015.ogg",70
Sample,89175,0,"sss_003.ogg",70
Sample,89175,0,"sss_007.ogg",70
Sample,89250,0,"vio_017.ogg",70
Sample,89250,0,"sss_002.ogg",70
Sample,89250,0,"hapsi010.ogg",70
Sample,89250,0,"db_04.ogg",70
Sample,89250,0,"bbp_135.ogg",70
Sample,89250,0,"sss_006.ogg",70
Sample,89250,0,"vio_039.ogg",70
Sample,89250,0,"vio_033.ogg",70
Sample,89325,0,"db_05.ogg",70
Sample,89400,0,"bbp_144.ogg",70
Sample,89400,0,"sss_013.ogg",70
Sample,89400,0,"md2-19.ogg",70
Sample,89400,0,"sss_003.ogg",70
Sample,89400,0,"hapsi016.ogg",70
Sample,89400,0,"db_06.ogg",70
Sample,89400,0,"Crashcut3.ogg",70
Sample,89400,0,"hapsi013.ogg",70
Sample,89400,0,"kick3.ogg",70
Sample,89475,0,"db_07.ogg",70
Sample,89475,0,"sss_003.ogg",70
Sample,89475,0,"sss_013.ogg",70
Sample,89550,0,"db_08.ogg",70
Sample,89550,0,"md2-20.ogg",70
Sample,89550,0,"sss_012.ogg",70
Sample,89550,0,"hapsi010.ogg",70
Sample,89550,0,"sss_002.ogg",70
Sample,89550,0,"bbp_133.ogg",70
Sample,89625,0,"kick3.ogg",70
Sample,89625,0,"Crashcut3.ogg",70
Sample,89700,0,"hapsi017.ogg",70
Sample,89700,0,"bbp_144.ogg",70
Sample,89700,0,"md2-22.ogg",70
Sample,89700,0,"sss_003.ogg",70
Sample,89700,0,"hapsi015.ogg",70
Sample,89700,0,"sss_013.ogg",70
Sample,89700,0,"db_09.ogg",70
Sample,89775,0,"sss_013.ogg",70
Sample,89775,0,"sss_003.ogg",70
Sample,89850,0,"kick3.ogg",70
Sample,89850,0,"vio_011.ogg",70
Sample,89850,0,"md2-21.ogg",70
Sample,89850,0,"sss_002.ogg",70
Sample,89850,0,"Crashcut3.ogg",70
Sample,89850,0,"vio_026.ogg",70
Sample,89850,0,"hapsi010.ogg",70
Sample,89850,0,"sss_012.ogg",70
Sample,89850,0,"db_10.ogg",70
Sample,89850,0,"bbp_152.ogg",70
Sample,89850,0,"vio_034.ogg",70
Sample,90000,0,"sss_011.ogg",70
Sample,90000,0,"Crash.ogg",70
Sample,90000,0,"noiz-01.ogg",70
Sample,90000,0,"db_01.ogg",70
Sample,90000,0,"kick3.ogg",70
Sample,90000,0,"bbp_004.ogg",70
Sample,90000,0,"bbp_028.ogg",70
Sample,90000,0,"hapsi010.ogg",70
Sample,90000,0,"md2-19.ogg",70
Sample,90000,0,"sss_007.ogg",70
Sample,90000,0,"bbp_117.ogg",70
Sample,90000,0,"hapsi014.ogg",70
Sample,90037,0,"noiz-02.ogg",70
Sample,90075,0,"sss_007.ogg",70
Sample,90075,0,"noiz-03.ogg",70
Sample,90075,0,"sss_011.ogg",70
Sample,90112,0,"noiz-04.ogg",70
Sample,90150,0,"md2-20.ogg",70
Sample,90150,0,"sss_010.ogg",70
Sample,90150,0,"db_02.ogg",70
Sample,90150,0,"bbp_055.ogg",70
Sample,90150,0,"kick3.ogg",70
Sample,90150,0,"hapsi006.ogg",70
Sample,90150,0,"sss_006.ogg",70
Sample,90150,0,"noiz-05.ogg",70
Sample,90187,0,"noiz-06.ogg",70
Sample,90225,0,"noiz-07.ogg",70
Sample,90262,0,"noiz-08.ogg",70
Sample,90300,0,"md2-21.ogg",70
Sample,90300,0,"hapsi015.ogg",70
Sample,90300,0,"db_03.ogg",70
Sample,90300,0,"noiz-09.ogg",70
Sample,90300,0,"sss_007.ogg",70
Sample,90300,0,"bbp_067.ogg",70
Sample,90300,0,"hapsi012.ogg",70
Sample,90300,0,"sss_011.ogg",70
Sample,90375,0,"noiz-10.ogg",70
Sample,90375,0,"sss_007.ogg",70
Sample,90375,0,"sss_011.ogg",70
Sample,90450,0,"md2-22.ogg",70
Sample,90450,0,"bbp_084.ogg",70
Sample,90450,0,"sss_010.ogg",70
Sample,90450,0,"noiz-11.ogg",70
Sample,90450,0,"kick3.ogg",70
Sample,90450,0,"sss_006.ogg",70
Sample,90450,0,"hapsi006.ogg",70
Sample,90450,0,"db_04.ogg",70
Sample,90525,0,"noiz-12.ogg",70
Sample,90525,0,"db_05.ogg",70
Sample,90600,0,"sss_011.ogg",70
Sample,90600,0,"md2-23.ogg",70
Sample,90600,0,"db_06.ogg",70
Sample,90600,0,"noiz-13.ogg",70
Sample,90600,0,"hapsi014.ogg",70
Sample,90600,0,"sss_007.ogg",70
Sample,90600,0,"hapsi016.ogg",70
Sample,90675,0,"sss_011.ogg",70
Sample,90675,0,"db_07.ogg",70
Sample,90675,0,"sss_007.ogg",70
Sample,90750,0,"noiz-14.ogg",70
Sample,90750,0,"kick3.ogg",70
Sample,90750,0,"bbp_094.ogg",70
Sample,90750,0,"sss_006.ogg",70
Sample,90750,0,"hapsi006.ogg",70
Sample,90750,0,"sss_010.ogg",70
Sample,90750,0,"db_08.ogg",70
Sample,90900,0,"sss_007.ogg",70
Sample,90900,0,"hapsi012.ogg",70
Sample,90900,0,"md2-19.ogg",70
Sample,90900,0,"db_09.ogg",70
Sample,90900,0,"hapsi015.ogg",70
Sample,90900,0,"noiz-15.ogg",70
Sample,90900,0,"sss_011.ogg",70
Sample,90975,0,"sss_007.ogg",70
Sample,90975,0,"sss_011.ogg",70
Sample,91050,0,"hapsi006.ogg",70
Sample,91050,0,"sss_010.ogg",70
Sample,91050,0,"vio_009.ogg",70
Sample,91050,0,"noiz-16.ogg",70
Sample,91050,0,"vio_022.ogg",70
Sample,91050,0,"md2-20.ogg",70
Sample,91050,0,"db_10.ogg",70
Sample,91050,0,"sss_006.ogg",70
Sample,91050,0,"vio_032.ogg",70
Sample,91200,0,"Crashcut1.ogg",70
Sample,91200,0,"bbp_034.ogg",70
Sample,91200,0,"hapsi014.ogg",70
Sample,91200,0,"md2-21.ogg",70
Sample,91200,0,"db_01.ogg",70
Sample,91200,0,"sss_005.ogg",70
Sample,91200,0,"bbp_009.ogg",70
Sample,91200,0,"kick3.ogg",70
Sample,91200,0,"sss_009.ogg",70
Sample,91200,0,"hapsi016.ogg",70
Sample,91275,0,"sss_005.ogg",70
Sample,91275,0,"sss_009.ogg",70
Sample,91350,0,"kick3.ogg",70
Sample,91350,0,"md2-22.ogg",70
Sample,91350,0,"db_02.ogg",70
Sample,91350,0,"bbp_062.ogg",70
Sample,91350,0,"hapsi003.ogg",70
Sample,91350,0,"sss_008.ogg",70
Sample,91350,0,"sss_004.ogg",70
Sample,91500,0,"hapsi015.ogg",70
Sample,91500,0,"sss_005.ogg",70
Sample,91500,0,"bbp_101.ogg",70
Sample,91500,0,"md2-23.ogg",70
Sample,91500,0,"sss_009.ogg",70
Sample,91500,0,"db_03.ogg",70
Sample,91500,0,"hapsi012.ogg",70
Sample,91575,0,"sss_009.ogg",70
Sample,91575,0,"sss_005.ogg",70
Sample,91650,0,"bbp_107.ogg",70
Sample,91650,0,"hapsi003.ogg",70
Sample,91650,0,"kick3.ogg",70
Sample,91650,0,"sss_004.ogg",70
Sample,91650,0,"db_04.ogg",70
Sample,91650,0,"sss_008.ogg",70
Sample,91725,0,"db_05.ogg",70
Sample,91800,0,"sss_007.ogg",70
Sample,91800,0,"bbp_103.ogg",70
Sample,91800,0,"bbp_035.ogg",70
Sample,91800,0,"hapsi016.ogg",70
Sample,91800,0,"Crashcut1.ogg",70
Sample,91800,0,"db_06.ogg",70
Sample,91800,0,"hapsi014.ogg",70
Sample,91800,0,"sss_011.ogg",70
Sample,91800,0,"md2-19.ogg",70
Sample,91875,0,"db_07.ogg",70
Sample,91875,0,"sss_011.ogg",70
Sample,91875,0,"sss_007.ogg",70
Sample,91950,0,"bbp_155.ogg",70
Sample,91950,0,"db_08.ogg",70
Sample,91950,0,"sss_006.ogg",70
Sample,91950,0,"hapsi003.ogg",70
Sample,91950,0,"bbp_103.ogg",70
Sample,91950,0,"sss_010.ogg",70
Sample,91950,0,"kick3.ogg",70
Sample,91950,0,"md2-20.ogg",70
Sample,92100,0,"hapsi017.ogg",70
Sample,92100,0,"bbp_086.ogg",70
Sample,92100,0,"md2-24.ogg",70
Sample,92100,0,"sss_007.ogg",70
Sample,92100,0,"hapsi015.ogg",70
Sample,92100,0,"sss_011.ogg",70
Sample,92100,0,"bbp_033.ogg",70
Sample,92100,0,"db_09.ogg",70
Sample,92175,0,"sss_011.ogg",70
Sample,92175,0,"md2-25.ogg",70
Sample,92175,0,"sss_007.ogg",70
Sample,92250,0,"sss_006.ogg",70
Sample,92250,0,"hapsi003.ogg",70
Sample,92250,0,"bbp_153.ogg",70
Sample,92250,0,"sss_010.ogg",70
Sample,92250,0,"md2-21.ogg",70
Sample,92250,0,"db_10.ogg",70
Sample,92250,0,"vio_034.ogg",70
Sample,92250,0,"bbp_086.ogg",70
Sample,92250,0,"vio_040.ogg",70
Sample,92400,0,"kick3.ogg",70
Sample,92400,0,"hapsi016.ogg",70
Sample,92400,0,"bbp_056.ogg",70
Sample,92400,0,"sss_007.ogg",70
Sample,92400,0,"Crash.ogg",70
Sample,92400,0,"md2-01.ogg",70
Sample,92400,0,"hapsi013.ogg",70
Sample,92400,0,"bbp_018.ogg",70
Sample,92400,0,"sss_001.ogg",70
Sample,92400,0,"db_01.ogg",70
Sample,92475,0,"sss_001.ogg",70
Sample,92475,0,"sss_007.ogg",70
Sample,92550,0,"db_02.ogg",70
Sample,92550,0,"sss_000.ogg",70
Sample,92550,0,"bbp_102.ogg",70
Sample,92550,0,"kick3.ogg",70
Sample,92550,0,"hapsi009.ogg",70
Sample,92550,0,"md2-02.ogg",70
Sample,92550,0,"sss_006.ogg",70
Sample,92700,0,"sss_001.ogg",70
Sample,92700,0,"sss_007.ogg",70
Sample,92700,0,"md2-03.ogg",70
Sample,92700,0,"hapsi017.ogg",70
Sample,92700,0,"hapsi015.ogg",70
Sample,92700,0,"bbp_130.ogg",70
Sample,92700,0,"db_03.ogg",70
Sample,92775,0,"sss_007.ogg",70
Sample,92775,0,"sss_001.ogg",70
Sample,92850,0,"hapsi009.ogg",70
Sample,92850,0,"db_04.ogg",70
Sample,92850,0,"sss_006.ogg",70
Sample,92850,0,"bbp_139.ogg",70
Sample,92850,0,"kick3.ogg",70
Sample,92850,0,"sss_000.ogg",70
Sample,92850,0,"md2-04.ogg",70
Sample,92925,0,"db_05.ogg",70
Sample,93000,0,"sss_007.ogg",70
Sample,93000,0,"sss_001.ogg",70
Sample,93000,0,"hapsi018.ogg",70
Sample,93000,0,"md2-05.ogg",70
Sample,93000,0,"hapsi016.ogg",70
Sample,93000,0,"db_06.ogg",70
Sample,93075,0,"sss_001.ogg",70
Sample,93075,0,"db_07.ogg",70
Sample,93075,0,"sss_007.ogg",70
Sample,93150,0,"bbp_149.ogg",70
Sample,93150,0,"hapsi009.ogg",70
Sample,93150,0,"db_08.ogg",70
Sample,93150,0,"sss_006.ogg",70
Sample,93150,0,"sss_000.ogg",70
Sample,93150,0,"kick3.ogg",70
Sample,93300,0,"sss_007.ogg",70
Sample,93300,0,"md2-06.ogg",70
Sample,93300,0,"hapsi017.ogg",70
Sample,93300,0,"db_09.ogg",70
Sample,93300,0,"sss_001.ogg",70
Sample,93300,0,"hapsi019.ogg",70
Sample,93375,0,"sss_001.ogg",70
Sample,93375,0,"sss_007.ogg",70
Sample,93450,0,"bbp_154.ogg",70
Sample,93450,0,"hapsi009.ogg",70
Sample,93450,0,"vio_044.ogg",70
Sample,93450,0,"db_10.ogg",70
Sample,93450,0,"vio_026.ogg",70
Sample,93450,0,"md2-07.ogg",70
Sample,93450,0,"sss_000.ogg",70
Sample,93450,0,"sss_006.ogg",70
Sample,93450,0,"vio_038.ogg",70
Sample,93600,0,"bbp_151.ogg",70
Sample,93600,0,"sss_005.ogg",70
Sample,93600,0,"hapsi018.ogg",70
Sample,93600,0,"hapsi016.ogg",70
Sample,93600,0,"kick3.ogg",70
Sample,93600,0,"bbp_047.ogg",70
Sample,93600,0,"bbp_015.ogg",70
Sample,93600,0,"sss_009.ogg",70
Sample,93675,0,"sss_009.ogg",70
Sample,93675,0,"sss_005.ogg",70
Sample,93750,0,"sss_008.ogg",70
Sample,93750,0,"sss_004.ogg",70
Sample,93750,0,"bbp_089.ogg",70
Sample,93750,0,"hapsi010.ogg",70
Sample,93825,0,"kick3.ogg",70
Sample,93900,0,"sss_009.ogg",70
Sample,93900,0,"hapsi019.ogg",70
Sample,93900,0,"hapsi017.ogg",70
Sample,93900,0,"sss_005.ogg",70
Sample,93900,0,"bbp_119.ogg",70
Sample,93975,0,"sss_009.ogg",70
Sample,93975,0,"sss_005.ogg",70
Sample,94050,0,"hapsi010.ogg",70
Sample,94050,0,"bbp_137.ogg",70
Sample,94050,0,"sss_008.ogg",70
Sample,94050,0,"kick3.ogg",70
Sample,94050,0,"sss_004.ogg",70
Sample,94200,0,"hapsi021.ogg",70
Sample,94200,0,"sss_009.ogg",70
Sample,94200,0,"kick5.ogg",70
Sample,94200,0,"hapsi019.ogg",70
Sample,94200,0,"sss_005.ogg",70
Sample,94275,0,"kick5.ogg",70
Sample,94275,0,"sss_005.ogg",70
Sample,94275,0,"sss_009.ogg",70
Sample,94350,0,"hapsi010.ogg",70
Sample,94350,0,"sss_008.ogg",70
Sample,94350,0,"kickgl2.ogg",70
Sample,94350,0,"bbp_032.ogg",70
Sample,94350,0,"bbp_125.ogg",70
Sample,94350,0,"sss_004.ogg",70
Sample,94350,0,"bbp_077.ogg",70
Sample,94350,0,"bbp_150.ogg",70
Sample,94387,0,"kickgl2.ogg",70
Sample,94425,0,"kickgl2.ogg",70
Sample,94462,0,"kickgl2.ogg",70
Sample,94500,0,"sss_005.ogg",70
Sample,94500,0,"kick5.ogg",70
Sample,94500,0,"hapsi018.ogg",70
Sample,94500,0,"sss_009.ogg",70
Sample,94500,0,"hapsi020.ogg",70
Sample,94575,0,"sss_009.ogg",70
Sample,94575,0,"kick5.ogg",70
Sample,94575,0,"sss_005.ogg",70
Sample,94650,0,"hapsi010.ogg",70
Sample,94650,0,"sss_008.ogg",70
Sample,94650,0,"sss_004.ogg",70
Sample,94650,0,"vio_015.ogg",70
Sample,94650,0,"kickgl2.ogg",70
Sample,94650,0,"vio_031.ogg",70
Sample,94687,0,"kickgl2.ogg",70
Sample,94725,0,"kickgl2.ogg",70
Sample,94762,0,"kickgl2.ogg",70
Sample,94800,0,"Crash.ogg",70
Sample,94800,0,"md2-19.ogg",70
Sample,94800,0,"hapsi018.ogg",70
Sample,94800,0,"sss_007.ogg",70
Sample,94800,0,"db_01.ogg",70
Sample,94800,0,"sss_011.ogg",70
Sample,94800,0,"bbp_003.ogg",70
Sample,94800,0,"kick3.ogg",70
Sample,94800,0,"hapsi020.ogg",70
Sample,94800,0,"bbp_026.ogg",70
Sample,94875,0,"sss_007.ogg",70
Sample,94875,0,"sss_011.ogg",70
Sample,94950,0,"kick3.ogg",70
Sample,94950,0,"sss_010.ogg",70
Sample,94950,0,"db_02.ogg",70
Sample,94950,0,"bbp_051.ogg",70
Sample,94950,0,"hapsi006.ogg",70
Sample,94950,0,"md2-20.ogg",70
Sample,94950,0,"sss_006.ogg",70
Sample,95100,0,"db_03.ogg",70
Sample,95100,0,"sss_011.ogg",70
Sample,95100,0,"hapsi019.ogg",70
Sample,95100,0,"bbp_067.ogg",70
Sample,95100,0,"sss_007.ogg",70
Sample,95100,0,"md2-21.ogg",70
Sample,95100,0,"hapsi017.ogg",70
Sample,95175,0,"sss_007.ogg",70
Sample,95175,0,"sss_011.ogg",70
Sample,95250,0,"sss_010.ogg",70
Sample,95250,0,"db_04.ogg",70
Sample,95250,0,"md2-22.ogg",70
Sample,95250,0,"sss_006.ogg",70
Sample,95250,0,"bbp_082.ogg",70
Sample,95250,0,"hapsi006.ogg",70
Sample,95250,0,"kick3.ogg",70
Sample,95325,0,"db_05.ogg",70
Sample,95400,0,"db_06.ogg",70
Sample,95400,0,"sss_011.ogg",70
Sample,95400,0,"hapsi019.ogg",70
Sample,95400,0,"md2-23.ogg",70
Sample,95400,0,"sss_007.ogg",70
Sample,95400,0,"hapsi017.ogg",70
Sample,95475,0,"sss_011.ogg",70
Sample,95475,0,"db_07.ogg",70
Sample,95475,0,"sss_007.ogg",70
Sample,95550,0,"sss_010.ogg",70
Sample,95550,0,"bbp_100.ogg",70
Sample,95550,0,"kick3.ogg",70
Sample,95550,0,"sss_006.ogg",70
Sample,95550,0,"hapsi006.ogg",70
Sample,95550,0,"db_08.ogg",70
Sample,95700,0,"md2-19.ogg",70
Sample,95700,0,"hapsi018.ogg",70
Sample,95700,0,"hapsi016.ogg",70
Sample,95700,0,"sss_007.ogg",70
Sample,95700,0,"db_09.ogg",70
Sample,95700,0,"sss_011.ogg",70
Sample,95775,0,"sss_011.ogg",70
Sample,95775,0,"sss_007.ogg",70
Sample,95850,0,"sss_006.ogg",70
Sample,95850,0,"sss_010.ogg",70
Sample,95850,0,"md2-20.ogg",70
Sample,95850,0,"hapsi006.ogg",70
Sample,95850,0,"db_10.ogg",70
Sample,96000,0,"bbp_010.ogg",70
Sample,96000,0,"sss_013.ogg",70
Sample,96000,0,"md2-21.ogg",70
Sample,96000,0,"Crashcut1.ogg",70
Sample,96000,0,"hapsi016.ogg",70
Sample,96000,0,"db_01.ogg",70
Sample,96000,0,"bbp_036.ogg",70
Sample,96000,0,"kick3.ogg",70
Sample,96000,0,"hapsi018.ogg",70
Sample,96000,0,"sss_009.ogg",70
Sample,96075,0,"sss_013.ogg",70
Sample,96075,0,"sss_009.ogg",70
Sample,96150,0,"sss_012.ogg",70
Sample,96150,0,"hapsi003.ogg",70
Sample,96150,0,"sss_008.ogg",70
Sample,96150,0,"bbp_064.ogg",70
Sample,96150,0,"md2-22.ogg",70
Sample,96150,0,"kick3.ogg",70
Sample,96150,0,"db_02.ogg",70
Sample,96300,0,"md2-23.ogg",70
Sample,96300,0,"bbp_099.ogg",70
Sample,96300,0,"sss_009.ogg",70
Sample,96300,0,"hapsi017.ogg",70
Sample,96300,0,"hapsi015.ogg",70
Sample,96300,0,"db_03.ogg",70
Sample,96300,0,"sss_013.ogg",70
Sample,96375,0,"sss_013.ogg",70
Sample,96375,0,"sss_009.ogg",70
Sample,96450,0,"sss_012.ogg",70
Sample,96450,0,"vio_010.ogg",70
Sample,96450,0,"kick3.ogg",70
Sample,96450,0,"db_04.ogg",70
Sample,96450,0,"bbp_111.ogg",70
Sample,96450,0,"vio_033.ogg",70
Sample,96450,0,"vio_023.ogg",70
Sample,96450,0,"sss_008.ogg",70
Sample,96450,0,"hapsi003.ogg",70
Sample,96525,0,"db_05.ogg",70
Sample,96600,0,"md2-19.ogg",70
Sample,96600,0,"db_06.ogg",70
Sample,96600,0,"hapsi018.ogg",70
Sample,96600,0,"sss_013.ogg",70
Sample,96600,0,"hapsi016.ogg",70
Sample,96600,0,"sss_009.ogg",70
Sample,96600,0,"Crashcut1.ogg",70
Sample,96675,0,"sss_009.ogg",70
Sample,96675,0,"db_07.ogg",70
Sample,96675,0,"sss_013.ogg",70
Sample,96750,0,"kick3.ogg",70
Sample,96750,0,"hapsi003.ogg",70
Sample,96750,0,"md2-20.ogg",70
Sample,96750,0,"sss_012.ogg",70
Sample,96750,0,"db_08.ogg",70
Sample,96750,0,"sss_008.ogg",70
Sample,96750,0,"bbp_113.ogg",70
Sample,96900,0,"sss_013.ogg",70
Sample,96900,0,"hapsi019.ogg",70
Sample,96900,0,"md2-24.ogg",70
Sample,96900,0,"hapsi017.ogg",70
Sample,96900,0,"db_09.ogg",70
Sample,96900,0,"sss_009.ogg",70
Sample,96975,0,"sss_013.ogg",70
Sample,96975,0,"sss_009.ogg",70
Sample,96975,0,"md2-25.ogg",70
Sample,97050,0,"vio_016.ogg",70
Sample,97050,0,"hapsi003.ogg",70
Sample,97050,0,"md2-21.ogg",70
Sample,97050,0,"sss_012.ogg",70
Sample,97050,0,"vio_026.ogg",70
Sample,97050,0,"sss_008.ogg",70
Sample,97050,0,"vio_004.ogg",70
Sample,97050,0,"db_10.ogg",70
Sample,97200,0,"hapsi015.ogg",70
Sample,97200,0,"sss_007.ogg",70
Sample,97200,0,"bbp_012.ogg",70
Sample,97200,0,"hapsi017.ogg",70
Sample,97200,0,"Crash.ogg",70
Sample,97200,0,"db_01.ogg",70
Sample,97200,0,"kick3.ogg",70
Sample,97200,0,"bbp_040.ogg",70
Sample,97200,0,"sss_011.ogg",70
Sample,97200,0,"md2-01.ogg",70
Sample,97275,0,"sss_007.ogg",70
Sample,97275,0,"sss_011.ogg",70
Sample,97350,0,"md2-02.ogg",70
Sample,97350,0,"sss_006.ogg",70
Sample,97350,0,"sss_010.ogg",70
Sample,97350,0,"hapsi009.ogg",70
Sample,97350,0,"bbp_075.ogg",70
Sample,97350,0,"kick3.ogg",70
Sample,97350,0,"db_02.ogg",70
Sample,97500,0,"sss_007.ogg",70
Sample,97500,0,"sss_011.ogg",70
Sample,97500,0,"hapsi014.ogg",70
Sample,97500,0,"bbp_108.ogg",70
Sample,97500,0,"db_03.ogg",70
Sample,97500,0,"md2-03.ogg",70
Sample,97500,0,"hapsi016.ogg",70
Sample,97575,0,"sss_007.ogg",70
Sample,97575,0,"sss_011.ogg",70
Sample,97650,0,"sss_010.ogg",70
Sample,97650,0,"md2-04.ogg",70
Sample,97650,0,"db_04.ogg",70
Sample,97650,0,"sss_006.ogg",70
Sample,97650,0,"bbp_116.ogg",70
Sample,97650,0,"kick3.ogg",70
Sample,97650,0,"hapsi009.ogg",70
Sample,97725,0,"db_05.ogg",70
Sample,97800,0,"md2-05.ogg",70
Sample,97800,0,"hapsi017.ogg",70
Sample,97800,0,"db_06.ogg",70
Sample,97800,0,"hapsi015.ogg",70
Sample,97800,0,"sss_007.ogg",70
Sample,97800,0,"sss_011.ogg",70
Sample,97875,0,"sss_011.ogg",70
Sample,97875,0,"db_07.ogg",70
Sample,97875,0,"sss_007.ogg",70
Sample,97950,0,"db_08.ogg",70
Sample,97950,0,"sss_010.ogg",70
Sample,97950,0,"hapsi009.ogg",70
Sample,97950,0,"sss_006.ogg",70
Sample,97950,0,"kick3.ogg",70
Sample,97968,0,"bbp_128.ogg",70
Sample,98100,0,"db_09.ogg",70
Sample,98100,0,"hapsi016.ogg",70
Sample,98100,0,"hapsi018.ogg",70
Sample,98100,0,"sss_007.ogg",70
Sample,98100,0,"md2-06.ogg",70
Sample,98100,0,"sss_011.ogg",70
Sample,98175,0,"sss_011.ogg",70
Sample,98175,0,"sss_007.ogg",70
Sample,98250,0,"sss_010.ogg",70
Sample,98250,0,"vio_022.ogg",70
Sample,98250,0,"db_10.ogg",70
Sample,98250,0,"vio_002.ogg",70
Sample,98250,0,"sss_006.ogg",70
Sample,98250,0,"hapsi009.ogg",70
Sample,98250,0,"md2-07.ogg",70
Sample,98250,0,"vio_011.ogg",70
Sample,98400,0,"md2-08.ogg",70
Sample,98400,0,"bbp_048.ogg",70
Sample,98400,0,"db_01.ogg",70
Sample,98400,0,"kick3.ogg",70
Sample,98400,0,"sss_013.ogg",70
Sample,98400,0,"bbp_016.ogg",70
Sample,98400,0,"hapsi016.ogg",70
Sample,98400,0,"sss_009.ogg",70
Sample,98400,0,"hapsi018.ogg",70
Sample,98475,0,"sss_009.ogg",70
Sample,98475,0,"sss_013.ogg",70
Sample,98550,0,"sss_012.ogg",70
Sample,98550,0,"db_02.ogg",70
Sample,98550,0,"md2-09.ogg",70
Sample,98550,0,"bbp_092.ogg",70
Sample,98550,0,"kick3.ogg",70
Sample,98550,0,"sss_008.ogg",70
Sample,98550,0,"hapsi010.ogg",70
Sample,98700,0,"hapsi017.ogg",70
Sample,98700,0,"sss_013.ogg",70
Sample,98700,0,"db_03.ogg",70
Sample,98700,0,"bbp_122.ogg",70
Sample,98700,0,"sss_009.ogg",70
Sample,98700,0,"md2-10.ogg",70
Sample,98700,0,"hapsi015.ogg",70
Sample,98775,0,"sss_009.ogg",70
Sample,98775,0,"sss_013.ogg",70
Sample,98850,0,"sss_008.ogg",70
Sample,98850,0,"hapsi010.ogg",70
Sample,98850,0,"sss_012.ogg",70
Sample,98850,0,"db_04.ogg",70
Sample,98850,0,"bbp_136.ogg",70
Sample,98850,0,"kick3.ogg",70
Sample,98925,0,"db_05.ogg",70
Sample,99000,0,"sss_009.ogg",70
Sample,99000,0,"hapsi016.ogg",70
Sample,99000,0,"md2-11.ogg",70
Sample,99000,0,"hapsi014.ogg",70
Sample,99000,0,"sss_013.ogg",70
Sample,99000,0,"db_06.ogg",70
Sample,99075,0,"md2-12.ogg",70
Sample,99075,0,"db_07.ogg",70
Sample,99075,0,"sss_013.ogg",70
Sample,99075,0,"sss_009.ogg",70
Sample,99150,0,"kick3.ogg",70
Sample,99150,0,"sss_008.ogg",70
Sample,99150,0,"md2-13.ogg",70
Sample,99150,0,"bbp_142.ogg",70
Sample,99150,0,"hapsi010.ogg",70
Sample,99150,0,"sss_012.ogg",70
Sample,99150,0,"db_08.ogg",70
Sample,99225,0,"md2-14.ogg",70
Sample,99300,0,"md2-15.ogg",70
Sample,99300,0,"hapsi015.ogg",70
Sample,99300,0,"sss_013.ogg",70
Sample,99300,0,"sss_009.ogg",70
Sample,99300,0,"hapsi017.ogg",70
Sample,99300,0,"db_09.ogg",70
Sample,99375,0,"sss_013.ogg",70
Sample,99375,0,"md2-16.ogg",70
Sample,99375,0,"sss_009.ogg",70
Sample,99450,0,"vio_006.ogg",70
Sample,99450,0,"sss_008.ogg",70
Sample,99450,0,"vio_000.ogg",70
Sample,99450,0,"sss_012.ogg",70
Sample,99450,0,"vio_013.ogg",70
Sample,99450,0,"db_10.ogg",70
Sample,99450,0,"md2-17.ogg",70
Sample,99450,0,"hapsi010.ogg",70
Sample,99525,0,"md2-18.ogg",70
Sample,99600,0,"hapsi014.ogg",70
Sample,99600,0,"kick3.ogg",70
Sample,99600,0,"md2-19.ogg",70
Sample,99600,0,"db_01.ogg",70
Sample,99600,0,"bbp_029.ogg",70
Sample,99750,0,"bbp_053.ogg",70
Sample,99750,0,"kick3.ogg",70
Sample,99750,0,"hapsi006.ogg",70
Sample,99750,0,"db_02.ogg",70
Sample,99750,0,"md2-20.ogg",70
Sample,99900,0,"hapsi015.ogg",70
Sample,99900,0,"md2-21.ogg",70
Sample,99900,0,"bbp_073.ogg",70
Sample,99900,0,"db_03.ogg",70
Sample,100050,0,"bbp_081.ogg",70
Sample,100050,0,"md2-22.ogg",70
Sample,100050,0,"db_04.ogg",70
Sample,100050,0,"hapsi006.ogg",70
Sample,100050,0,"kick5.ogg",70
Sample,100125,0,"kick5.ogg",70
Sample,100125,0,"db_05.ogg",70
Sample,100200,0,"hapsi016.ogg",70
Sample,100200,0,"md2-23.ogg",70
Sample,100200,0,"db_06.ogg",70
Sample,100200,0,"kick3.ogg",70
Sample,100275,0,"kick5.ogg",70
Sample,100275,0,"db_07.ogg",70
Sample,100350,0,"hapsi006.ogg",70
Sample,100350,0,"kick5.ogg",70
Sample,100350,0,"bbp_097.ogg",70
Sample,100350,0,"db_08.ogg",70
Sample,100425,0,"kick5.ogg",70
Sample,100500,0,"hapsi017.ogg",70
Sample,100500,0,"kick5.ogg",70
Sample,100500,0,"md2-19.ogg",70
Sample,100500,0,"db_09.ogg",70
Sample,100575,0,"kick5.ogg",70
Sample,100650,0,"db_10.ogg",70
Sample,100650,0,"hapsi006.ogg",70
Sample,100650,0,"md2-20.ogg",70
Sample,100650,0,"bbp_106.ogg",70
Sample,100650,0,"kickgl3.ogg",70
Sample,100687,0,"kickgl3.ogg",70
Sample,100725,0,"kickgl3.ogg",70
Sample,100762,0,"kickgl3.ogg",70
Sample,100800,0,"bbp_024.ogg",70
Sample,100800,0,"bbp_007.ogg",70
Sample,100800,0,"dbk.ogg",70
Sample,102600,0,"vio_012.ogg",70
Sample,103200,0,"bp_200.ogg",70
Sample,103200,0,"bp_077.ogg",70
//Background Colour Transformations
3,100,163,162,255

[TimingPoints]
0,300,4,2,0,70,1,0

[HitObjects]
329,192,1200,1,0,0:0:0:70:iph-02.ogg
475,192,1200,1,0,0:0:0:70:iph-01.ogg
36,192,2100,1,0,0:0:0:70:iph-04.ogg
182,192,2100,1,0,0:0:0:70:iph-03.ogg
475,192,3600,1,0,0:0:0:70:iph-05.ogg
329,192,4500,1,0,0:0:0:70:iph-06.ogg
256,192,4650,1,0,0:0:0:70:iph-07.ogg
182,192,4800,1,0,0:0:0:70:iph-08.ogg
36,192,5250,1,0,0:0:0:70:iph-09.ogg
109,192,5700,1,0,0:0:0:70:iph-10.ogg
36,192,6000,1,0,0:0:0:70:iph-13.ogg
182,192,6000,1,0,0:0:0:70:iph-12.ogg
402,192,6000,1,0,0:0:0:70:iph-11.ogg
329,192,10200,1,0,0:0:0:70:iph-15.ogg
475,192,10200,1,0,0:0:0:70:iph-14.ogg
256,192,10800,1,0,0:0:0:70:iph-02.ogg
402,192,10800,1,0,0:0:0:70:iph-01.ogg
36,192,11700,1,0,0:0:0:70:iph-04.ogg
182,192,11700,1,0,0:0:0:70:iph-03.ogg
475,192,13200,1,0,0:0:0:70:iph-05.ogg
402,192,14100,1,0,0:0:0:70:iph-06.ogg
329,192,14250,1,0,0:0:0:70:iph-07.ogg
256,192,14400,1,0,0:0:0:70:iph-08.ogg
109,192,14850,1,0,0:0:0:70:iph-09.ogg
182,192,15300,1,0,0:0:0:70:iph-10.ogg
36,192,15600,128,0,17700:0:0:0:70:ivio-01.ogg
109,192,15600,1,0,0:0:0:70:iph-12.ogg
256,192,15600,1,0,0:0:0:70:iph-11.ogg
475,192,17700,128,0,20100:0:0:0:70:ivio-04.ogg
402,192,18000,1,0,0:0:0:70:iph-16.ogg
329,192,18450,1,0,0:0:0:70:iph-17.ogg
256,192,18900,1,0,0:0:0:70:iph-18.ogg
182,192,19200,1,0,0:0:0:70:iph-19.ogg
109,192,19650,1,0,0:0:0:70:iph-20.ogg
36,192,20100,1,0,0:0:0:70:iph-21.ogg
182,192,20400,1,0,0:0:0:70:ss_003.ogg
329,192,20400,1,0,0:0:0:70:ss_007.ogg
182,192,20700,1,0,0:0:0:70:ss_003.ogg
329,192,20700,1,0,0:0:0:70:ss_007.ogg
182,192,20850,1,0,0:0:0:70:ss_003.ogg
329,192,20850,1,0,0:0:0:70:ss_007.ogg
182,192,21150,1,0,0:0:0:70:ss_003.ogg
329,192,21150,1,0,0:0:0:70:ss_007.ogg
182,192,21450,1,0,0:0:0:70:ss_003.ogg
329,192,21450,1,0,0:0:0:70:ss_007.ogg
182,192,21750,1,0,0:0:0:70:ss_002.ogg
329,192,21750,1,0,0:0:0:70:ss_006.ogg
182,192,22200,1,0,0:0:0:70:ss_003.ogg
329,192,22200,1,0,0:0:0:70:ss_007.ogg
109,192,22500,1,0,0:0:0:70:ss_004.ogg
402,192,22500,1,0,0:0:0:70:ss_008.ogg
182,192,22800,1,0,0:0:0:70:ss_001.ogg
329,192,22800,1,0,0:0:0:70:ss_007.ogg
182,192,23100,1,0,0:0:0:70:ss_001.ogg
329,192,23100,1,0,0:0:0:70:ss_007.ogg
182,192,23250,1,0,0:0:0:70:ss_001.ogg
329,192,23250,1,0,0:0:0:70:ss_007.ogg
182,192,23550,1,0,0:0:0:70:ss_001.ogg
329,192,23550,1,0,0:0:0:70:ss_007.ogg
182,192,23850,1,0,0:0:0:70:ss_001.ogg
329,192,23850,1,0,0:0:0:70:ss_007.ogg
182,192,24150,1,0,0:0:0:70:ss_000.ogg
329,192,24150,1,0,0:0:0:70:ss_006.ogg
182,192,24600,1,0,0:0:0:70:ss_001.ogg
329,192,24600,1,0,0:0:0:70:ss_007.ogg
36,192,24900,1,0,0:0:0:70:ss_008.ogg
475,192,24900,1,0,0:0:0:70:ss_012.ogg
109,192,25200,1,0,0:0:0:70:ss_007.ogg
402,192,25200,1,0,0:0:0:70:ss_011.ogg
256,192,25500,1,0,0:0:0:70:ss_005.ogg
182,192,25650,1,0,0:0:0:70:ss_003.ogg
329,192,25650,1,0,0:0:0:70:ss_007.ogg
109,192,25950,1,0,0:0:0:70:ss_005.ogg
402,192,25950,1,0,0:0:0:70:ss_009.ogg
182,192,26250,1,0,0:0:0:70:ss_007.ogg
329,192,26250,1,0,0:0:0:70:ss_011.ogg
36,192,26550,1,0,0:0:0:70:ss_008.ogg
475,192,26550,1,0,0:0:0:70:ss_012.ogg
109,192,27000,1,0,0:0:0:70:ss_007.ogg
402,192,27000,1,0,0:0:0:70:ss_011.ogg
182,192,27300,1,0,0:0:0:70:ss_004.ogg
329,192,27300,1,0,0:0:0:70:ss_008.ogg
109,192,27600,1,0,0:0:0:70:ss_007.ogg
402,192,27600,1,0,0:0:0:70:ss_011.ogg
109,192,27900,1,0,0:0:0:70:ss_006.ogg
402,192,27900,1,0,0:0:0:70:ss_010.ogg
109,192,28350,1,0,0:0:0:70:ss_007.ogg
402,192,28350,1,0,0:0:0:70:ss_011.ogg
109,192,28650,1,0,0:0:0:70:ss_007.ogg
402,192,28650,1,0,0:0:0:70:ss_011.ogg
109,192,28950,1,0,0:0:0:70:ss_006.ogg
402,192,28950,1,0,0:0:0:70:ss_010.ogg
109,192,29400,1,0,0:0:0:70:ss_007.ogg
402,192,29400,1,0,0:0:0:70:ss_011.ogg
36,192,29700,1,0,0:0:0:70:ss_008.ogg
475,192,29700,1,0,0:0:0:70:ss_012.ogg
182,192,30000,1,0,0:0:0:70:ss_003.ogg
329,192,30000,1,0,0:0:0:70:ss_007.ogg
182,192,30300,1,0,0:0:0:70:ss_003.ogg
329,192,30300,1,0,0:0:0:70:ss_007.ogg
182,192,30450,1,0,0:0:0:70:ss_003.ogg
329,192,30450,1,0,0:0:0:70:ss_007.ogg
182,192,30750,1,0,0:0:0:70:ss_003.ogg
329,192,30750,1,0,0:0:0:70:ss_007.ogg
182,192,31050,1,0,0:0:0:70:ss_003.ogg
329,192,31050,1,0,0:0:0:70:ss_007.ogg
182,192,31350,1,0,0:0:0:70:ss_002.ogg
329,192,31350,1,0,0:0:0:70:ss_006.ogg
182,192,31800,1,0,0:0:0:70:ss_003.ogg
329,192,31800,1,0,0:0:0:70:ss_007.ogg
109,192,32100,1,0,0:0:0:70:ss_004.ogg
402,192,32100,1,0,0:0:0:70:ss_008.ogg
182,192,32400,1,0,0:0:0:70:ss_001.ogg
329,192,32400,1,0,0:0:0:70:ss_007.ogg
182,192,32700,1,0,0:0:0:70:ss_001.ogg
329,192,32700,1,0,0:0:0:70:ss_007.ogg
182,192,32850,1,0,0:0:0:70:ss_001.ogg
329,192,32850,1,0,0:0:0:70:ss_007.ogg
182,192,33150,1,0,0:0:0:70:ss_001.ogg
329,192,33150,1,0,0:0:0:70:ss_007.ogg
182,192,33450,1,0,0:0:0:70:ss_001.ogg
329,192,33450,1,0,0:0:0:70:ss_007.ogg
182,192,33750,1,0,0:0:0:70:ss_000.ogg
329,192,33750,1,0,0:0:0:70:ss_006.ogg
182,192,34200,1,0,0:0:0:70:ss_001.ogg
329,192,34200,1,0,0:0:0:70:ss_007.ogg
36,192,34500,1,0,0:0:0:70:ss_008.ogg
475,192,34500,1,0,0:0:0:70:ss_012.ogg
109,192,34800,1,0,0:0:0:70:ss_007.ogg
402,192,34800,1,0,0:0:0:70:ss_011.ogg
256,192,35100,1,0,0:0:0:70:ss_005.ogg
182,192,35250,1,0,0:0:0:70:ss_007.ogg
329,192,35250,1,0,0:0:0:70:ss_003.ogg
109,192,35550,1,0,0:0:0:70:ss_005.ogg
402,192,35550,1,0,0:0:0:70:ss_009.ogg
182,192,35850,1,0,0:0:0:70:ss_007.ogg
329,192,35850,1,0,0:0:0:70:ss_011.ogg
36,192,36150,1,0,0:0:0:70:ss_008.ogg
475,192,36150,1,0,0:0:0:70:ss_012.ogg
109,192,36600,1,0,0:0:0:70:ss_007.ogg
402,192,36600,1,0,0:0:0:70:ss_011.ogg
182,192,36900,1,0,0:0:0:70:ss_004.ogg
329,192,36900,1,0,0:0:0:70:ss_008.ogg
109,192,37200,1,0,0:0:0:70:ss_007.ogg
402,192,37200,1,0,0:0:0:70:ss_011.ogg
109,192,37500,1,0,0:0:0:70:ss_006.ogg
402,192,37500,1,0,0:0:0:70:ss_010.ogg
109,192,37950,1,0,0:0:0:70:ss_007.ogg
402,192,37950,1,0,0:0:0:70:ss_011.ogg
109,192,38250,1,0,0:0:0:70:ss_007.ogg
402,192,38250,1,0,0:0:0:70:ss_011.ogg
109,192,38550,1,0,0:0:0:70:ss_006.ogg
402,192,38550,1,0,0:0:0:70:ss_010.ogg
109,192,39000,1,0,0:0:0:70:ss_007.ogg
402,192,39000,1,0,0:0:0:70:ss_011.ogg
182,192,39300,1,0,0:0:0:70:ss_004.ogg
329,192,39300,1,0,0:0:0:70:ss_008.ogg
475,192,39600,1,0,0:0:0:70:ct01.ogg
402,192,40200,1,0,0:0:0:70:noiz-13.ogg
109,192,40350,1,0,0:0:0:70:noiz-14.ogg
402,192,40500,1,0,0:0:0:70:noiz-15.ogg
109,192,40650,1,0,0:0:0:70:noiz-16.ogg
36,192,40800,1,0,0:0:0:70:ct02.ogg
402,192,41700,1,0,0:0:0:70:noiz-17.ogg
109,192,41850,1,0,0:0:0:70:noiz-18.ogg
475,192,42000,1,0,0:0:0:70:ct01.ogg
109,192,42600,1,0,0:0:0:70:noiz-31.ogg
402,192,42750,1,0,0:0:0:70:noiz-32.ogg
109,192,42900,1,0,0:0:0:70:noiz-33.ogg
402,192,43050,1,0,0:0:0:70:noiz-34.ogg
36,192,43200,1,0,0:0:0:70:ct02.ogg
182,192,43200,1,0,0:0:0:70:bp_127.ogg
256,192,43650,1,0,0:0:0:70:bp_154.ogg
329,192,44100,1,0,0:0:0:70:bp_177.ogg
182,192,44400,1,0,0:0:0:70:bp_148.ogg
475,192,44400,1,0,0:0:0:70:bp_187.ogg
256,192,45150,1,0,0:0:0:70:bp_126.ogg
109,192,45300,1,0,0:0:0:70:bp_106.ogg
256,192,45450,1,0,0:0:0:70:bp_128.ogg
109,192,45600,1,0,0:0:0:70:bp_105.ogg
36,192,45900,1,0,0:0:0:70:bp_085.ogg
182,192,46200,1,0,0:0:0:70:bp_125.ogg
329,192,46500,1,0,0:0:0:70:bp_153.ogg
256,192,46800,1,0,0:0:0:70:bp_123.ogg
475,192,46800,1,0,0:0:0:70:bp_176.ogg
109,192,47250,1,0,0:0:0:70:bp_147.ogg
182,192,47325,1,0,0:0:0:70:bp_164.ogg
329,192,47400,1,0,0:0:0:70:bp_188.ogg
475,192,48000,1,0,0:0:0:70:bp_205.ogg
402,192,48225,1,0,0:0:0:70:bp_203.ogg
329,192,48450,1,0,0:0:0:70:bp_201.ogg
182,192,48600,1,0,0:0:0:70:bp_198.ogg
109,192,48825,1,0,0:0:0:70:bp_195.ogg
36,192,49050,1,0,0:0:0:70:bp_190.ogg
182,192,49200,1,0,0:0:0:70:bp_117.ogg
329,192,49200,1,0,0:0:0:70:bp_167.ogg
36,192,49650,1,0,0:0:0:70:bp_138.ogg
475,192,49650,1,0,0:0:0:70:bp_191.ogg
182,192,49950,1,0,0:0:0:70:bp_103.ogg
36,192,50100,1,0,0:0:0:70:bp_086.ogg
182,192,50250,1,0,0:0:0:70:bp_104.ogg
36,192,50400,1,0,0:0:0:70:bp_015.ogg
109,192,50400,1,0,0:0:0:70:bp_116.ogg
182,192,50700,1,0,0:0:0:70:bp_029.ogg
256,192,50700,1,0,0:0:0:70:bp_153.ogg
256,192,51000,1,0,0:0:0:70:bp_049.ogg
329,192,51000,1,0,0:0:0:70:bp_179.ogg
402,192,51300,1,0,0:0:0:70:bp_143.ogg
475,192,51300,1,0,0:0:0:70:bp_189.ogg
182,192,51600,1,0,0:0:0:70:bp_124.ogg
329,192,51600,1,0,0:0:0:70:bp_178.ogg
109,192,52050,1,0,0:0:0:70:bp_152.ogg
329,192,52125,1,0,0:0:0:70:bp_175.ogg
475,192,52200,1,0,0:0:0:70:bp_193.ogg
256,192,52800,1,0,0:0:0:70:bp_061.ogg
402,192,52800,1,0,0:0:0:70:bp_191.ogg
182,192,53100,1,0,0:0:0:70:bp_099.ogg
329,192,53100,1,0,0:0:0:70:bp_149.ogg
109,192,53400,1,0,0:0:0:70:bp_075.ogg
256,192,53400,1,0,0:0:0:70:bp_125.ogg
36,192,53700,1,0,0:0:0:70:bp_068.ogg
182,192,53700,1,0,0:0:0:70:bp_102.ogg
36,192,54000,1,0,0:0:0:70:bp_073.ogg
256,192,54000,1,0,0:0:0:70:bp_121.ogg
109,192,54450,1,0,0:0:0:70:bp_091.ogg
329,192,54450,1,0,0:0:0:70:bp_136.ogg
182,192,54750,1,0,0:0:0:70:bp_040.ogg
402,192,54750,1,0,0:0:0:70:bp_168.ogg
329,192,55200,1,0,0:0:0:70:bp_055.ogg
475,192,55200,1,0,0:0:0:70:bp_186.ogg
109,192,55500,1,0,0:0:0:70:bp_004.ogg
256,192,55500,1,0,0:0:0:70:bp_089.ogg
182,192,55800,1,0,0:0:0:70:bp_078.ogg
256,192,56025,1,0,0:0:0:70:bp_092.ogg
329,192,56250,1,0,0:0:0:70:bp_107.ogg
36,192,56400,1,0,0:0:0:70:bp_034.ogg
402,192,56400,1,0,0:0:0:70:bp_160.ogg
329,192,56850,1,0,0:0:0:70:bp_144.ogg
182,192,56925,1,0,0:0:0:70:bp_122.ogg
329,192,57000,1,0,0:0:0:70:bp_133.ogg
256,192,57600,1,0,0:0:0:70:bp_161.ogg
109,192,57825,1,0,0:0:0:70:bp_145.ogg
256,192,58050,1,0,0:0:0:70:bp_174.ogg
182,192,58200,1,0,0:0:0:70:bp_131.ogg
402,192,58200,1,0,0:0:0:70:bp_186.ogg
109,192,58500,1,0,0:0:0:70:bp_118.ogg
329,192,58500,1,0,0:0:0:70:bp_180.ogg
36,192,58800,1,0,0:0:0:70:bp_033.ogg
256,192,58800,1,0,0:0:0:70:bp_158.ogg
329,192,59250,1,0,0:0:0:70:bp_054.ogg
475,192,59250,1,0,0:0:0:70:bp_185.ogg
182,192,59550,1,0,0:0:0:70:bp_096.ogg
109,192,59700,1,0,0:0:0:70:bp_083.ogg
182,192,59850,1,0,0:0:0:70:bp_100.ogg
109,192,60000,1,0,0:0:0:70:bp_015.ogg
256,192,60000,1,0,0:0:0:70:bp_116.ogg
182,192,60300,1,0,0:0:0:70:bp_021.ogg
329,192,60300,1,0,0:0:0:70:bp_134.ogg
256,192,60600,1,0,0:0:0:70:bp_033.ogg
475,192,60600,1,0,0:0:0:70:bp_158.ogg
182,192,60900,1,0,0:0:0:70:bp_058.ogg
402,192,60900,1,0,0:0:0:70:bp_137.ogg
109,192,61200,1,0,0:0:0:70:bp_079.ogg
329,192,61200,1,0,0:0:0:70:bp_113.ogg
36,192,61800,1,0,0:0:0:70:bp_024.ogg
256,192,61800,1,0,0:0:0:70:bp_093.ogg
36,192,62400,1,0,0:0:0:70:bp_014.ogg
182,192,62400,1,0,0:0:0:70:bp_109.ogg
109,192,62850,1,0,0:0:0:70:bp_025.ogg
182,192,62850,1,0,0:0:0:70:bp_142.ogg
256,192,63300,1,0,0:0:0:70:bp_045.ogg
329,192,63300,1,0,0:0:0:70:bp_173.ogg
329,192,63600,1,0,0:0:0:70:bp_130.ogg
475,192,63600,1,0,0:0:0:70:bp_183.ogg
36,192,63900,1,0,0:0:0:70:kick3.ogg
36,192,64350,1,0,0:0:0:70:kick3.ogg
329,192,64350,1,0,0:0:0:70:bp_112.ogg
182,192,64500,1,0,0:0:0:70:bp_098.ogg
329,192,64650,1,0,0:0:0:70:bp_114.ogg
36,192,64800,1,0,0:0:0:70:kick3.ogg
182,192,64800,1,0,0:0:0:70:bp_094.ogg
109,192,65100,1,0,0:0:0:70:bp_082.ogg
182,192,65400,1,0,0:0:0:70:bp_119.ogg
256,192,65700,1,0,0:0:0:70:bp_141.ogg
36,192,65850,1,0,0:0:0:70:kick3.ogg
36,192,66000,1,0,0:0:0:70:kick3.ogg
182,192,66000,1,0,0:0:0:70:bp_111.ogg
329,192,66000,1,0,0:0:0:70:bp_159.ogg
36,192,66300,1,0,0:0:0:70:kick3.ogg
182,192,66450,1,0,0:0:0:70:bp_146.ogg
256,192,66525,1,0,0:0:0:70:bp_163.ogg
402,192,66600,1,0,0:0:0:70:bp_182.ogg
36,192,66750,1,0,0:0:0:70:kick3.ogg
36,192,67200,1,0,0:0:0:70:kick3.ogg
475,192,67200,1,0,0:0:0:70:bp_204.ogg
402,192,67425,1,0,0:0:0:70:bp_202.ogg
36,192,67650,1,0,0:0:0:70:kick3.ogg
329,192,67650,1,0,0:0:0:70:bp_199.ogg
36,192,67800,1,0,0:0:0:70:kick3.ogg
256,192,67800,1,0,0:0:0:70:bp_197.ogg
182,192,68025,1,0,0:0:0:70:bp_196.ogg
109,192,68250,1,0,0:0:0:70:bp_190.ogg
36,192,68400,1,0,0:0:0:70:kick3.ogg
256,192,68400,1,0,0:0:0:70:bp_172.ogg
36,192,68700,1,0,0:0:0:70:kick3.ogg
475,192,68850,1,0,0:0:0:70:bp_184.ogg
36,192,69150,1,0,0:0:0:70:kick3.ogg
182,192,69150,1,0,0:0:0:70:bp_095.ogg
109,192,69300,1,0,0:0:0:70:bp_084.ogg
182,192,69450,1,0,0:0:0:70:bp_101.ogg
36,192,69600,1,0,0:0:0:70:kick3.ogg
109,192,69600,1,0,0:0:0:70:bp_108.ogg
182,192,69900,1,0,0:0:0:70:bp_150.ogg
329,192,70200,1,0,0:0:0:70:bp_170.ogg
402,192,70500,1,0,0:0:0:70:bp_192.ogg
36,192,70650,1,0,0:0:0:70:kick3.ogg
36,192,70800,1,0,0:0:0:70:kick3.ogg
182,192,70800,1,0,0:0:0:70:bp_165.ogg
402,192,70800,1,0,0:0:0:70:bp_194.ogg
36,192,71100,1,0,0:0:0:70:kick3.ogg
109,192,71400,1,0,0:0:0:70:bp_132.ogg
329,192,71400,1,0,0:0:0:70:bp_187.ogg
36,192,71550,1,0,0:0:0:70:kick3.ogg
36,192,72000,1,0,0:0:0:70:kick3.ogg
475,192,72000,1,0,0:0:0:70:bp_191.ogg
402,192,72300,1,0,0:0:0:70:bp_171.ogg
36,192,72450,1,0,0:0:0:70:kick3.ogg
256,192,72600,1,0,0:0:0:70:bp_149.ogg
36,192,72900,1,0,0:0:0:70:kick3.ogg
182,192,72900,1,0,0:0:0:70:bp_120.ogg
109,192,73200,1,0,0:0:0:70:bp_097.ogg
475,192,73200,1,0,0:0:0:70:kick3.ogg
475,192,73500,1,0,0:0:0:70:kick3.ogg
182,192,73650,1,0,0:0:0:70:bp_115.ogg
256,192,73950,1,0,0:0:0:70:bp_139.ogg
475,192,73950,1,0,0:0:0:70:kick3.ogg
329,192,74250,1,0,0:0:0:70:bp_169.ogg
402,192,74400,1,0,0:0:0:70:bp_186.ogg
475,192,74400,1,0,0:0:0:70:kick3.ogg
109,192,74700,1,0,0:0:0:70:bp_089.ogg
36,192,75000,1,0,0:0:0:70:bp_078.ogg
109,192,75225,1,0,0:0:0:70:bp_092.ogg
182,192,75450,1,0,0:0:0:70:bp_107.ogg
475,192,75450,1,0,0:0:0:70:kick3.ogg
329,192,75600,1,0,0:0:0:70:bp_160.ogg
475,192,75600,1,0,0:0:0:70:kick3.ogg
475,192,75900,1,0,0:0:0:70:kick3.ogg
256,192,76050,1,0,0:0:0:70:bp_144.ogg
182,192,76125,1,0,0:0:0:70:bp_122.ogg
256,192,76200,1,0,0:0:0:70:bp_133.ogg
475,192,76350,1,0,0:0:0:70:kick3.ogg
329,192,76800,1,0,0:0:0:70:bp_161.ogg
475,192,76800,1,0,0:0:0:70:kick3.ogg
256,192,77025,1,0,0:0:0:70:bp_145.ogg
329,192,77250,1,0,0:0:0:70:bp_174.ogg
475,192,77250,1,0,0:0:0:70:kick3.ogg
402,192,77400,1,0,0:0:0:70:bp_186.ogg
475,192,77400,1,0,0:0:0:70:kick3.ogg
329,192,77700,1,0,0:0:0:70:bp_180.ogg
182,192,78000,1,0,0:0:0:70:bp_158.ogg
475,192,78000,1,0,0:0:0:70:kick3.ogg
475,192,78300,1,0,0:0:0:70:kick3.ogg
402,192,78450,1,0,0:0:0:70:bp_185.ogg
109,192,78750,1,0,0:0:0:70:bp_096.ogg
475,192,78750,1,0,0:0:0:70:kick3.ogg
36,192,78900,1,0,0:0:0:70:bp_083.ogg
109,192,79050,1,0,0:0:0:70:bp_100.ogg
182,192,79200,1,0,0:0:0:70:bp_116.ogg
475,192,79200,1,0,0:0:0:70:kick3.ogg
329,192,79500,1,0,0:0:0:70:bp_162.ogg
256,192,79800,1,0,0:0:0:70:bp_134.ogg
329,192,80100,1,0,0:0:0:70:bp_166.ogg
475,192,80250,1,0,0:0:0:70:kick3.ogg
182,192,80400,1,0,0:0:0:70:bp_113.ogg
475,192,80400,1,0,0:0:0:70:kick3.ogg
475,192,80700,1,0,0:0:0:70:kick3.ogg
36,192,81000,1,0,0:0:0:70:bp_093.ogg
475,192,81150,1,0,0:0:0:70:kick3.ogg
475,192,81600,1,0,0:0:0:70:kick3.ogg
329,192,82200,1,0,0:0:0:70:G01.ogg
182,192,82275,1,0,0:0:0:70:G02.ogg
329,192,82350,1,0,0:0:0:70:G03.ogg
182,192,82425,1,0,0:0:0:70:G04.ogg
475,192,82500,1,0,0:0:0:70:G05.ogg
36,192,82650,128,0,83850:0:0:0:70:vio_032.ogg
256,192,83100,1,0,0:0:0:70:Sn.ogg
402,192,83400,1,0,0:0:0:70:Clap.ogg
256,192,83550,1,0,0:0:0:70:Sn.ogg
182,192,83850,128,0,85050:0:0:0:70:vio_034.ogg
256,192,83850,1,0,0:0:0:70:Sn.ogg
109,192,84300,1,0,0:0:0:70:Sn.ogg
329,192,84600,1,0,0:0:0:70:Clap.ogg
109,192,84900,1,0,0:0:0:70:Sn.ogg
402,192,85050,128,0,86850:0:0:0:70:vio_037.ogg
475,192,85500,1,0,0:0:0:70:Sn.ogg
256,192,85800,1,0,0:0:0:70:Clap.ogg
475,192,85950,1,0,0:0:0:70:Sn.ogg
475,192,86250,1,0,0:0:0:70:Sn.ogg
329,192,86700,1,0,0:0:0:70:Sn.ogg
109,192,86850,128,0,87450:0:0:0:70:vio_035.ogg
182,192,87000,1,0,0:0:0:70:Clap.ogg
329,192,87300,1,0,0:0:0:70:Sn.ogg
402,192,87450,128,0,88650:0:0:0:70:vio_038.ogg
36,192,87900,1,0,0:0:0:70:Sn.ogg
475,192,88200,1,0,0:0:0:70:Clap.ogg
36,192,88350,1,0,0:0:0:70:Sn.ogg
109,192,88650,128,0,89250:0:0:0:70:vio_035.ogg
256,192,89100,1,0,0:0:0:70:Sn.ogg
475,192,89250,128,0,89850:0:0:0:70:vio_043.ogg
402,192,89400,1,0,0:0:0:70:Clap.ogg
256,192,89700,1,0,0:0:0:70:Sn.ogg
329,192,89850,128,0,91050:0:0:0:70:vio_040.ogg
402,192,90300,1,0,0:0:0:70:Sn.ogg
36,192,90600,1,0,0:0:0:70:Clap.ogg
402,192,90750,1,0,0:0:0:70:Sn.ogg
182,192,91050,128,0,92250:0:0:0:70:vio_038.ogg
402,192,91050,1,0,0:0:0:70:Sn.ogg
475,192,91500,1,0,0:0:0:70:Sn.ogg
109,192,91800,1,0,0:0:0:70:Clap.ogg
475,192,92100,1,0,0:0:0:70:Sn.ogg
256,192,92250,128,0,93450:0:0:0:70:vio_046.ogg
182,192,92700,1,0,0:0:0:70:Sn.ogg
402,192,93000,1,0,0:0:0:70:Clap.ogg
182,192,93150,1,0,0:0:0:70:Sn.ogg
182,192,93450,1,0,0:0:0:70:Sn.ogg
475,192,93450,128,0,94650:0:0:0:70:vio_047.ogg
36,192,93600,1,0,0:0:0:70:Crashcut3.ogg
329,192,93600,1,0,0:0:0:70:Sn.ogg
36,192,93825,1,0,0:0:0:70:Crashcut3.ogg
329,192,93825,1,0,0:0:0:70:Sn.ogg
36,192,94050,1,0,0:0:0:70:Crashcut3.ogg
329,192,94050,1,0,0:0:0:70:Sn.ogg
36,192,94200,1,0,0:0:0:70:Crashcut3.ogg
329,192,94200,1,0,0:0:0:70:Sn.ogg
36,192,94425,1,0,0:0:0:70:Crashcut3.ogg
329,192,94425,1,0,0:0:0:70:Sn.ogg
36,192,94650,1,0,0:0:0:70:Crashcut3.ogg
329,192,94650,1,0,0:0:0:70:Sn.ogg
402,192,94650,128,0,96450:0:0:0:70:vio_042.ogg
182,192,95400,1,0,0:0:0:70:Clap.ogg
256,192,95550,1,0,0:0:0:70:Sn.ogg
256,192,95850,1,0,0:0:0:70:Sn.ogg
475,192,96300,1,0,0:0:0:70:Sn.ogg
329,192,96450,128,0,97050:0:0:0:70:vio_039.ogg
109,192,96600,1,0,0:0:0:70:Clap.ogg
475,192,96900,1,0,0:0:0:70:Sn.ogg
182,192,97050,128,0,98250:0:0:0:70:vio_034.ogg
36,192,97500,1,0,0:0:0:70:Sn.ogg
402,192,97800,1,0,0:0:0:70:Clap.ogg
36,192,97950,1,0,0:0:0:70:Sn.ogg
36,192,98250,1,0,0:0:0:70:Sn.ogg
109,192,98250,128,0,99450:0:0:0:70:vio_032.ogg
329,192,98700,1,0,0:0:0:70:Sn.ogg
182,192,99000,1,0,0:0:0:70:Clap.ogg
329,192,99300,1,0,0:0:0:70:Sn.ogg
36,192,99450,128,0,103275:0:0:0:70:vio_024.ogg
475,192,99900,1,0,0:0:0:70:Sn.ogg
402,192,100200,1,0,0:0:0:70:Clap.ogg
475,192,100350,1,0,0:0:0:70:Sn.ogg
475,192,100650,1,0,0:0:0:70:Sn.ogg
475,192,103275,1,0,0:0:0:70:bp_206.ogg
