osu file format v9

[General]
AudioFilename: chaolingshen.mp3
AudioLeadIn: 0
PreviewTime: 9339
Countdown: 0
SampleSet: Soft
StackLeniency: 0.7
Mode: 0
LetterboxInBreaks: 1

[Editor]
Bookmarks: 79384
DistanceSpacing: 0.7
BeatDivisor: 4
GridSize: 4

[Metadata]
Title:CassiopeiA
Artist:Lunatic Sounds (feat.eFeL)
Creator:Shiirn
Version:Another
Source:BMS
Tags:Zelos DaxMasterix Sync Backfire Masquerade BMS of Fighters 2011

[Difficulty]
HPDrainRate:7
CircleSize:4
OverallDifficulty:8
ApproachRate:8
SliderMultiplier:1.86
SliderTickRate:1

[Events]
//Background and Video events
0,0,"19543D3D4E709DE61635DC.png"
Video,0,"time.flv"
//Break Periods
2,7825,10303
2,54584,55968
2,79584,80968
//Storyboard Layer 0 (Background)
//Storyboard Layer 1 (Fail)
//Storyboard Layer 2 (Pass)
//Storyboard Layer 3 (Foreground)
//Storyboard Sound Samples
//Background Colour Transformations
3,100,163,162,255

[TimingPoints]
3125,750,4,2,0,35,1,0
7625,1714.28571428571,4,2,0,35,1,0
11053,333.333333333333,4,2,0,50,1,0
11053,-200,4,2,0,50,0,0
11386,333.333333333333,4,2,1,65,1,0
21385,-100,4,2,0,65,0,0
21719,-100,4,2,1,65,0,0
21802,-100,4,2,0,65,0,0
22052,-100,4,2,1,100,0,0
22135,-100,4,2,1,65,0,0
30052,-100,4,2,1,50,0,0
31219,-100,4,2,1,35,0,0
32719,666.666666666667,4,2,2,25,1,0
32885,-100,4,2,0,35,0,0
43385,333.333333333333,4,2,0,65,1,0
46051,-100,4,2,1,65,0,0
54384,-100,4,2,0,65,0,0
54492,-100,4,2,1,65,0,0
56718,-100,4,2,1,30,0,0
58051,-100,4,2,1,65,0,1
58343,-100,4,2,1,65,0,0
58384,-100,4,2,1,65,0,1
58426,-100,4,2,1,65,0,0
89384,-100,4,2,0,65,0,0
89718,-100,4,2,1,65,0,0
89884,-100,4,2,0,65,0,0
90051,-100,4,2,1,65,0,0
98051,-200,4,2,0,65,0,0
98218,-200,4,2,1,25,0,0
100718,-100,4,2,2,65,0,0

[Colours]
Combo1 : 214,139,173
Combo2 : 34,221,202
Combo3 : 28,61,217
Combo4 : 140,49,196

[HitObjects]
72,184,3125,6,0,B|112:136|200:144,1,139.5,2|0
256,192,4062,1,0
440,200,4625,6,0,B|400:248|312:240,1,139.5,2|0
256,192,5562,1,0
184,88,5937,1,0
184,88,6125,6,0,B|144:144|56:144,1,139.5,2|0
72,48,7250,1,0
256,40,7625,1,2
256,161,11053,6,2,B|256:80,1,81.375,0|0
256,80,11386,6,0,B|216:56|168:56,1,93,6|0
160,144,11719,1,8
256,192,11886,1,0
352,240,12052,1,2
255,303,12219,2,0,B|296:328|344:328,1,93,0|8
376,328,12469,1,0
406,316,12552,1,0
434,301,12635,1,0
448,272,12719,6,0,B|432:224|448:176,1,93,2|0
368,112,13052,1,8
248,40,13219,2,0,B|291:54|339:38,1,93,0|2
288,128,13552,2,0,B|303:175|289:219,1,93,0|8
184,176,13885,5,0
184,176,13969,1,0
184,176,14052,2,0,B|136:192|96:160,1,93,2|0
24,256,14385,1,8
24,256,14552,2,0,B|72:240|112:272,1,93,0|2
200,344,14885,1,0
307,327,15052,2,0,B|364:324|385:285,1,93,8|0
420,192,15385,6,0,B|452:228|500:232,2,93,2|0|8
376,84,15885,1,0
376,84,15969,1,0
376,84,16052,2,0,B|344:120|296:124,1,93,2|0
176,76,16385,2,0,B|124:76|92:112,1,93,8|0
44,220,16719,5,2
168,184,16885,1,0
44,220,17052,2,0,B|52:264|96:296,1,93,8|0
128,284,17302,1,0
160,280,17385,1,2
188,296,17469,1,0
204,324,17552,1,2
308,324,17719,5,8
324,296,17802,1,0
352,280,17886,1,0
384,284,17969,1,0
416,296,18052,2,0,B|456:276|464:220,1,93,2|0
352,196,18385,2,0,B|312:172|304:120,1,93,8|0
160,196,18719,2,0,B|200:172|208:120,1,93,2|0
96,296,19052,2,0,B|56:276|48:220,1,93,8|0
176,348,19385,5,2
256,288,19552,2,0,B|256:240,2,46.5,0|0|8
336,348,19885,1,0
368,340,19969,1,0
396,324,20052,1,2
416,300,20135,1,0
444,312,20219,2,0,B|440:264|408:228,1,93,0|8
324,180,20552,1,0
344,96,20719,5,2
312,92,20802,1,0
280,84,20885,2,0,B|236:96|188:88,1,93,0|8
80,52,21219,1,0
68,84,21302,1,0
72,116,21385,1,2
88,144,21469,1,0
100,176,21552,1,2
104,208,21635,1,0
100,240,21719,1,8
91,271,21802,1,0
70,296,21885,1,2
40,310,21969,1,0
10,322,22052,6,0,B|58:334|86:374,1,93,4|0
168,336,22385,2,0,B|204:304|192:248,1,93,8|0
320,251,22719,1,2
320,251,22802,1,0
320,251,22885,2,0,B|308:303|344:335,1,93,0|8
432,312,23219,1,2
432,200,23385,6,0,B|464:172|500:192|497:227,1,93,2|0
392,140,23719,2,0,B|434:135|452:172|429:199,1,93,8|0
280,148,24052,1,2
280,148,24135,1,0
280,148,24219,2,0,B|240:168|188:160,2,93,0|8|0
88,95,24719,6,0,B|128:76|178:83,2,93,2|0|8
32,160,25219,1,0
40,176,25302,1,0
48,192,25385,1,2
56,208,25469,1,0
64,224,25552,1,0
72,240,25635,1,0
80,256,25719,2,0,B|128:288,3,46.5,8|0|0|0
119,304,26052,6,0,B|221:294,1,93,2|0
296,288,26385,1,8
144,224,26552,2,0,B|245:214,1,93,0|2
320,207,26885,1,0
264,144,27052,1,8
242,119,27135,1,2
226,90,27219,1,2
225,57,27302,1,2
239,27,27385,6,0,B|292:32|322:62,1,93,2|0
400,72,27719,1,8
480,104,27885,1,0
408,168,28052,1,2
372,264,28219,1,0
472,240,28385,1,8
408,168,28552,1,0
320,160,28719,6,0,B|280:208|208:208,1,93,2|0
168,144,29052,1,8
168,144,29135,1,0
168,144,29219,2,0,B|72:152,1,93,2|2
0,232,29552,1,2
0,232,29635,1,0
0,232,29719,2,0,B|96:224,1,93,8|0
120,304,30052,5,2
216,336,30219,1,0
320,304,30385,1,8
336,200,30552,1,0
264,252,30719,5,2
264,252,30802,1,2
264,252,30885,1,2
264,252,30969,1,2
264,252,31052,1,10
264,252,31135,1,2
264,252,31219,6,2,B|280:272,4,23.25
184,88,32719,6,0,B|124:40|52:68,1,139.5,6|0
328,296,34052,2,0,B|388:344|460:316,1,139.5,2|0
472,88,35052,1,0
472,88,35385,2,0,B|412:40|340:68,1,139.5,0|2
268,132,36219,5,0
164,96,36552,1,2
40,264,37052,1,0
96,332,37385,1,0
184,296,37719,1,0
256,344,38052,6,0,B|300:360|344:320|393:337,1,139.5,0|2
255,39,39385,2,0,B|212:24|168:64|118:46,1,139.5,0|2
32,180,40385,1,0
80,292,40719,1,0
80,292,40885,5,2
168,340,41219,1,0
264,292,41552,1,2
356,344,41885,2,0,B|396:324|420:280,1,93
476,240,42385,1,2
412,168,42719,1,0
328,216,43052,1,2
204,268,43385,5,4
200,176,43718,1,2
227,159,43801,1,0
249,134,43885,1,0
258,102,43968,1,0
248,70,44051,1,2
261,40,44135,1,0
292,31,44218,1,0
324,27,44301,1,0
356,32,44385,1,2
384,47,44468,1,2
408,68,44551,1,2
429,93,44635,1,2
445,120,44718,6,0,B|488:200|458:300,1,186,2|0
359,256,45218,1,0
331,273,45301,1,0
302,289,45385,1,2
270,280,45468,1,0
255,251,45551,1,0
227,233,45635,1,0
194,237,45718,1,2
171,260,45801,1,0
143,278,45885,1,2
111,285,45968,1,0
89,309,46051,5,10
32,128,46385,5,2
32,128,46551,1,10
480,128,46885,1,2
256,352,47218,1,8
256,0,47551,5,2
256,192,47884,1,2
192,256,48051,1,10
232,104,48301,1,2
343,215,48551,2,0,B|384:224,3,23.25,2|2|2|2
384,224,48718,6,0,B|384:128,1,93,6|2
464,192,49051,2,8,B|464:64,1,93,8|2
256,24,49384,2,0,B|256:120,1,93,0|2
176,56,49717,2,0,B|176:184,1,93,8|2
40,184,50051,5,6
64,272,50218,1,2
176,352,50384,5,8
168,264,50551,1,2
344,264,50718,5,2
336,352,50885,1,2
448,272,51051,5,8
472,184,51218,1,2
392,192,51384,5,2
381,176,51468,1,0
370,160,51551,1,2
356,146,51634,1,0
341,134,51718,1,8
325,123,51801,1,0
308,114,51884,1,2
291,105,51968,1,0
273,99,52051,1,2
255,94,52134,1,0
236,90,52218,1,2
217,88,52301,1,0
198,88,52384,1,10
179,90,52468,1,0
160,92,52551,1,2
142,97,52634,1,0
128,104,52718,5,6
110,107,52801,1,0
113,132,52884,1,2
94,145,52968,1,4
102,170,53051,1,2
85,184,53134,1,0
98,209,53218,1,6
82,225,53301,1,0
98,241,53384,1,6
85,265,53468,1,0
102,279,53551,1,6
94,304,53634,1,0
113,317,53718,1,6
110,342,53801,1,0
128,346,53884,6,0,B|160:352,3,23.25,2|2|2|2
256,360,54384,5,2
256,359,56718,6,2,B|296:336|345:343,1,93
448,312,57051,1,8
480,208,57218,1,2
480,208,57301,1,2
480,208,57384,2,2,B|430:200|390:224,1,93
272,240,57718,1,0
256,216,57801,1,0
240,192,57884,2,0,B|224:168,3,23.25
208,144,58051,6,0,B|112:144,1,93,12|2
32,144,58384,2,0,B|24:192|56:296|32:368,1,186,8|2
120,256,58884,1,8
200,352,59051,1,8
208,328,59134,1,0
224,304,59218,1,2
248,288,59301,1,0
272,280,59384,6,0,B|312:256|320:200,1,93,2|0
304,88,59718,2,0,B|264:112|256:168,1,93,8|0
400,192,60051,1,2
400,192,60134,1,0
400,192,60218,2,0,B|440:168|448:112,2,93,0|8|0
424,332,60718,6,0,B|380:356|336:332,1,93,2|0
320,316,60968,1,0
300,304,61051,2,0,B|256:280|212:304,1,93,8|0
192,316,61301,1,0
172,324,61384,2,0,B|120:348,3,46.5,2|0|0|0
108,336,61718,1,8
88,324,61801,1,0
72,308,61884,1,2
64,284,61968,1,0
64,260,62051,6,0,B|64:208,2,46.5,2|0|2
176,232,62384,2,0,B|180:140,1,93,8|0
331,139,62718,2,0,B|336:232,1,93,2|0
448,213,63051,2,0,B|448:260,3,46.5,8|2|2|2
472,292,63384,6,0,B|444:328|392:336,1,93,2|0
284,332,63718,1,8
328,224,63884,1,0
196,152,64051,1,2
196,152,64134,1,0
196,152,64218,2,0,B|164:184|108:168,1,93,0|8
88,156,64468,1,0
64,148,64551,1,0
40,148,64634,1,2
20,160,64718,6,0,B|0:200|8:252,1,93,2|0
0,342,65051,2,0,B|19:310|8:252,1,93,8|0
88,140,65384,2,0,B|108:180|100:232,1,93,2|0
107,322,65717,2,0,B|88:290|100:232,1,93,8|2
256,336,66051,5,2
248,316,66134,1,0
248,292,66218,1,2
252,268,66301,1,0
260,248,66384,2,0,B|348:272,1,93,8|0
324,220,66634,1,0
324,220,66718,2,0,B|412:244,1,93,2|2
488,188,67051,1,8
496,168,67134,1,0
496,144,67218,1,0
492,120,67301,1,0
484,100,67384,6,0,B|396:124,1,93,2|2
316,96,67718,1,8
316,96,67801,1,0
316,96,67884,2,0,B|228:120,2,93,0|2|0
312,192,68384,1,8
312,192,68468,1,0
312,192,68551,1,0
312,192,68634,1,0
312,192,68718,6,0,B|320:288,1,93,2|2
300,280,68968,1,0
280,272,69051,2,0,B|288:368,1,93,8|0
172,324,69384,2,0,B|200:276,3,46.5,2|0|0|0
172,324,69718,2,0,B|124:328|80:308,1,93,8|0
36,236,70051,6,0,B|72:152,1,93,2|0
196,188,70384,2,0,B|160:92,1,93,8|0
316,188,70718,1,2
316,188,70801,1,0
316,188,70884,2,0,B|352:92,2,93,2|8|0
340,216,71301,1,0
380,236,71384,6,0,B|400:276|376:328,1,93,2|0
336,332,71634,1,0
296,348,71718,2,0,B|256:328|200:344,1,93,8|0
168,332,71968,1,0
128,320,72051,2,0,B|84:324|40:292,1,93,2|8
24,240,72301,1,0
48,204,72384,2,0,B|92:176,3,46.5,8|0|0|0
116,164,72718,6,0,B|160:176|188:224,1,93,2|0
256,284,73051,2,8,B|256:100,1,186,8|2
325,221,73551,2,0,B|352:176|396:164,2,93,0|8|0
416,268,74051,6,0,B|456:248|476:196,1,93,2|2
456,92,74384,1,8
344,68,74551,1,0
311,65,74634,1,0
284,84,74718,1,0
267,111,74801,1,0
260,142,74884,2,0,B|262:188|304:219,2,93,2|8|2
168,184,75384,5,0
185,211,75467,1,0
192,242,75550,2,0,B|190:288|148:319,2,93,2|8|2
88,256,76051,2,0,B|136:348|244:344,1,186,2|8
300,280,76551,1,0
300,280,76634,1,0
300,280,76718,6,2,B|352:300|392:280,1,93
440,192,77051,1,8
440,192,77134,1,0
440,192,77218,2,0,B|348:192,1,93,0|2
390,103,77551,2,2,B|352:84|300:104,2,93,2|8|2
252,36,78051,6,0,B|188:112,1,93,2|0
44,192,78384,1,8
44,192,78468,1,0
44,192,78551,1,2
64,340,78718,1,2
64,340,78801,1,0
64,340,78884,1,2
64,340,78968,1,0
64,340,79051,2,0,B|108:328|156:348,1,93,8|0
224,216,79384,5,4
224,216,81718,5,0
224,216,81884,1,0
224,216,82051,1,0
248,312,82218,5,0
248,312,82301,1,0
248,312,82384,2,0,B|280:276|336:280,1,93,8|0
472,200,82718,1,2
472,200,82801,1,0
472,200,82884,2,0,B|440:236|384:232,1,93,0|8
400,136,83218,1,8
328,80,83384,6,0,B|308:120|248:128,1,93,2|2
104,80,83718,1,8
104,80,83801,1,0
104,80,83884,2,0,B|120:176,1,93,0|2
24,216,84218,1,0
24,216,84301,1,0
24,216,84384,2,0,B|110:260,1,93,8|2
152,344,84718,5,2
248,296,84884,1,0
216,184,85051,1,8
328,96,85218,1,0
339,116,85301,1,0
347,137,85384,1,2
349,160,85468,1,0
356,178,85551,2,0,B|345:230|387:259,1,93,8|8
393,268,85801,1,0
393,268,85884,1,0
320,344,86051,6,0,B|272:328|264:272,1,93,2|2
128,264,86384,2,0,B|176:248|184:192,1,93,8|0
120,96,86718,1,2
113,118,86801,1,0
94,132,86884,1,2
71,125,86968,1,0
59,104,87051,2,0,B|37:146|60:207,1,93,8|2
48,304,87384,6,0,B|136:344,1,93,2|8
248,336,87718,2,0,B|280:296|272:248,1,93,8|2
264,48,88051,1,2
264,48,88134,1,0
264,48,88218,2,0,B|232:88|240:136,1,93,2|8
360,104,88551,1,0
480,184,88718,5,2
480,184,88801,1,0
480,184,88884,2,0,B|432:168|408:232,1,93,2|8
344,312,89218,1,0
336,292,89301,1,0
312,288,89384,1,2
295,304,89468,1,0
273,313,89551,1,2
250,318,89634,1,0
226,318,89718,1,8
202,315,89801,1,0
179,309,89884,1,2
157,299,89968,1,0
134,303,90051,6,0,B|181:299|203:245,1,93,6|2
104,208,90384,1,8
72,128,90551,2,0,B|120:136|176:112,1,93,0|2
280,88,90884,1,2
280,88,90968,1,0
280,88,91051,2,0,B|336:160,1,93,8|8
432,136,91384,5,2
488,216,91551,1,0
400,240,91718,1,8
424,320,91884,1,0
328,296,92051,2,0,B|268:332|192:352,2,139.5,2|2|2
280,224,92718,6,0,B|224:256|160:256,1,93,2|2
160,232,92968,1,0
128,208,93051,2,0,B|88:304,1,93,8|2
8,216,93384,2,0,B|40:184|32:128,1,93,2|0
48,96,93634,1,2
80,80,93718,2,0,B|128:80|128:80|176:96,1,93,8|2
256,56,94051,5,2
256,56,94134,1,0
256,56,94218,2,0,B|288:88|352:80,1,93,2|8
288,200,94551,1,0
288,200,94634,1,0
288,200,94718,2,0,B|332:205|378:159,1,93,2|8
401,293,95051,1,10
401,293,95134,1,2
401,293,95217,1,2
401,293,95300,1,2
401,293,95384,6,0,B|439:269|447:205,1,93,2|8
448,112,95718,2,0,B|408:136|352:120,1,93,8|0
248,112,96051,1,2
144,152,96218,1,2
232,208,96384,1,8
184,304,96551,1,2
288,320,96718,5,2
296,328,96801,1,0
304,336,96884,2,0,B|352:248,1,93,2|8
256,224,97218,1,2
248,232,97301,1,0
240,240,97384,2,0,B|192:152,1,93,2|8
141,249,97718,5,2
133,257,97801,1,2
125,265,97884,1,10
117,273,97968,1,2
109,281,98051,2,0,B|34:94|257:-91|481:94|406:281,1,651,2|0
256,208,100718,5,4
