osu file format v12

[General]
AudioFilename: forbidden girl.mp3
AudioLeadIn: 1004
PreviewTime: 57031
Countdown: 0
SampleSet: Normal
StackLeniency: 0.7
Mode: 0
LetterboxInBreaks: 1

[Editor]
DistanceSpacing: 0.9
BeatDivisor: 4
GridSize: 8

[Metadata]
Title:Forbidden Girl Plus A
TitleUnicode:禁断少女プラスA
Artist:Lunachu
ArtistUnicode:るなちゅ
Creator:Chewu
Version:Chewu AR10
Source:
Tags:kagamine rin queen of lollipop vocaloid vocarock
BeatmapID:250429
BeatmapSetID:91869

[Difficulty]
HPDrainRate:6
CircleSize:4
OverallDifficulty:7
ApproachRate:10
SliderMultiplier:2.08
SliderTickRate:1

[Events]
//Background and Video events
0,0,"forbidden.png",0,0
//Break Periods
2,142570,150076
//Storyboard Layer 0 (Background)
//Storyboard Layer 1 (Fail)
//Storyboard Layer 2 (Pass)
//Storyboard Layer 3 (Foreground)
//Storyboard Sound Samples
//Background Colour Transformations
3,100,163,162,255

[TimingPoints]
1400,291.26213592233,4,1,0,100,1,0
1400,-166.666666666667,4,2,0,40,0,0
8390,-153.846153846154,4,2,0,45,0,0
8681,-142.857142857143,4,2,0,50,0,0
8972,-133.333333333333,4,2,0,55,0,0
9264,-125,4,2,0,60,0,0
9555,-117.647058823529,4,2,0,65,0,0
9846,-111.111111111111,4,2,0,70,0,0
10137,-105.263157894737,4,2,0,75,0,0
10429,-105.263157894737,4,1,0,75,0,0
10720,-100,4,1,0,80,0,0
29361,-125,4,2,0,60,0,0
38099,-125,4,1,0,60,0,0
38681,-100,4,1,0,80,0,0
48001,-125,4,2,0,60,0,0
57176,-83.3333333333333,4,1,0,100,0,1
66351,-100,4,1,0,80,0,0
66497,-83.3333333333333,4,1,0,100,0,1
75963,-100,4,1,0,80,0,0
85283,-125,4,2,0,60,0,0
94603,-100,4,1,0,80,0,0
122419,-83.3333333333333,4,1,0,100,0,1
131594,-100,4,1,0,80,0,0
131739,-83.3333333333333,4,1,0,100,0,1
141205,-125,4,1,0,60,0,0
159846,-100,4,1,0,80,0,0
178341,-83.3333333333333,4,1,0,100,0,1
187516,-100,4,1,0,80,0,0
187662,-83.3333333333333,4,1,0,100,0,1
197128,-83.3333333333333,4,1,0,100,0,0

[Colours]
Combo1 : 0,217,0
Combo2 : 255,0,128

[HitObjects]
441,82,1400,6,0,P|365:131|330:126,1,124.799996191406
268,93,1836,1,0,0:0:0:0:
71,82,1982,2,0,P|125:154|160:161,1,124.799996191406
229,156,2419,1,0,0:0:0:0:
303,163,2565,2,0,P|383:203|396:236,1,124.799996191406
394,306,3001,1,0,0:0:0:0:
286,370,3147,2,0,P|206:330|193:297,1,124.799996191406
200,226,3584,1,0,0:0:0:0:
132,192,3730,6,0,P|96:113|101:92,1,83.1999974609376
115,74,4021,2,0,P|180:77|204:57,1,83.1999974609376
241,59,4312,2,0,P|314:89|338:80,1,83.1999974609376
360,105,4603,2,0,P|423:135|437:164,1,83.1999974609376
444,192,4895,2,0,P|437:276|393:308,2,124.799996191406
415,122,5623,1,0,0:0:0:0:
357,74,5768,1,0,0:0:0:0:
282,63,5914,1,0,0:0:0:0:
215,101,6060,6,0,P|158:147|94:131,1,124.799996191406
41,170,6497,1,0,0:0:0:0:
97,219,6642,2,0,P|168:233|197:292,1,124.799996191406
243,330,7079,1,0,0:0:0:0:
294,275,7225,2,0,P|338:216|364:213,1,83.1999974609376
389,197,7516,2,0,P|436:146|435:118,1,83.1999974609376
425,87,7807,2,0,P|352:69|315:21,1,124.799996191406
99,197,8390,6,0,P|185:218|200:245,1,90.133329207357
212,264,8681,2,0,P|279:316|308:317,1,97.0666637044272
350,320,8972,2,0,P|443:287|458:250,1,104.000003967285
485,236,9264,2,0,P|413:161|409:130,1,110.933333333333
395,89,9555,2,0,P|289:125|252:109,1,117.866668914795
227,82,9846,2,0,P|123:77|91:97,1,124.799996191406
68,153,10137,2,0,P|145:232|173:232,1,131.733329815674
216,288,10429,2,0,L|271:269,1,49.3999986808777
308,348,10574,2,0,L|353:303,1,49.3999986808777
418,283,10720,6,0,P|464:209|459:182,1,104,4|0,0:0|0:0,0:0:0:0:
462,197,10938,1,0,0:0:0:0:
462,197,11011,1,0,0:0:0:0:
404,85,11157,1,0,0:0:0:0:
250,69,11302,1,0,0:0:0:0:
324,208,11448,1,0,0:0:0:0:
463,197,11594,1,0,0:0:0:0:
406,336,11739,6,0,P|296:365|219:314,1,208
221,317,12103,1,0,0:0:0:0:
221,317,12176,1,0,0:0:0:0:
145,217,12322,1,0,0:0:0:0:
324,208,12467,1,0,0:0:0:0:
287,55,12613,1,0,0:0:0:0:
268,210,12759,1,0,0:0:0:0:
450,187,12904,1,0,0:0:0:0:
339,130,13050,6,0,L|278:99,1,52,4|0,0:0|0:0,0:0:0:0:
149,100,13196,2,0,L|210:127,1,52
243,180,13341,2,0,P|172:193|126:161,1,104
42,311,13633,1,0,0:0:0:0:
132,200,13778,1,0,0:0:0:0:
206,77,13924,1,0,0:0:0:0:
80,124,14069,6,0,P|124:226|222:215,1,208
208,224,14433,1,0,0:0:0:0:
208,224,14506,1,0,0:0:0:0:
322,173,14652,1,0,0:0:0:0:
292,47,14798,1,0,0:0:0:0:
246,52,14870,1,0,0:0:0:0:
206,78,14943,1,0,0:0:0:0:
338,203,15089,2,0,P|384:240|388:294,1,104
292,359,15380,6,0,L|270:294,1,52,4|0,0:0|0:0,0:0:0:0:
167,347,15526,2,0,L|152:286,1,52
67,291,15671,2,0,P|43:224|60:181,1,104
80,31,15963,1,0,0:0:0:0:
189,126,16108,1,0,0:0:0:0:
294,224,16254,1,0,0:0:0:0:
279,95,16399,6,0,P|162:148|179:251,1,208
158,213,16764,1,0,0:0:0:0:
158,213,16836,1,0,0:0:0:0:
247,300,16982,1,0,0:0:0:0:
356,162,17128,1,0,0:0:0:0:
177,121,17273,1,0,0:0:0:0:
76,264,17419,1,0,0:0:0:0:
177,121,17565,1,0,0:0:0:0:
43,107,17710,5,4,0:0:0:0:
75,73,17783,1,0,0:0:0:0:
115,50,17856,1,0,0:0:0:0:
159,36,17929,1,0,0:0:0:0:
205,31,18001,2,0,P|269:39|308:63,1,104
470,48,18293,1,0,0:0:0:0:
340,150,18438,1,0,0:0:0:0:
443,253,18584,1,0,0:0:0:0:
337,338,18730,6,0,P|213:314|183:222,1,208
182,248,19094,1,0,0:0:0:0:
182,248,19166,1,8,0:0:0:0:
136,131,19312,1,0,0:0:0:0:
225,42,19458,5,8,0:0:0:0:
271,36,19531,1,0,0:0:0:0:
316,44,19603,1,0,0:0:0:0:
355,68,19676,1,0,0:0:0:0:
385,103,19749,1,8,0:0:0:0:
402,146,19822,1,0,0:0:0:0:
402,192,19895,1,0,0:0:0:0:
391,237,19967,1,0,0:0:0:0:
364,276,20040,6,0,L|324:330,1,52,12|0,0:0|0:0,0:0:0:0:
243,309,20186,2,0,L|292:252,1,52
173,206,20332,2,0,P|135:264|93:284,1,104
16,152,20623,1,0,0:0:0:0:
173,206,20768,1,0,0:0:0:0:
257,62,20914,1,0,0:0:0:0:
424,106,21060,6,0,P|388:219|280:227,1,208
310,237,21424,1,0,0:0:0:0:
310,237,21497,1,0,0:0:0:0:
213,159,21642,2,0,L|201:219,1,52
93,121,21788,2,0,L|111:176,1,52
61,241,21933,2,0,L|121:253,1,52
205,327,22079,1,0,0:0:0:0:
213,159,22225,1,0,0:0:0:0:
310,236,22370,5,4,0:0:0:0:
348,219,22443,1,0,0:0:0:0:
380,192,22516,1,0,0:0:0:0:
402,156,22589,1,0,0:0:0:0:
405,114,22662,2,0,P|360:30|370:-4,1,104
200,25,22953,2,0,P|149:105|115:114,1,104
36,205,23244,1,0,0:0:0:0:
149,338,23390,6,0,P|296:309|309:236,1,208
309,273,23754,1,0,0:0:0:0:
309,273,23827,1,0,0:0:0:0:
333,151,23972,2,0,L|280:191,1,52
241,65,24118,2,0,L|213:121,1,52
116,75,24264,2,0,L|129:134,1,52
30,178,24409,2,0,P|95:229|138:221,1,104
279,319,24700,5,4,0:0:0:0:
240,303,24773,1,0,0:0:0:0:
218,267,24846,1,0,0:0:0:0:
209,226,24919,1,0,0:0:0:0:
218,185,24992,2,0,P|238:130|295:99,1,104
429,207,25283,2,0,P|409:262|352:293,1,104
220,354,25574,1,0,0:0:0:0:
227,229,25720,6,0,P|351:297|343:393,1,208
357,350,26084,1,0,0:0:0:0:
357,350,26157,1,0,0:0:0:0:
393,231,26302,1,0,0:0:0:0:
374,65,26448,1,0,0:0:0:0:
338,86,26521,1,0,0:0:0:0:
296,84,26594,1,0,0:0:0:0:
144,73,26739,2,0,P|90:94|58:143,1,104
83,254,27031,5,4,0:0:0:0:
123,259,27103,1,0,0:0:0:0:
163,249,27176,1,0,0:0:0:0:
200,230,27249,1,0,0:0:0:0:
229,200,27322,2,0,P|265:141|261:95,1,104
410,33,27613,1,0,0:0:0:0:
424,188,27759,1,0,0:0:0:0:
410,33,27904,1,0,0:0:0:0:
424,188,28050,6,0,P|361:320|280:328,1,208
312,331,28414,1,0,0:0:0:0:
312,331,28487,1,8,0:0:0:0:
190,299,28633,1,0,0:0:0:0:
170,262,28705,1,0,0:0:0:0:
167,220,28778,1,8,0:0:0:0:
175,179,28851,1,0,0:0:0:0:
195,142,28924,1,0,0:0:0:0:
223,111,28997,1,0,0:0:0:0:
255,86,29069,2,0,P|324:59|366:69,1,104,8|0,0:0|0:0,0:0:0:0:
441,108,29361,5,12,0:0:0:0:
435,207,29506,2,0,P|378:247|380:287,1,83.2
291,310,29798,1,0,0:0:0:0:
191,305,29943,2,0,P|162:206|89:193,1,166.4
34,124,30380,1,0,0:0:0:0:
126,84,30526,2,0,P|228:72|254:2,1,166.4
352,12,30963,5,0,0:0:0:0:
427,76,31108,1,0,0:0:0:0:
450,173,31254,1,0,0:0:0:0:
443,272,31399,1,0,0:0:0:0:
398,361,31545,1,0,0:0:0:0:
110,254,31836,5,0,0:0:0:0:
118,154,31982,2,0,P|145:96|186:79,1,83.2
248,41,32273,1,0,0:0:0:0:
302,124,32419,2,0,P|275:182|234:199,1,83.2
169,233,32710,1,0,0:0:0:0:
80,279,32856,2,0,P|185:341|226:307,1,166.4
283,261,33293,5,0,0:0:0:0:
208,327,33438,2,0,P|184:340|79:278,1,166.4
79,278,33802,1,0,0:0:0:0:
79,278,33875,1,0,0:0:0:0:
84,161,34021,5,0,0:0:0:0:
161,98,34166,1,0,0:0:0:0:
257,122,34312,1,0,0:0:0:0:
302,211,34458,1,0,0:0:0:0:
333,305,34603,2,0,P|390:341|423:332,1,83.2
482,279,34895,5,0,0:0:0:0:
482,279,34967,1,0,0:0:0:0:
482,279,35040,1,0,0:0:0:0:
479,178,35186,2,0,P|422:142|389:151,1,83.2
329,203,35477,5,0,0:0:0:0:
329,203,35550,1,0,0:0:0:0:
329,203,35623,1,0,0:0:0:0:
243,253,35768,2,0,P|176:243|156:215,1,83.2
136,139,36060,2,0,P|202:148|222:176,1,83.2
311,164,36351,2,0,P|377:154|397:126,1,83.2
435,59,36642,5,0,0:0:0:0:
435,59,36715,1,0,0:0:0:0:
435,59,36788,1,0,0:0:0:0:
342,21,36933,2,0,P|275:30|255:58,1,83.2
214,125,37225,5,0,0:0:0:0:
214,125,37298,1,0,0:0:0:0:
214,125,37370,1,0,0:0:0:0:
113,123,37516,2,0,P|68:97|57:67,1,83.2
157,68,37807,5,8,0:0:0:0:
157,68,37880,1,0,0:0:0:0:
157,68,37953,1,0,0:0:0:0:
157,68,38026,5,0,0:0:0:0:
139,96,38099,1,8,0:0:0:0:
129,127,38171,1,0,0:0:0:0:
125,160,38244,1,0,0:0:0:0:
125,193,38317,1,0,0:0:0:0:
129,226,38390,1,8,0:0:0:0:
135,258,38463,1,0,0:0:0:0:
148,288,38535,1,0,0:0:0:0:
166,316,38608,1,0,0:0:0:0:
201,337,38681,6,4,P|322:292|379:363,1,208,12|4,0:0|0:0,0:0:0:0:
451,240,39118,1,0,0:0:0:0:
390,85,39264,6,0,P|269:40|212:111,1,208
139,177,39700,1,0,0:0:0:0:
188,325,39846,6,0,P|309:370|366:299,1,208
431,225,40283,5,0,0:0:0:0:
431,225,40356,1,0,0:0:0:0:
431,225,40429,2,0,L|496:135,1,104
377,92,40720,2,0,L|310:7,1,104
209,91,41011,6,0,P|330:136|387:65,1,208
431,205,41448,1,0,0:0:0:0:
322,317,41594,6,0,P|201:362|144:291,1,208
89,210,42031,1,0,0:0:0:0:
149,61,42176,6,0,P|270:16|327:87,1,208
370,173,42613,5,0,0:0:0:0:
370,173,42686,1,0,0:0:0:0:
370,173,42759,2,0,P|383:237|361:286,1,104
238,244,43050,2,0,P|197:295|145:309,1,104
104,185,43341,2,0,P|42:164|10:120,1,104,4|0,0:0|0:0,0:0:0:0:
5,10,43633,5,0,0:0:0:0:
115,66,43778,1,0,0:0:0:0:
238,86,43924,6,0,P|345:101|392:225,1,208
382,305,44361,1,0,0:0:0:0:
224,370,44506,6,0,P|117:355|70:231,1,208
58,150,44943,5,0,0:0:0:0:
58,150,45016,1,0,0:0:0:0:
58,150,45089,2,0,L|21:31,1,104
151,36,45380,2,0,L|188:155,1,104
76,204,45671,5,0,0:0:0:0:
17,314,45817,2,0,P|68:351|117:332,1,104
200,264,46108,1,0,0:0:0:0:
296,344,46254,6,0,P|408:364|457:274,1,208,0|0,0:0|0:0,0:0:0:0:
475,173,46691,1,0,0:0:0:0:
400,73,46836,6,0,P|296:110|260:92,1,138.666666666667,0|0,0:0|0:0,0:0:0:0:
221,88,47128,2,0,L|80:156,1,138.666666666667,0|0,0:0|0:0,0:0:0:0:
63,193,47419,2,0,P|146:280|238:259,1,208,0|0,0:0|0:0,0:0:0:0:
400,176,48001,6,0,P|311:232|243:205,1,166.4,4|0,0:0|0:0,0:0:0:0:
176,159,48438,1,0,0:0:0:0:
82,123,48584,2,0,P|110:236|175:262,1,166.4
244,278,49021,1,0,0:0:0:0:
341,257,49166,6,0,P|405:169|446:168,1,110.933333333333
440,155,49458,2,0,P|429:63|409:48,1,110.933333333333
384,29,49749,2,0,P|307:99|290:97,1,110.933333333333
270,80,50040,1,0,0:0:0:0:
107,112,50332,6,0,P|172:191|257:179,1,166.4
320,152,50768,1,0,0:0:0:0:
417,173,50914,2,0,P|380:282|312:291,1,166.4
241,285,51351,1,0,0:0:0:0:
140,285,51497,6,0,L|62:179,1,110.933333333333
63,152,51788,2,0,P|155:121|171:96,1,110.933333333333
179,73,52079,2,0,P|257:25|340:58,1,166.4
400,229,52662,6,0,P|332:303|294:302,1,110.933333333333
284,306,52953,2,0,L|188:226,1,110.933333333333
163,208,53244,2,0,L|66:298,1,110.933333333333
43,306,53535,1,0,0:0:0:0:
82,127,53827,5,0,0:0:0:0:
159,65,53972,1,0,0:0:0:0:
256,41,54118,1,0,0:0:0:0:
353,64,54264,1,0,0:0:0:0:
434,121,54409,2,0,P|484:168|485:199,1,83.2
397,226,54700,2,0,P|346:275|344:298,1,83.2
262,341,54992,6,0,P|152:349|144:344,1,110.933333333333
126,319,55283,2,0,P|191:248|189:224,1,110.933333333333
183,197,55574,2,0,P|82:198|62:181,1,110.933333333333
62,153,55866,2,0,L|145:96,1,83.2,8|0,0:0|0:0,0:0:0:0:
222,66,56157,2,0,L|293:154,1,83.2,8|0,0:0|0:0,0:0:0:0:
373,146,56448,2,0,L|319:253,1,83.2,8|0,0:0|0:0,0:0:0:0:
256,281,56739,1,8,0:0:0:0:
321,57,57031,5,0,0:0:0:0:
172,74,57176,2,0,P|85:165|116:302,1,249.599992382813,4|0,0:0|0:0,0:0:0:0:
324,259,57613,1,0,0:0:0:0:
250,87,57759,1,0,0:0:0:0:
412,183,57904,2,0,P|361:248|298:257,1,124.799996191406
173,250,58196,1,0,0:0:0:0:
94,68,58341,6,0,P|219:30|334:67,1,249.599992382813,4|0,0:0|0:0,0:0:0:0:
329,63,58705,1,0,0:0:0:0:
329,63,58778,1,0,0:0:0:0:
415,186,58924,1,0,0:0:0:0:
378,330,59069,2,0,L|336:276,1,62.3999980957032
230,359,59215,2,0,L|218:288,1,62.3999980957032
90,302,59361,2,0,L|127:232,1,62.3999980957032
67,154,59506,6,0,P|198:113|275:205,1,249.599992382813,4|0,0:0|0:0,0:0:0:0:
307,214,59870,1,0,0:0:0:0:
307,214,59943,2,0,L|428:291,1,124.799996191406
247,344,60234,2,0,L|129:263,1,124.799996191406
99,77,60526,1,0,0:0:0:0:
32,210,60671,6,0,P|173:213|232:128,1,249.599992382813,4|0,0:0|0:0,0:0:0:0:
375,5,61108,2,0,P|413:61|415:121,1,124.799996191406
356,254,61399,2,0,L|304:211,1,62.3999980957032
206,244,61545,2,0,L|273:305,1,62.3999980957032
74,280,61691,2,0,P|6:227|0:175,1,124.799996191406
0,34,61982,5,8,0:0:0:0:
18,81,62079,1,0,0:0:0:0:
55,115,62176,1,0,0:0:0:0:
104,123,62273,5,0,0:0:0:0:
149,102,62370,1,0,0:0:0:0:
163,55,62467,1,0,0:0:0:0:
199,21,62565,5,8,0:0:0:0:
236,54,62662,1,0,0:0:0:0:
256,100,62759,1,0,0:0:0:0:
298,126,62856,5,0,0:0:0:0:
342,103,62953,1,0,0:0:0:0:
372,64,63050,1,0,0:0:0:0:
410,9,63147,5,8,0:0:0:0:
441,47,63220,1,0,0:0:0:0:
475,83,63293,1,0,0:0:0:0:
509,119,63366,1,0,0:0:0:0:
465,141,63438,5,8,0:0:0:0:
419,162,63511,1,0,0:0:0:0:
374,184,63584,1,0,0:0:0:0:
328,205,63657,1,0,0:0:0:0:
366,236,63730,5,8,0:0:0:0:
404,266,63802,1,0,0:0:0:0:
445,293,63875,1,0,0:0:0:0:
487,319,63948,1,0,0:0:0:0:
508,363,64021,6,0,L|362:383,1,124.799996191406,12|0,0:0|0:0,0:0:0:0:
256,336,64312,5,0,0:0:0:0:
256,336,64385,1,0,0:0:0:0:
256,336,64458,1,0,0:0:0:0:
131,254,64603,6,0,P|193:213|241:226,1,124.799996191406
354,75,64895,1,0,0:0:0:0:
286,269,65040,1,0,0:0:0:0:
469,187,65186,1,0,0:0:0:0:
318,200,65332,6,0,P|183:139|155:41,1,249.599992382813,4|0,0:0|0:0,0:0:0:0:
154,50,65696,1,0,0:0:0:0:
154,50,65768,1,8,0:0:0:0:
11,6,65914,1,0,0:0:0:0:
13,156,66060,5,8,0:0:0:0:
24,185,66133,1,0,0:0:0:0:
38,212,66205,1,0,0:0:0:0:
56,237,66278,1,0,0:0:0:0:
73,256,66351,1,8,0:0:0:0:
88,276,66424,1,0,0:0:0:0:
113,294,66497,6,0,P|250:160|342:211,1,311.999990478516,12|0,0:0|0:0,0:0:0:0:
378,181,66933,2,0,L|465:69,1,124.799996191406
447,284,67225,2,0,P|399:346|341:357,1,124.799996191406
209,327,67516,1,0,0:0:0:0:
65,179,67662,2,0,P|187:218|294:150,1,249.599992382813,4|0,0:0|0:0,0:0:0:0:
286,161,68026,1,0,0:0:0:0:
286,161,68099,1,0,0:0:0:0:
385,49,68244,5,0,0:0:0:0:
372,91,68317,1,0,0:0:0:0:
415,93,68390,1,0,0:0:0:0:
401,134,68463,1,0,0:0:0:0:
444,134,68535,1,0,0:0:0:0:
415,167,68608,1,0,0:0:0:0:
454,186,68681,1,0,0:0:0:0:
421,215,68754,1,0,0:0:0:0:
450,238,68827,2,0,P|361:347|254:316,1,249.599992382813,4|0,0:0|0:0,0:0:0:0:
267,327,69191,1,0,0:0:0:0:
267,327,69264,1,0,0:0:0:0:
148,237,69409,5,0,0:0:0:0:
148,237,69482,1,0,0:0:0:0:
148,237,69555,2,0,P|189:158|255:150,1,124.799996191406
415,93,69846,1,0,0:0:0:0:
415,93,69992,1,4,0:0:0:0:
272,44,70137,6,0,P|197:29|153:63,1,124.799996191406
307,211,70429,2,0,P|249:261|194:254,1,124.799996191406
25,147,70720,2,0,P|-2:218|23:267,1,124.799996191406
15,258,70938,1,0,0:0:0:0:
15,258,71011,1,0,0:0:0:0:
136,347,71157,1,0,0:0:0:0:
284,337,71302,5,8,0:0:0:0:
284,337,71399,2,0,L|369:289,1,83.1999974609376
379,215,71594,5,0,0:0:0:0:
379,215,71691,2,0,L|430:147,1,83.1999974609376
372,87,71885,5,8,0:0:0:0:
372,87,71982,2,0,L|393:7,1,83.1999974609376
310,2,72176,5,0,0:0:0:0:
269,31,72273,1,0,0:0:0:0:
220,44,72370,1,0,0:0:0:0:
153,41,72467,5,8,0:0:0:0:
107,61,72540,1,0,0:0:0:0:
61,82,72613,1,0,0:0:0:0:
15,102,72686,1,0,0:0:0:0:
54,133,72759,5,8,0:0:0:0:
94,162,72832,1,0,0:0:0:0:
137,185,72904,1,0,0:0:0:0:
181,208,72977,1,0,0:0:0:0:
142,239,73050,5,8,0:0:0:0:
100,266,73123,1,0,0:0:0:0:
57,291,73196,1,0,0:0:0:0:
14,316,73268,1,0,0:0:0:0:
2,364,73341,2,0,L|134:377,1,124.799996191406,12|0,0:0|0:0,0:0:0:0:
474,236,73778,5,0,0:0:0:0:
474,236,73924,2,0,P|401:265|349:243,1,124.799996191406
184,143,74215,1,0,0:0:0:0:
184,143,74361,1,0,0:0:0:0:
184,143,74506,2,0,P|257:114|309:136,1,124.799996191406,0|0,0:0|0:0,0:0:0:0:
359,333,74798,5,0,0:0:0:0:
359,333,74870,1,0,0:0:0:0:
359,333,74943,2,0,P|286:362|234:340,1,124.799996191406,0|8,0:0|0:0,0:0:0:0:
26,142,75380,5,8,0:0:0:0:
26,142,75453,1,0,0:0:0:0:
26,142,75526,2,0,P|99:113|124:127,1,62.3999980957032
127,110,75671,2,0,P|193:126|254:90,1,124.799996191406,8|0,0:0|0:0,0:0:0:0:
359,57,75963,6,0,L|311:126,1,52,8|0,0:0|0:0,0:0:0:0:
428,160,76108,2,0,L|361:204,1,52
400,281,76254,2,0,P|333:308|288:286,1,104
221,159,76545,2,0,P|282:164|323:204,1,104
400,281,76836,1,0,0:0:0:0:
443,102,76982,6,0,P|318:41|245:63,1,208,4|0,0:0|0:0,0:0:0:0:
257,56,77346,1,0,0:0:0:0:
257,56,77419,1,0,0:0:0:0:
128,144,77565,1,0,0:0:0:0:
257,56,77710,1,0,0:0:0:0:
256,256,77856,1,0,0:0:0:0:
257,56,78001,1,0,0:0:0:0:
384,144,78147,1,0,0:0:0:0:
449,250,78293,6,0,L|438:303,1,52,4|0,0:0|0:0,0:0:0:0:
346,320,78438,2,0,L|309:372,1,52
221,311,78584,2,0,P|139:321|114:291,1,104
6,163,78875,2,0,P|88:153|113:183,1,104
174,262,79166,5,0,0:0:0:0:
174,262,79239,1,0,0:0:0:0:
174,262,79312,2,0,B|226:315|226:315|309:259|360:308,1,208
502,209,79749,2,0,P|442:185|407:214,1,104
295,244,80040,2,0,L|350:186,1,52
320,121,80186,2,0,L|272:173,1,52
194,126,80332,2,0,P|134:148|102:211,1,104
99,303,80623,5,4,0:0:0:0:
136,330,80696,1,0,0:0:0:0:
180,342,80768,1,0,0:0:0:0:
226,342,80841,1,0,0:0:0:0:
271,330,80914,2,0,P|335:298|356:247,1,104
450,151,81205,1,0,0:0:0:0:
350,271,81351,1,0,0:0:0:0:
474,351,81497,1,0,0:0:0:0:
388,197,81642,6,0,P|285:127|187:168,1,208
211,146,82006,1,0,0:0:0:0:
211,146,82079,1,0,0:0:0:0:
112,256,82225,1,0,0:0:0:0:
32,352,82370,1,0,0:0:0:0:
192,256,82516,1,0,0:0:0:0:
112,352,82662,1,0,0:0:0:0:
272,256,82807,1,0,0:0:0:0:
192,352,82953,6,0,L|229:306,1,52,4|0,0:0|0:0,0:0:0:0:
352,256,83099,2,0,L|305:324,1,52
428,354,83244,2,0,P|480:293|474:228,1,104
487,116,83535,1,0,0:0:0:0:
483,272,83681,1,0,0:0:0:0:
487,116,83827,1,0,0:0:0:0:
403,256,83972,6,0,P|278:314|184:260,1,208,4|0,0:0|0:0,0:0:0:0:
183,262,84336,1,0,0:0:0:0:
159,221,84409,1,8,0:0:0:0:
150,174,84482,1,0,0:0:0:0:
161,128,84555,1,0,0:0:0:0:
189,90,84628,1,0,0:0:0:0:
231,72,84700,5,8,0:0:0:0:
275,86,84773,1,0,0:0:0:0:
308,119,84846,1,0,0:0:0:0:
331,159,84919,1,0,0:0:0:0:
336,205,84992,1,8,0:0:0:0:
366,240,85065,1,0,0:0:0:0:
409,256,85137,1,0,0:0:0:0:
450,234,85210,1,0,0:0:0:0:
467,200,85283,5,8,0:0:0:0:
458,100,85429,2,0,P|441:52|405:24,1,83.2
336,11,85720,1,0,0:0:0:0:
290,100,85866,2,0,P|182:165|86:81,1,249.6
0,235,86448,6,0,P|107:300|203:216,1,249.6
421,237,87031,5,0,0:0:0:0:
357,301,87176,1,0,0:0:0:0:
261,301,87322,1,0,0:0:0:0:
197,236,87467,1,0,0:0:0:0:
80,96,87759,5,0,0:0:0:0:
144,148,87904,2,0,P|193:163|226:131,1,83.2
284,98,88196,1,0,0:0:0:0:
325,169,88341,1,0,0:0:0:0:
365,96,88487,1,0,0:0:0:0:
402,170,88633,1,0,0:0:0:0:
459,99,88778,6,0,P|457:249|379:264,1,249.6
256,240,89361,1,0,0:0:0:0:
459,99,90089,5,0,0:0:0:0:
408,184,90234,1,0,0:0:0:0:
360,96,90380,1,0,0:0:0:0:
216,72,90526,6,0,P|107:118|139:256,1,249.6
296,72,91108,2,0,P|405:118|373:256,1,249.6
344,320,91691,5,0,0:0:0:0:
296,232,91836,1,0,0:0:0:0:
248,320,91982,1,0,0:0:0:0:
200,232,92128,1,0,0:0:0:0:
120,72,92419,5,0,0:0:0:0:
192,140,92565,2,0,P|233:152|286:127,1,83.2
338,68,92856,2,0,P|364:167|315:231,1,166.4
177,309,93438,2,0,P|260:338|331:305,2,166.4
104,239,94166,6,0,L|89:211,10,20.8
94,220,94603,6,0,P|96:106|160:44,1,208,4|0,0:0|0:0,0:0:0:0:
280,12,95040,1,0,0:0:0:0:
416,133,95186,2,0,P|414:247|350:309,1,208
256,232,95623,1,0,0:0:0:0:
96,133,95768,6,0,P|98:247|162:309,1,208
280,352,96205,1,0,0:0:0:0:
368,208,96351,1,0,0:0:0:0:
456,352,96497,1,0,0:0:0:0:
296,256,96642,1,0,0:0:0:0:
440,256,96788,1,0,0:0:0:0:
168,88,97079,5,0,0:0:0:0:
336,88,97225,1,0,0:0:0:0:
336,88,97370,1,0,0:0:0:0:
256,248,97516,5,0,0:0:0:0:
336,88,97662,1,0,0:0:0:0:
336,88,97807,1,0,0:0:0:0:
424,216,97953,1,0,0:0:0:0:
256,144,98099,6,0,B|125:92|2:147|2:147|38:202,1,312
67,218,98608,1,0,0:0:0:0:
67,218,98681,2,0,P|113:207|186:220,1,104
342,318,98972,2,0,P|296:307|223:320,1,104
68,350,99264,5,4,0:0:0:0:
219,248,99409,2,0,P|264:236|338:247,1,104
436,288,99700,1,0,0:0:0:0:
447,109,99846,2,0,P|385:227|301:240,1,208
320,242,100210,1,0,0:0:0:0:
320,242,100283,1,0,0:0:0:0:
65,109,100429,6,0,P|127:227|211:240,1,208
256,360,100866,1,0,0:0:0:0:
256,360,100938,1,0,0:0:0:0:
256,360,101011,2,0,P|302:360|353:295,1,104
256,232,101302,2,0,P|202:233|148:173,1,104
256,120,101594,5,0,0:0:0:0:
420,99,101739,1,0,0:0:0:0:
308,41,101885,2,0,P|258:28|193:49,1,104
166,196,102176,2,0,P|256:248|344:182,1,208
417,293,102613,1,0,0:0:0:0:
302,342,102759,6,0,P|169:338|137:313,1,138.666666666667
126,303,103050,2,0,P|117:189|78:160,1,138.666666666667
77,128,103341,2,0,P|157:95|209:42,1,156
242,25,103633,2,0,P|355:26|387:48,1,138.666666666667
407,81,103924,6,0,L|450:217,1,138.666666666667,12|0,0:0|0:0,0:0:0:0:
455,261,104215,1,0,0:0:0:0:
437,306,104312,1,0,0:0:0:0:
397,333,104409,1,0,0:0:0:0:
348,334,104506,6,0,P|283:292|211:312,1,138.666666666667,8|0,0:0|0:0,0:0:0:0:
178,315,104798,1,0,0:0:0:0:
133,296,104895,1,0,0:0:0:0:
124,248,104992,1,0,0:0:0:0:
113,200,105089,6,0,P|99:130|39:73,1,156,8|0,0:0|0:0,0:0:0:0:
38,36,105380,1,0,0:0:0:0:
86,41,105477,1,0,0:0:0:0:
134,44,105574,1,0,0:0:0:0:
181,54,105671,6,0,P|262:87|332:58,1,138.666666666667,8|0,0:0|0:0,0:0:0:0:
351,51,105963,1,0,0:0:0:0:
397,38,106060,1,0,0:0:0:0:
444,46,106157,1,0,0:0:0:0:
474,84,106254,6,0,P|440:163|371:173,1,138.666666666667,8|0,0:0|0:0,0:0:0:0:
348,163,106545,1,0,0:0:0:0:
304,141,106642,1,0,0:0:0:0:
255,135,106739,1,0,0:0:0:0:
206,136,106836,6,0,P|123:152|84:195,1,138.666666666667,8|0,0:0|0:0,0:0:0:0:
64,232,107128,1,0,0:0:0:0:
50,278,107225,1,0,0:0:0:0:
64,324,107322,1,0,0:0:0:0:
107,344,107419,6,0,L|231:248,1,138.666666666667,8|0,0:0|0:0,0:0:0:0:
264,264,107710,2,0,L|385:356,1,138.666666666667,8|0,0:0|0:0,0:0:0:0:
420,333,108001,2,0,L|490:186,1,138.666666666667,8|0,0:0|0:0,0:0:0:0:
478,158,108293,2,0,P|441:83|364:88,1,138.666666666667,8|0,0:0|0:0,0:0:0:0:
365,115,108584,6,0,P|349:201|294:211,1,138.666666666667,8|0,0:0|0:0,0:0:0:0:
262,201,108875,1,0,0:0:0:0:
230,164,108972,1,0,0:0:0:0:
225,115,109069,1,0,0:0:0:0:
236,67,109166,6,0,P|174:119|116:107,1,138.666666666667,8|0,0:0|0:0,0:0:0:0:
75,94,109458,1,0,0:0:0:0:
107,130,109555,1,0,0:0:0:0:
122,175,109652,1,0,0:0:0:0:
113,243,109749,6,0,L|201:305,1,104,8|0,0:0|0:0,0:0:0:0:
301,293,110040,2,0,L|416:244,1,104,8|0,0:0|0:0,0:0:0:0:
426,150,110332,2,0,P|314:64|239:93,1,208,8|8,0:0|0:0,0:0:0:0:
82,63,110914,6,0,L|149:193,1,138.666666666667,12|0,0:0|0:0,0:0:0:0:
157,233,111205,1,0,0:0:0:0:
150,281,111302,1,0,0:0:0:0:
118,317,111399,1,0,0:0:0:0:
88,356,111497,6,0,L|249:345,1,138.666666666667,8|0,0:0|0:0,0:0:0:0:
274,342,111788,1,0,0:0:0:0:
317,320,111885,1,0,0:0:0:0:
364,329,111982,1,0,0:0:0:0:
408,349,112079,6,0,P|408:267|461:231,1,138.666666666667,8|0,0:0|0:0,0:0:0:0:
469,191,112370,2,0,P|470:104|431:73,1,138.666666666667,8|0,0:0|0:0,0:0:0:0:
388,58,112662,2,0,L|288:170,1,138.666666666667,8|0,0:0|0:0,0:0:0:0:
249,176,112953,2,0,L|156:65,1,138.666666666667,8|0,0:0|0:0,0:0:0:0:
37,101,113244,6,0,P|26:190|69:240,1,138.666666666667,12|0,0:0|0:0,0:0:0:0:
90,255,113535,1,0,0:0:0:0:
138,256,113633,1,0,0:0:0:0:
175,225,113730,1,0,0:0:0:0:
196,181,113827,6,0,P|185:106|235:60,1,138.666666666667,8|0,0:0|0:0,0:0:0:0:
268,42,114118,1,0,0:0:0:0:
316,36,114215,1,0,0:0:0:0:
362,48,114312,1,0,0:0:0:0:
398,79,114409,6,0,P|443:151|437:210,1,138.666666666667,8|0,0:0|0:0,0:0:0:0:
409,239,114700,1,0,0:0:0:0:
402,287,114798,1,0,0:0:0:0:
422,331,114895,1,0,0:0:0:0:
448,371,114992,6,0,L|305:349,1,138.666666666667,8|0,0:0|0:0,0:0:0:0:
263,341,115283,1,0,0:0:0:0:
215,351,115380,1,0,0:0:0:0:
167,340,115477,1,0,0:0:0:0:
118,333,115574,6,0,P|53:292|41:207,1,138.666666666667,12|0,0:0|0:0,0:0:0:0:
59,192,115866,2,0,P|153:199|191:149,1,138.666666666667,8|0,0:0|0:0,0:0:0:0:
184,124,116157,2,0,P|215:53|293:41,1,138.666666666667,8|0,0:0|0:0,0:0:0:0:
317,40,116448,2,0,L|468:99,1,138.666666666667,8|0,0:0|0:0,0:0:0:0:
461,218,116739,6,0,P|424:292|354:280,1,138.666666666667,12|0,0:0|0:0,0:0:0:0:
328,282,117031,2,0,P|262:248|190:282,1,138.666666666667,8|0,0:0|0:0,0:0:0:0:
167,298,117322,1,8,0:0:0:0:
127,326,117419,1,0,0:0:0:0:
78,324,117516,1,0,0:0:0:0:
42,290,117613,1,8,0:0:0:0:
40,241,117710,1,0,0:0:0:0:
65,199,117807,1,0,0:0:0:0:
108,178,117904,6,0,P|171:144|180:14,1,208,8|0,0:0|0:0,0:0:0:0:
404,178,118487,2,0,P|341:144|332:14,1,208,8|0,0:0|0:0,0:0:0:0:
88,72,119069,5,0,0:0:0:0:
152,152,119215,1,0,0:0:0:0:
256,152,119361,1,0,0:0:0:0:
320,72,119506,1,0,0:0:0:0:
415,67,119652,2,0,P|299:162|225:132,1,208,8|0,0:0|0:0,0:0:0:0:
72,221,120234,5,8,0:0:0:0:
80,272,120332,1,0,0:0:0:0:
112,312,120429,1,0,0:0:0:0:
160,312,120526,1,0,0:0:0:0:
192,272,120623,1,0,0:0:0:0:
216,232,120720,1,0,0:0:0:0:
256,208,120817,5,8,0:0:0:0:
296,232,120914,1,0,0:0:0:0:
312,280,121011,1,0,0:0:0:0:
344,320,121108,1,0,0:0:0:0:
392,320,121205,1,0,0:0:0:0:
424,280,121302,1,0,0:0:0:0:
475,178,121399,5,8,0:0:0:0:
475,178,121472,1,0,0:0:0:0:
475,178,121545,1,0,0:0:0:0:
340,123,121691,5,8,0:0:0:0:
340,123,121764,1,0,0:0:0:0:
340,123,121836,1,0,0:0:0:0:
459,38,121982,5,8,0:0:0:0:
178,40,122273,1,0,0:0:0:0:
70,144,122419,2,0,P|167:248|280:218,1,249.599992382813,4|0,0:0|0:0,0:0:0:0:
261,231,122783,1,0,0:0:0:0:
261,231,122856,1,0,0:0:0:0:
376,67,123001,5,0,0:0:0:0:
376,67,123074,1,0,0:0:0:0:
376,67,123147,2,0,P|427:135|422:187,1,124.799996191406
347,338,123438,1,0,0:0:0:0:
197,320,123584,6,0,P|189:188|284:132,1,249.599992382813,4|0,0:0|0:0,0:0:0:0:
442,28,124021,2,0,P|412:104|366:113,1,124.799996191406
195,115,124312,5,0,0:0:0:0:
145,123,124385,1,0,0:0:0:0:
105,154,124458,1,0,0:0:0:0:
83,199,124531,1,0,0:0:0:0:
78,248,124603,1,0,0:0:0:0:
88,296,124676,1,0,0:0:0:0:
119,335,124749,2,0,P|258:360|325:267,1,249.599992382813,4|0,0:0|0:0,0:0:0:0:
350,99,125186,2,0,P|389:149|466:145,1,124.799996191406
401,297,125477,6,0,L|349:248,1,62.3999980957032
291,194,125623,2,0,L|289:266,1,62.3999980957032
179,293,125768,2,0,L|241:242,1,62.3999980957032
96,167,125914,2,0,P|191:54|283:61,1,249.599992382813,4|0,0:0|0:0,0:0:0:0:
281,60,126278,1,0,0:0:0:0:
281,60,126351,1,0,0:0:0:0:
412,134,126497,5,0,0:0:0:0:
412,134,126569,1,0,0:0:0:0:
412,134,126642,2,0,L|449:204,1,62.3999980957032
376,237,126788,5,0,0:0:0:0:
376,237,126861,1,0,0:0:0:0:
376,237,126933,2,0,L|339:307,2,62.3999980957032
298,138,127225,5,8,0:0:0:0:
281,90,127322,1,0,0:0:0:0:
253,48,127419,1,0,0:0:0:0:
208,25,127516,1,0,0:0:0:0:
163,47,127613,1,0,0:0:0:0:
150,95,127710,1,0,0:0:0:0:
100,101,127807,5,8,0:0:0:0:
56,124,127904,1,0,0:0:0:0:
57,173,128001,1,0,0:0:0:0:
93,208,128099,1,0,0:0:0:0:
133,236,128196,1,0,0:0:0:0:
135,285,128293,1,0,0:0:0:0:
96,339,128390,5,8,0:0:0:0:
136,309,128463,1,0,0:0:0:0:
185,305,128535,1,0,0:0:0:0:
234,311,128608,1,0,0:0:0:0:
275,338,128681,5,8,0:0:0:0:
316,310,128754,1,0,0:0:0:0:
365,306,128827,1,0,0:0:0:0:
413,312,128899,1,0,0:0:0:0:
453,340,128972,5,8,0:0:0:0:
438,292,129045,1,0,0:0:0:0:
425,243,129118,1,0,0:0:0:0:
430,193,129191,1,0,0:0:0:0:
450,147,129264,2,0,P|406:74|349:60,1,124.799996191406,12|0,0:0|0:0,0:0:0:0:
256,156,129555,5,0,0:0:0:0:
256,156,129628,1,0,0:0:0:0:
256,156,129700,2,0,B|180:184|132:134|132:134,2,124.799996191406
317,19,130137,6,0,B|393:-9|441:41|441:41,2,124.799996191406
137,139,130574,2,0,P|217:272|334:250,1,249.599992382813,4|0,0:0|0:0,0:0:0:0:
297,271,130938,1,0,0:0:0:0:
297,271,131011,1,8,0:0:0:0:
286,121,131157,5,0,0:0:0:0:
339,103,131230,1,0,0:0:0:0:
393,114,131302,1,8,0:0:0:0:
431,154,131375,1,0,0:0:0:0:
455,204,131448,1,0,0:0:0:0:
454,260,131521,1,0,0:0:0:0:
440,304,131594,1,8,0:0:0:0:
410,339,131666,1,0,0:0:0:0:
361,352,131739,6,0,L|43:312,1,311.999990478516,8|0,0:0|0:0,0:0:0:0:
13,280,132176,2,0,P|107:237|113:176,1,124.799996191406
25,73,132467,6,0,P|109:13|165:38,2,124.799996191406
112,224,132904,2,0,P|255:197|280:94,1,249.599992382813,4|0,0:0|0:0,0:0:0:0:
283,111,133268,1,0,0:0:0:0:
283,111,133341,1,0,0:0:0:0:
462,81,133487,6,0,L|515:157,1,62.3999980957032
470,231,133633,2,0,L|432:165,1,62.3999980957032
380,111,133778,2,0,L|353:185,1,62.3999980957032
265,207,133924,2,0,L|300:124,1,62.3999980957032
175,87,134069,6,0,P|62:175|105:288,1,249.599992382813,4|0,0:0|0:0,0:0:0:0:
114,301,134433,1,0,0:0:0:0:
114,301,134506,2,0,L|246:336,1,124.799996191406
399,275,134798,6,0,P|456:309|478:372,2,124.799996191406
216,241,135234,2,0,P|108:166|152:59,1,249.599992382813,4|0,0:0|0:0,0:0:0:0:
137,69,135599,1,0,0:0:0:0:
137,69,135671,1,0,0:0:0:0:
279,19,135817,1,0,0:0:0:0:
417,78,135963,5,0,0:0:0:0:
440,121,136035,1,0,0:0:0:0:
480,150,136108,1,0,0:0:0:0:
326,183,136254,1,0,0:0:0:0:
334,232,136327,1,0,0:0:0:0:
372,262,136399,1,0,0:0:0:0:
472,337,136545,5,8,0:0:0:0:
426,357,136642,1,0,0:0:0:0:
376,362,136739,1,0,0:0:0:0:
327,352,136836,1,0,0:0:0:0:
283,326,136933,1,0,0:0:0:0:
258,281,137031,1,0,0:0:0:0:
235,326,137128,5,8,0:0:0:0:
191,352,137225,1,0,0:0:0:0:
142,362,137322,1,0,0:0:0:0:
92,357,137419,1,0,0:0:0:0:
46,337,137516,1,0,0:0:0:0:
18,295,137613,1,0,0:0:0:0:
72,256,137710,5,8,0:0:0:0:
104,217,137783,1,0,0:0:0:0:
118,169,137856,1,0,0:0:0:0:
105,120,137929,1,0,0:0:0:0:
76,79,138001,1,8,0:0:0:0:
126,80,138074,1,0,0:0:0:0:
174,65,138147,1,0,0:0:0:0:
214,34,138220,1,0,0:0:0:0:
257,9,138293,5,8,0:0:0:0:
299,34,138366,1,0,0:0:0:0:
341,60,138438,1,0,0:0:0:0:
387,79,138511,1,0,0:0:0:0:
436,82,138584,2,0,P|398:120|412:200,1,124.799996191406,12|0,0:0|0:0,0:0:0:0:
450,330,138875,5,0,0:0:0:0:
450,330,138948,1,0,0:0:0:0:
450,330,139021,2,0,P|369:356|324:321,2,124.799996191406,0|4|0,0:0|0:0|0:0,0:0:0:0:
345,138,139458,6,0,P|331:214|365:257,1,124.799996191406
167,138,139749,2,0,P|181:214|147:257,1,124.799996191406
62,330,140040,5,8,0:0:0:0:
62,330,140113,1,0,0:0:0:0:
62,330,140186,2,0,P|143:356|188:321,1,124.799996191406,0|12,0:0|0:0,0:0:0:0:
355,250,140477,5,0,0:0:0:0:
355,250,140550,1,0,0:0:0:0:
355,250,140623,2,0,P|331:214|345:138,1,124.799996191406,8|0,0:0|0:0,0:0:0:0:
156,250,140914,2,0,P|181:214|167:138,1,124.799996191406,8|0,0:0|0:0,0:0:0:0:
256,192,141205,12,0,142370,0:0:0:0:
24,184,150526,5,0,0:0:0:0:
70,115,150671,1,0,0:0:0:0:
130,57,150817,1,0,0:0:0:0:
208,28,150963,1,0,0:0:0:0:
304,28,151108,5,0,0:0:0:0:
382,57,151254,1,0,0:0:0:0:
442,115,151399,1,0,0:0:0:0:
488,184,151545,1,0,0:0:0:0:
448,320,151691,6,0,B|352:288|304:240|256:160|256:160|208:240|160:288|64:320,1,499.2,4|0,0:0|0:0,0:0:0:0:
488,184,152856,5,0,0:0:0:0:
442,115,153001,1,0,0:0:0:0:
382,57,153147,1,0,0:0:0:0:
304,28,153293,1,0,0:0:0:0:
208,28,153438,5,0,0:0:0:0:
130,57,153584,1,0,0:0:0:0:
70,115,153730,1,0,0:0:0:0:
24,184,153875,1,0,0:0:0:0:
76,315,154021,6,0,B|160:288|208:240|256:160|256:160|304:240|352:288|448:320,1,499.2,4|0,0:0|0:0,0:0:0:0:
416,144,155186,6,0,P|388:61|327:10,1,166.4
96,240,155768,2,0,P|124:323|185:374,1,166.4
333,104,156351,2,0,P|254:50|176:39,1,166.4
179,280,156933,2,0,P|258:334|336:345,1,166.4
233,118,157516,2,0,P|130:108|52:131,1,166.4
279,266,158099,2,0,P|382:276|460:253,1,166.4
148,178,158681,2,0,P|58:206|2:261,1,166.4
364,206,159264,2,0,L|400:192,14,20.8
383,198,159846,6,0,P|458:166|474:125,1,104,4|0,0:0|0:0,0:0:0:0:
201,53,160137,2,0,P|184:115|226:174,1,104
308,150,160429,2,0,P|324:87|282:28,1,104
44,149,160720,2,0,P|54:166|128:198,1,104
400,315,161011,6,0,L|304:244,1,104
112,315,161302,2,0,L|208:244,1,104
434,198,161594,2,0,L|303:151,1,104
78,198,161885,2,0,L|209:151,1,104
409,81,162176,6,0,P|342:65|299:97,1,104,4|0,0:0|0:0,0:0:0:0:
107,306,162467,2,0,P|174:322|217:290,1,104
197,80,162759,2,0,P|130:64|87:96,1,104
319,307,163050,2,0,P|386:323|429:291,1,104
193,243,163341,6,0,P|162:247|101:213,1,104
318,243,163633,2,0,P|350:247|411:213,1,104
305,100,163924,2,0,P|236:86|193:113,1,104
207,284,164215,2,0,P|275:297|318:270,1,104
339,91,164506,5,4,0:0:0:0:
339,91,164652,2,0,P|258:42|161:101,1,208
154,216,165089,2,0,P|271:241|390:186,1,208
349,340,165526,2,0,P|231:365|112:310,1,208
150,339,165963,1,0,0:0:0:0:
54,109,166254,5,8,0:0:0:0:
88,140,166327,1,0,0:0:0:0:
132,150,166399,1,0,0:0:0:0:
176,134,166472,1,0,0:0:0:0:
206,98,166545,1,8,0:0:0:0:
240,65,166618,1,0,0:0:0:0:
283,47,166691,1,0,0:0:0:0:
329,52,166764,1,0,0:0:0:0:
368,75,166836,5,12,0:0:0:0:
384,118,166909,1,0,0:0:0:0:
373,163,166982,1,0,0:0:0:0:
386,207,167055,1,0,0:0:0:0:
417,241,167128,2,0,P|444:333|339:317,1,208,8|8,0:0|0:0,0:0:0:0:
311,335,167492,5,0,0:0:0:0:
265,324,167565,1,0,0:0:0:0:
218,325,167637,1,0,0:0:0:0:
173,338,167710,1,8,0:0:0:0:
126,347,167783,1,0,0:0:0:0:
83,326,167856,1,0,0:0:0:0:
58,285,167929,1,0,0:0:0:0:
61,238,168001,5,8,0:0:0:0:
204,85,168196,1,0,0:0:0:0:
320,256,168390,1,0,0:0:0:0:
120,197,168584,5,8,0:0:0:0:
272,55,168778,1,0,0:0:0:0:
385,229,168972,1,0,0:0:0:0:
186,168,169166,5,12,0:0:0:0:
319,52,169749,5,8,0:0:0:0:
363,67,169822,1,0,0:0:0:0:
402,92,169895,1,0,0:0:0:0:
430,128,169967,1,0,0:0:0:0:
439,173,170040,1,8,0:0:0:0:
435,219,170113,1,0,0:0:0:0:
423,264,170186,1,0,0:0:0:0:
396,302,170259,1,0,0:0:0:0:
351,329,170332,5,8,0:0:0:0:
317,297,170404,1,0,0:0:0:0:
270,288,170477,1,0,0:0:0:0:
225,303,170550,1,0,0:0:0:0:
173,294,170623,5,8,0:0:0:0:
205,260,170695,1,0,0:0:0:0:
214,213,170768,1,0,0:0:0:0:
199,168,170841,1,0,0:0:0:0:
208,116,170914,5,8,0:0:0:0:
242,148,170986,1,0,0:0:0:0:
289,157,171059,1,0,0:0:0:0:
334,142,171132,1,0,0:0:0:0:
384,153,171205,5,8,0:0:0:0:
352,187,171277,1,0,0:0:0:0:
343,234,171350,1,0,0:0:0:0:
358,279,171423,1,0,0:0:0:0:
385,323,171497,5,12,0:0:0:0:
430,317,171569,1,0,0:0:0:0:
465,286,171642,1,0,0:0:0:0:
476,240,171715,1,0,0:0:0:0:
476,193,171788,1,8,0:0:0:0:
462,148,171861,1,0,0:0:0:0:
430,114,171933,1,0,0:0:0:0:
383,107,172006,1,0,0:0:0:0:
336,115,172079,5,8,0:0:0:0:
309,153,172152,1,0,0:0:0:0:
292,197,172225,1,0,0:0:0:0:
275,240,172298,1,0,0:0:0:0:
251,279,172370,1,8,0:0:0:0:
221,315,172443,1,0,0:0:0:0:
174,317,172516,1,0,0:0:0:0:
128,307,172589,1,0,0:0:0:0:
94,274,172662,5,8,0:0:0:0:
79,229,172734,1,0,0:0:0:0:
76,182,172807,1,0,0:0:0:0:
87,136,172880,1,0,0:0:0:0:
118,101,172953,1,8,0:0:0:0:
158,77,173026,1,0,0:0:0:0:
204,71,173099,1,0,0:0:0:0:
249,80,173171,1,0,0:0:0:0:
290,100,173244,2,0,P|360:234|326:288,1,208,8|0,0:0|0:0,0:0:0:0:
172,223,173827,6,0,P|156:160|198:101,2,104,4|0|0,0:0|0:0|0:0,0:0:0:0:
257,314,174264,1,0,0:0:0:0:
340,223,174409,2,0,P|356:160|314:101,2,104
302,59,174846,6,0,P|221:10|124:69,1,208
129,59,175210,1,0,0:0:0:0:
129,59,175283,1,0,0:0:0:0:
57,161,175429,5,0,0:0:0:0:
212,223,175574,1,0,0:0:0:0:
71,315,175720,1,0,0:0:0:0:
71,315,175793,1,0,0:0:0:0:
71,315,175866,2,0,P|122:353|185:354,1,104
351,358,176157,6,0,P|390:353|441:315,1,104,4|0,0:0|0:0,0:0:0:0:
327,104,176448,2,0,P|292:122|257:175,1,104
441,69,176739,2,0,P|390:31|351:25,1,104
186,106,177031,2,0,P|204:140|257:175,1,104
160,25,177322,2,0,P|122:31|71:69,1,104,8|0,0:0|0:0,0:0:0:0:
71,315,177613,2,0,P|122:353|160:358,1,104,8|0,0:0|0:0,0:0:0:0:
376,326,177904,5,8,0:0:0:0:
416,302,177977,1,0,0:0:0:0:
441,262,178050,1,0,0:0:0:0:
461,219,178123,1,0,0:0:0:0:
469,172,178196,1,8,0:0:0:0:
459,126,178268,1,0,0:0:0:0:
425,84,178341,6,0,P|292:47|193:122,1,249.599992382813,4|0,0:0|0:0,0:0:0:0:
156,288,178778,2,0,P|224:301|287:255,1,124.799996191406
332,141,179069,2,0,L|298:224,1,62.3999980957032
211,230,179215,2,0,L|211:161,1,62.3999980957032
93,136,179361,2,0,L|124:58,1,62.3999980957032
216,52,179506,6,0,P|360:25|436:106,1,249.599992382813,4|0,0:0|0:0,0:0:0:0:
446,134,179870,1,0,0:0:0:0:
446,134,179943,2,0,L|422:274,1,124.799996191406
305,348,180234,2,0,L|311:266,1,62.3999980957032
155,340,180380,2,0,L|190:277,1,62.3999980957032
46,235,180526,2,0,L|110:211,1,62.3999980957032
51,85,180671,6,0,P|185:152|273:84,1,249.599992382813,4|0,0:0|0:0,0:0:0:0:
285,64,181035,1,0,0:0:0:0:
285,64,181108,2,0,P|356:18|411:38,1,124.799996191406
476,216,181399,1,0,0:0:0:0:
268,239,181545,1,0,0:0:0:0:
285,64,181691,1,0,0:0:0:0:
368,267,181836,6,0,P|199:286|152:233,1,249.599992382813
154,238,182200,1,0,0:0:0:0:
154,238,182273,1,0,0:0:0:0:
120,91,182419,1,0,0:0:0:0:
256,28,182565,5,0,0:0:0:0:
303,13,182637,1,0,0:0:0:0:
350,27,182710,1,0,0:0:0:0:
431,168,182856,1,0,0:0:0:0:
411,213,182929,1,0,0:0:0:0:
369,239,183001,1,0,0:0:0:0:
239,314,183147,5,8,0:0:0:0:
189,319,183244,1,0,0:0:0:0:
139,323,183341,1,0,0:0:0:0:
89,326,183438,1,0,0:0:0:0:
111,281,183535,1,0,0:0:0:0:
136,237,183633,1,0,0:0:0:0:
160,193,183730,1,8,0:0:0:0:
111,181,183827,1,0,0:0:0:0:
62,170,183924,1,0,0:0:0:0:
13,158,184021,1,0,0:0:0:0:
32,111,184118,1,0,0:0:0:0:
54,66,184215,1,0,0:0:0:0:
98,16,184312,5,8,0:0:0:0:
148,16,184385,1,0,0:0:0:0:
186,48,184458,1,0,0:0:0:0:
208,92,184531,1,0,0:0:0:0:
225,138,184603,1,8,0:0:0:0:
271,156,184676,1,0,0:0:0:0:
310,125,184749,1,0,0:0:0:0:
326,77,184822,1,0,0:0:0:0:
349,32,184895,1,8,0:0:0:0:
397,26,184967,1,0,0:0:0:0:
439,52,185040,1,0,0:0:0:0:
464,95,185113,1,0,0:0:0:0:
480,142,185186,2,0,P|479:208|447:259,1,124.799996191406,12|0,0:0|0:0,0:0:0:0:
252,320,185477,5,0,0:0:0:0:
252,320,185550,1,0,0:0:0:0:
252,320,185623,2,0,P|164:313|133:263,1,124.799996191406
83,98,185914,1,0,0:0:0:0:
256,208,186060,1,0,0:0:0:0:
429,98,186205,1,0,0:0:0:0:
256,56,186351,1,0,0:0:0:0:
97,115,186497,6,0,P|157:232|264:219,1,249.599992382813,4|0,0:0|0:0,0:0:0:0:
259,223,186861,1,0,0:0:0:0:
259,223,186933,1,8,0:0:0:0:
222,342,187079,5,0,0:0:0:0:
171,345,187152,1,0,0:0:0:0:
121,337,187225,1,8,0:0:0:0:
73,319,187298,1,0,0:0:0:0:
38,283,187370,1,0,0:0:0:0:
12,239,187443,1,0,0:0:0:0:
6,198,187516,1,8,0:0:0:0:
9,150,187589,1,0,0:0:0:0:
26,103,187662,2,0,P|132:25|304:96,1,311.999990478516,12|0,0:0|0:0,0:0:0:0:
320,119,188099,2,0,P|399:166|454:151,1,124.799996191406
383,345,188390,2,0,P|305:339|255:290,2,124.799996191406
427,162,188827,6,0,P|340:61|210:72,1,249.599992382813,4|0,0:0|0:0,0:0:0:0:
232,60,189191,1,0,0:0:0:0:
232,60,189264,1,0,0:0:0:0:
99,128,189409,1,0,0:0:0:0:
83,277,189555,2,0,L|143:242,1,62.3999980957032
213,349,189700,2,0,L|251:296,1,62.3999980957032
361,327,189846,2,0,L|339:269,1,62.3999980957032
433,195,189992,6,0,P|275:221|218:158,1,249.599992382813,4|0,0:0|0:0,0:0:0:0:
200,121,190356,1,0,0:0:0:0:
200,121,190429,2,0,L|55:144,1,124.799996191406
27,335,190720,2,0,L|172:312,1,124.799996191406
280,240,191011,1,0,0:0:0:0:
410,96,191157,6,0,P|288:41|204:106,1,249.599992382813,4|0,0:0|0:0,0:0:0:0:
205,103,191521,1,0,0:0:0:0:
205,103,191594,1,0,0:0:0:0:
144,239,191739,1,0,0:0:0:0:
250,345,191885,1,0,0:0:0:0:
299,350,191958,1,0,0:0:0:0:
292,308,192031,1,0,0:0:0:0:
333,327,192103,1,0,0:0:0:0:
321,284,192176,1,0,0:0:0:0:
364,292,192249,1,0,0:0:0:0:
350,257,192322,1,0,0:0:0:0:
388,254,192395,1,0,0:0:0:0:
397,204,192467,5,8,0:0:0:0:
418,158,192565,1,0,0:0:0:0:
437,112,192662,1,0,0:0:0:0:
455,65,192759,1,0,0:0:0:0:
410,87,192856,1,0,0:0:0:0:
370,117,192953,1,0,0:0:0:0:
329,145,193050,1,8,0:0:0:0:
307,100,193147,1,0,0:0:0:0:
283,55,193244,1,0,0:0:0:0:
260,10,193341,1,0,0:0:0:0:
237,54,193438,1,0,0:0:0:0:
218,100,193535,1,0,0:0:0:0:
194,162,193633,5,8,0:0:0:0:
158,127,193705,1,0,0:0:0:0:
122,92,193778,1,0,0:0:0:0:
88,54,193851,1,0,0:0:0:0:
55,16,193924,1,8,0:0:0:0:
57,65,193997,1,0,0:0:0:0:
63,113,194069,1,0,0:0:0:0:
70,162,194142,1,0,0:0:0:0:
75,211,194215,1,8,0:0:0:0:
56,257,194288,1,0,0:0:0:0:
48,306,194361,1,0,0:0:0:0:
80,348,194433,1,0,0:0:0:0:
121,376,194506,2,0,P|195:374|237:330,1,124.799996191406,12|0,0:0|0:0,0:0:0:0:
396,196,194798,5,0,0:0:0:0:
396,196,194870,1,0,0:0:0:0:
396,196,194943,2,0,P|357:259|298:273,1,124.799996191406
123,260,195234,1,0,0:0:0:0:
220,99,195380,1,0,0:0:0:0:
295,270,195526,1,0,0:0:0:0:
129,184,195671,1,0,0:0:0:0:
281,75,195817,1,0,0:0:0:0:
357,247,195963,5,0,0:0:0:0:
357,247,196035,1,0,0:0:0:0:
357,247,196108,2,0,P|295:287|235:275,1,124.799996191406,0|8,0:0|0:0,0:0:0:0:
88,53,196545,5,8,0:0:0:0:
119,93,196618,1,0,0:0:0:0:
157,123,196691,1,0,0:0:0:0:
205,137,196764,1,0,0:0:0:0:
254,135,196836,1,8,0:0:0:0:
302,124,196909,1,0,0:0:0:0:
340,91,196982,1,0,0:0:0:0:
368,50,197055,1,0,0:0:0:0:
398,10,197128,6,0,L|460:47,1,62.3999980957032,12|0,0:0|0:0,0:0:0:0:
432,154,197273,2,0,L|465:217,1,62.3999980957032
375,292,197419,2,0,P|324:359|278:353,1,124.799996191406
149,308,197710,1,0,0:0:0:0:
5,169,197856,1,0,0:0:0:0:
207,103,198001,1,0,0:0:0:0:
216,257,198147,2,0,P|107:211|56:97,1,249.599992382813
55,96,198511,1,0,0:0:0:0:
55,96,198584,1,0,0:0:0:0:
185,21,198730,5,0,0:0:0:0:
309,173,198875,1,0,0:0:0:0:
185,21,199021,1,0,0:0:0:0:
38,173,199166,1,0,0:0:0:0:
185,21,199312,1,0,0:0:0:0:
105,148,199458,2,0,L|110:224,1,62.3999980957032,4|0,0:0|0:0,0:0:0:0:
210,253,199603,2,0,L|234:319,1,62.3999980957032
351,303,199749,2,0,P|434:332|473:314,1,124.799996191406
427,135,200040,5,0,0:0:0:0:
351,303,200186,1,0,0:0:0:0:
239,128,200332,1,0,0:0:0:0:
91,152,200477,2,0,P|151:281|269:279,1,249.599992382813
244,290,200841,1,0,0:0:0:0:
244,290,200914,1,0,0:0:0:0:
387,243,201060,1,0,0:0:0:0:
355,67,201205,5,0,0:0:0:0:
307,83,201278,1,0,0:0:0:0:
259,67,201351,1,0,0:0:0:0:
82,77,201497,2,0,P|103:140|75:210,1,124.799996191406
29,332,201788,6,0,L|66:258,1,62.3999980957032,4|0,0:0|0:0,0:0:0:0:
142,234,201933,2,0,L|115:309,1,62.3999980957032
227,357,202079,2,0,P|285:316|298:259,1,124.799996191406
259,67,202370,1,0,0:0:0:0:
233,110,202443,1,0,0:0:0:0:
235,159,202516,1,0,0:0:0:0:
310,326,202662,1,0,0:0:0:0:
435,248,202807,6,0,P|335:151|227:204,1,249.599992382813
244,182,203171,1,0,0:0:0:0:
244,182,203244,1,0,0:0:0:0:
140,291,203390,1,0,0:0:0:0:
9,197,203535,1,0,0:0:0:0:
22,148,203608,1,0,0:0:0:0:
53,109,203681,1,0,0:0:0:0:
206,24,203827,2,0,P|260:84|321:83,1,124.799996191406
434,155,204118,5,4,0:0:0:0:
430,204,204191,1,0,0:0:0:0:
409,249,204264,1,0,0:0:0:0:
376,285,204336,1,0,0:0:0:0:
331,308,204409,2,0,P|267:325|197:298,1,124.799996191406
144,117,204700,1,0,0:0:0:0:
212,308,204846,1,0,0:0:0:0:
144,117,204992,1,0,0:0:0:0:
96,258,205137,6,0,P|235:259|268:172,1,249.599992382813
267,171,205501,1,0,0:0:0:0:
267,171,205574,1,0,0:0:0:0:
250,22,205720,1,0,0:0:0:0:
388,80,205866,5,8,0:0:0:0:
413,122,205938,1,0,0:0:0:0:
422,171,206011,1,0,0:0:0:0:
418,220,206084,1,0,0:0:0:0:
403,267,206157,1,8,0:0:0:0:
372,307,206230,1,0,0:0:0:0:
328,329,206302,1,0,0:0:0:0:
279,342,206375,1,0,0:0:0:0:
228,343,206448,6,0,L|219:272,1,62.3999980957032,12|0,0:0|0:0,0:0:0:0:
94,274,206594,2,0,L|130:200,1,62.3999980957032
46,132,206739,2,0,P|101:67|166:59,1,124.799996191406
312,126,207031,1,0,0:0:0:0:
145,223,207176,1,0,0:0:0:0:
320,296,207322,1,0,0:0:0:0:
102,277,207467,2,0,P|243:336|323:294,1,249.599992382813
320,296,207832,1,0,0:0:0:0:
320,296,207904,1,0,0:0:0:0:
412,177,208050,5,0,0:0:0:0:
246,65,208196,1,0,0:0:0:0:
244,114,208268,1,0,0:0:0:0:
272,155,208341,1,0,0:0:0:0:
78,76,208487,2,0,P|73:141|125:195,1,124.799996191406
256,203,208778,5,4,0:0:0:0:
304,216,208851,1,0,0:0:0:0:
338,251,208924,1,0,0:0:0:0:
359,296,208997,1,0,0:0:0:0:
351,344,209069,2,0,P|297:385|229:378,1,124.799996191406
71,277,209361,1,0,0:0:0:0:
256,203,209506,1,0,0:0:0:0:
79,124,209652,1,0,0:0:0:0:
305,120,209798,6,0,P|184:77|75:128,1,249.599992382813
79,124,210162,1,0,0:0:0:0:
79,124,210234,1,0,0:0:0:0:
71,273,210380,2,0,L|133:210,1,62.3999980957032
214,229,210526,2,0,L|201:311,1,62.3999980957032
310,342,210671,2,0,L|383:308,1,62.3999980957032
452,216,210817,2,0,P|384:219|347:153,1,124.799996191406
284,44,211108,6,0,L|249:115,1,62.3999980957032,4|0,0:0|0:0,0:0:0:0:
135,63,211254,2,0,L|173:133,1,62.3999980957032
59,191,211399,2,0,P|111:268|166:269,1,124.799996191406
270,343,211691,1,0,0:0:0:0:
383,192,211836,1,0,0:0:0:0:
270,343,211982,1,0,0:0:0:0:
383,192,212128,6,0,P|285:86|182:118,1,249.599992382813
195,106,212492,1,0,0:0:0:0:
195,106,212565,1,0,0:0:0:0:
89,211,212710,1,0,0:0:0:0:
191,320,212856,2,0,L|230:261,1,62.3999980957032
340,320,213001,2,0,L|340:232,1,62.3999980957032
461,231,213147,2,0,P|441:160|369:129,1,124.799996191406
284,39,213438,6,0,L|265:107,1,62.3999980957032,4|0,0:0|0:0,0:0:0:0:
177,144,213584,2,0,L|162:71,1,62.3999980957032
53,59,213730,2,0,P|26:131|65:185,1,124.799996191406,8|0,0:0|0:0,0:0:0:0:
133,292,214021,1,8,0:0:0:0:
182,298,214094,1,0,0:0:0:0:
224,273,214166,1,0,0:0:0:0:
245,227,214239,1,0,0:0:0:0:
263,180,214312,1,8,0:0:0:0:
301,148,214385,1,0,0:0:0:0:
348,131,214458,6,0,P|461:192|447:330,1,249.599992382813,8|0,0:0|0:0,0:0:0:0:
465,301,214822,1,0,0:0:0:0:
465,301,214895,1,8,0:0:0:0:
328,360,215040,1,0,0:0:0:0:
304,208,215186,6,0,L|282:277,1,62.3999980957032,8|0,0:0|0:0,0:0:0:0:
184,360,215332,2,0,L|214:277,1,62.3999980957032
200,160,215477,2,0,L|178:229,1,62.3999980957032,8|0,0:0|0:0,0:0:0:0:
40,360,215623,2,0,L|70:277,1,62.3999980957032,8|0,0:0|0:0,0:0:0:0:
112,112,215768,1,12,0:0:0:0:
