osu file format v12

[General]
AudioFilename: Mysterious.mp3
AudioLeadIn: 0
PreviewTime: 56077
Countdown: 0
SampleSet: None
StackLeniency: 0.7
Mode: 0
LetterboxInBreaks: 1
SkinPreference:templateskin
WidescreenStoryboard: 1

[Editor]
DistanceSpacing: 0.8
BeatDivisor: 4
GridSize: 4

[Metadata]
Title:Mysterious
TitleUnicode:Mysterious
Artist:Luna&8#prince
ArtistUnicode:Luna&八王子P
Creator:CPU
Version:Tianyi
Source:
Tags:luo tianyi Mysterious vocaloid 8#prince
BeatmapID:324037
BeatmapSetID:127824

[Difficulty]
HPDrainRate:5
CircleSize:4
OverallDifficulty:6
ApproachRate:8
SliderMultiplier:1.5
SliderTickRate:2

[Events]
//Background and Video events
Video,0,"Mysterious~1.flv"
0,0,"Luo.jpg",0,0
//Break Periods
2,8905,28526
//Storyboard Layer 0 (Background)
//Storyboard Layer 1 (Fail)
//Storyboard Layer 2 (Pass)
//Storyboard Layer 3 (Foreground)
//Storyboard Sound Samples
//Background Colour Transformations
3,100,163,162,255

[TimingPoints]
1848,428.571428571429,4,3,0,100,1,0
56705,-100,4,3,0,100,0,1
86705,-100,4,3,0,100,0,0

[Colours]
Combo1 : 98,255,98
Combo2 : 255,128,255
Combo3 : 0,255,255
Combo4 : 255,128,0
Combo5 : 128,0,255

[HitObjects]
269,58,1848,2,0,P|236:40|192:36,1,75
256,192,2276,1,0,0:0:0:0:
256,192,2490,1,0,0:0:0:0:
243,326,2705,2,0,P|276:344|320:348,1,75
256,192,3133,1,0,0:0:0:0:
256,192,3347,1,0,0:0:0:0:
122,179,3562,6,0,P|104:212|100:256,1,75,0|0,0:0|0:0,0:0:0:0:
390,205,3990,2,0,P|408:172|412:128,1,75,0|0,0:0|0:0,0:0:0:0:
296,52,4419,1,0,0:0:0:0:
228,24,4633,1,0,0:0:0:0:
236,100,4848,1,0,0:0:0:0:
263,126,4955,1,0,0:0:0:0:
290,154,5062,1,0,0:0:0:0:
376,256,5276,6,0,P|344:284|304:292,1,75
148,224,5705,1,0,0:0:0:0:
40,116,6133,2,0,P|64:84|104:64,1,75
268,64,6562,1,0,0:0:0:0:
196,280,6990,6,0,P|244:292|260:312,1,75
229,375,7312,2,0,P|285:375|325:335,1,112.5
316,268,7848,2,0,L|352:200,1,75
352,84,8276,5,0,0:0:0:0:
320,84,8383,1,0,0:0:0:0:
288,92,8490,1,0,0:0:0:0:
260,104,8598,1,0,0:0:0:0:
236,124,8705,1,0,0:0:0:0:
388,84,29276,6,0,P|364:116|328:132,1,75
180,60,29598,1,0,0:0:0:0:
180,60,29705,1,0,0:0:0:0:
332,324,29919,1,0,0:0:0:0:
424,164,30133,2,0,P|387:180|348:176,1,75,0|0,0:0|0:0,0:0:0:0:
256,192,30562,1,0,0:0:0:0:
88,148,30776,1,0,0:0:0:0:
88,220,30990,2,0,L|88:284,2,37.5
180,284,31419,1,0,0:0:0:0:
208,300,31526,1,0,0:0:0:0:
240,308,31633,1,0,0:0:0:0:
272,312,31740,1,0,0:0:0:0:
304,312,31848,1,0,0:0:0:0:
88,64,32276,6,0,P|112:112|168:144,1,112.5
188,104,32705,1,0,0:0:0:0:
272,156,32919,2,0,L|300:200,1,37.5
320,92,33240,2,0,L|348:136,1,37.5
408,148,33562,2,0,L|428:179,1,37.5
360,204,33883,2,0,L|380:235,1,37.5
320,308,34205,5,0,0:0:0:0:
304,280,34312,1,0,0:0:0:0:
288,252,34419,1,0,0:0:0:0:
76,144,34633,2,0,P|108:188|100:248,1,112.5
76,268,35062,1,0,0:0:0:0:
76,144,35276,2,0,P|98:94|154:71,1,112.5
183,81,35705,1,0,0:0:0:0:
432,128,36133,6,0,P|396:144|356:148,1,75
320,60,36455,2,0,P|284:60|240:76,1,75
132,64,36776,2,0,P|128:112|156:144,1,75
168,192,37098,1,0,0:0:0:0:
168,192,37205,1,0,0:0:0:0:
256,196,37419,1,0,0:0:0:0:
344,228,37633,1,0,0:0:0:0:
368,256,37740,1,0,0:0:0:0:
384,292,37848,1,0,0:0:0:0:
256,304,38062,1,0,0:0:0:0:
92,264,38276,2,0,P|68:288|48:328,2,75
364,44,39133,5,0,0:0:0:0:
360,76,39240,1,0,0:0:0:0:
340,100,39348,1,0,0:0:0:0:
308,168,39562,2,0,L|264:140,2,37.5
388,184,39990,1,0,0:0:0:0:
384,216,40097,1,0,0:0:0:0:
364,240,40205,1,0,0:0:0:0:
260,256,40419,5,0,0:0:0:0:
160,252,40633,2,0,P|144:284|108:320,1,75
40,228,40955,2,0,P|68:203|87:172,1,75
244,148,41276,2,0,P|292:120|316:64,1,112.5
348,68,41705,1,0,0:0:0:0:
91,43,41919,1,0,0:0:0:0:
208,180,42133,1,0,0:0:0:0:
183,43,42348,1,0,0:0:0:0:
64,180,42562,1,0,0:0:0:0:
344,188,42776,5,0,0:0:0:0:
364,220,42883,1,0,0:0:0:0:
384,248,42990,1,0,0:0:0:0:
404,276,43098,1,0,0:0:0:0:
424,300,43205,1,0,0:0:0:0:
256,264,43419,2,0,L|256:320,2,37.5
168,188,43848,1,0,0:0:0:0:
104,280,44062,1,0,0:0:0:0:
88,160,44276,2,0,P|136:124|192:124,1,112.5
212,152,44705,1,0,0:0:0:0:
296,80,44919,1,0,0:0:0:0:
296,80,45133,1,0,0:0:0:0:
332,180,45348,2,0,P|360:204|404:224,2,75
240,260,45990,6,0,P|196:284|128:280,1,112.5
116,256,46419,1,0,0:0:0:0:
68,88,46633,1,0,0:0:0:0:
68,88,46740,1,0,0:0:0:0:
68,88,46848,1,0,0:0:0:0:
224,124,47062,1,0,0:0:0:0:
224,124,47169,1,0,0:0:0:0:
224,124,47276,1,0,0:0:0:0:
352,36,47490,2,0,P|408:36|452:68,1,112.5
436,104,47919,1,0,0:0:0:0:
392,208,48133,5,0,0:0:0:0:
364,224,48240,1,0,0:0:0:0:
336,236,48348,1,0,0:0:0:0:
304,240,48455,1,0,0:0:0:0:
272,232,48562,1,0,0:0:0:0:
244,212,48669,1,0,0:0:0:0:
220,188,48776,2,0,B|208:168|184:148|148:152|120:168,1,112.5
96,180,49205,1,0,0:0:0:0:
72,296,49419,6,0,L|112:312,1,37.5
144,320,49633,1,0,0:0:0:0:
168,272,49740,2,0,L|208:288,1,37.5
264,252,50062,2,0,P|312:280|368:296,1,112.5
396,308,50490,1,0,0:0:0:0:
432,304,50598,1,0,0:0:0:0:
352,160,50812,1,0,0:0:0:0:
320,144,50919,1,0,0:0:0:0:
292,128,51026,1,0,0:0:0:0:
264,116,51133,1,0,0:0:0:0:
200,52,51348,5,0,0:0:0:0:
32,32,51562,1,0,0:0:0:0:
104,172,51776,2,0,P|68:184|48:236,1,75
36,248,52098,1,0,0:0:0:0:
56,292,52205,1,0,0:0:0:0:
204,224,52312,2,0,P|232:252|248:292,1,75
316,276,52633,1,0,0:0:0:0:
136,332,52848,2,0,L|160:280,1,37.5
296,184,53169,5,0,0:0:0:0:
256,192,53276,2,0,P|192:184|168:148,1,112.5
160,112,53705,1,0,0:0:0:0:
288,80,53919,2,0,L|252:112,1,37.5
364,80,54240,2,0,L|328:112,1,37.5
388,152,54562,2,0,L|432:192,2,37.5
328,200,54990,1,0,0:0:0:0:
460,268,55205,1,0,0:0:0:0:
328,336,55419,1,0,0:0:0:0:
204,268,55633,1,0,0:0:0:0:
56,44,56062,6,0,P|112:40|160:72,1,112.5,0|0,0:0|0:0,0:0:0:0:
180,92,56490,1,0,0:0:0:0:
160,168,56705,1,0,0:0:0:0:
184,188,56812,1,0,0:0:0:0:
212,200,56919,1,0,0:0:0:0:
256,92,57133,2,0,P|289:109|348:64,1,112.5
368,32,57562,2,0,P|412:76|416:128,1,112.5
396,168,57990,2,0,P|432:192|488:244,1,112.5
328,240,58419,2,0,P|364:264|392:292,4,75
196,256,59383,5,0,0:0:0:0:
216,232,59490,1,0,0:0:0:0:
140,176,59705,2,0,P|184:140|240:136,1,112.5
268,144,60133,1,0,0:0:0:0:
412,56,60348,2,0,L|376:84,1,37.5
380,144,60669,2,0,L|344:172,1,37.5
316,244,60990,1,0,0:0:0:0:
304,272,61097,1,0,0:0:0:0:
288,300,61205,1,0,0:0:0:0:
264,316,61312,1,0,0:0:0:0:
232,320,61419,1,0,0:0:0:0:
88,216,61633,6,0,P|88:176|124:148,1,75
164,132,62062,1,0,0:0:0:0:
256,64,62276,1,0,0:0:0:0:
256,64,62383,1,0,0:0:0:0:
256,64,62490,1,0,0:0:0:0:
492,128,62705,6,0,P|460:148|416:160,1,75
308,232,63026,2,0,P|340:192|372:188,1,75
368,120,63348,1,0,0:0:0:0:
368,120,63455,1,0,0:0:0:0:
292,108,63562,2,0,P|240:80|180:76,1,112.5
108,104,63990,1,0,0:0:0:0:
124,144,64098,1,0,0:0:0:0:
112,184,64205,1,0,0:0:0:0:
8,268,64419,6,0,P|24:300|92:328,1,112.5
132,344,64848,1,0,0:0:0:0:
180,340,65062,1,0,0:0:0:0:
216,316,65276,2,0,P|232:284|300:256,1,112.5
344,276,65705,1,0,0:0:0:0:
372,316,65919,1,0,0:0:0:0:
440,56,66133,5,0,0:0:0:0:
416,76,66241,1,0,0:0:0:0:
396,100,66348,1,0,0:0:0:0:
448,160,66562,2,0,P|412:176|368:172,1,75
328,152,66990,1,0,0:0:0:0:
272,100,67205,2,0,L|232:80,1,37.5
204,64,67419,1,0,0:0:0:0:
204,140,67526,2,0,L|164:120,1,37.5
128,92,67848,2,0,P|76:108|40:152,1,112.5
40,192,68276,1,0,0:0:0:0:
108,228,68490,5,0,0:0:0:0:
76,252,68598,1,0,0:0:0:0:
72,288,68705,1,0,0:0:0:0:
88,324,68812,1,0,0:0:0:0:
128,332,68919,1,0,0:0:0:0:
160,312,69026,1,0,0:0:0:0:
196,300,69133,1,0,0:0:0:0:
232,308,69240,1,0,0:0:0:0:
264,332,69348,1,0,0:0:0:0:
352,328,69562,6,0,P|336:272|292:232,1,112.5
268,224,69990,1,0,0:0:0:0:
424,308,70205,1,0,0:0:0:0:
404,240,70419,1,0,0:0:0:0:
384,204,70526,1,0,0:0:0:0:
352,176,70633,1,0,0:0:0:0:
384,104,70848,1,0,0:0:0:0:
360,84,70955,1,0,0:0:0:0:
328,80,71062,1,0,0:0:0:0:
300,92,71169,1,0,0:0:0:0:
288,120,71276,2,0,P|244:144|180:112,1,112.5
152,132,71705,2,0,P|108:132|72:116,1,75
80,216,72133,6,0,P|120:232|160:228,1,75
228,376,72562,2,0,L|233:338,1,37.5
152,276,72776,2,0,L|174:306,1,37.5
224,216,73205,2,0,L|246:246,1,37.5
324,352,73419,2,0,L|329:314,1,37.5
300,268,73633,1,0,0:0:0:0:
368,216,73848,2,0,P|340:164|364:108,1,112.5,0|0,0:0|0:0,0:0:0:0:
392,92,74276,6,0,P|352:52|292:44,1,112.5
268,44,74705,1,0,0:0:0:0:
156,20,74919,1,0,0:0:0:0:
76,96,75133,1,0,0:0:0:0:
216,72,75348,2,0,P|160:104|144:160,1,112.5
172,172,75776,1,0,0:0:0:0:
104,220,75990,2,0,L|72:252,1,37.5
184,252,76312,2,0,L|152:284,1,37.5
92,328,76633,1,0,0:0:0:0:
92,328,76740,1,0,0:0:0:0:
92,328,76848,1,0,0:0:0:0:
264,332,77062,5,0,0:0:0:0:
420,328,77276,2,0,P|385:310|344:308,1,75
368,260,77598,1,0,0:0:0:0:
388,216,77705,2,0,P|356:168|292:164,1,112.5
48,304,78133,1,0,0:0:0:0:
88,296,78240,1,0,0:0:0:0:
112,268,78348,1,0,0:0:0:0:
100,232,78455,1,0,0:0:0:0:
76,208,78562,2,0,P|108:152|112:104,1,112.5
112,72,78990,1,0,0:0:0:0:
200,100,79205,1,0,0:0:0:0:
228,116,79312,1,0,0:0:0:0:
260,120,79419,1,0,0:0:0:0:
292,116,79526,1,0,0:0:0:0:
316,96,79633,1,0,0:0:0:0:
200,232,79848,6,0,P|235:216|279:224,1,75
316,232,80276,1,0,0:0:0:0:
256,304,80490,1,0,0:0:0:0:
256,304,80598,1,0,0:0:0:0:
256,304,80705,1,0,0:0:0:0:
96,264,80919,1,0,0:0:0:0:
96,264,81026,1,0,0:0:0:0:
52,116,81240,5,0,0:0:0:0:
52,116,81348,1,0,0:0:0:0:
52,116,81455,1,0,0:0:0:0:
152,68,81776,1,0,0:0:0:0:
188,74,81883,1,0,0:0:0:0:
217,98,81990,1,0,0:0:0:0:
239,128,82097,1,0,0:0:0:0:
263,157,82204,1,0,0:0:0:0:
294,177,82311,1,0,0:0:0:0:
331,184,82418,1,0,0:0:0:0:
108,244,83062,6,0,P|148:232|196:240,1,75
404,244,83490,1,0,0:0:0:0:
404,244,83598,1,0,0:0:0:0:
404,244,83705,1,0,0:0:0:0:
324,312,83919,1,0,0:0:0:0:
292,336,84026,1,0,0:0:0:0:
252,348,84133,2,0,P|208:333|184:308,1,75
256,192,84562,12,0,86705,0:0:0:0:
