osu file format v12

[General]
AudioFilename: Mysterious.mp3
AudioLeadIn: 0
PreviewTime: 56077
Countdown: 0
SampleSet: Soft
StackLeniency: 0.7
Mode: 0
LetterboxInBreaks: 1
SkinPreference:templateskin
WidescreenStoryboard: 0

[Editor]
DistanceSpacing: 0.8
BeatDivisor: 4
GridSize: 4

[Metadata]
Title:Mysterious
TitleUnicode:Mysterious
Artist:Luna&8#prince
ArtistUnicode:Luna&八王子P
Creator:CPU
Version:Luo
Source:
Tags:luo tianyi Mysterious vocaloid 8#prince
BeatmapID:324036
BeatmapSetID:127824

[Difficulty]
HPDrainRate:3
CircleSize:4
OverallDifficulty:5
ApproachRate:7
SliderMultiplier:1.5
SliderTickRate:2

[Events]
//Background and Video events
Video,0,"Mysterious~1.flv"
0,0,"Luo.jpg",0,0
//Break Periods
2,8690,28590
//Storyboard Layer 0 (Background)
//Storyboard Layer 1 (Fail)
//Storyboard Layer 2 (Pass)
//Storyboard Layer 3 (Foreground)
//Storyboard Sound Samples
//Background Colour Transformations
3,100,163,162,255

[TimingPoints]
1848,428.571428571429,4,2,1,100,1,0
56705,-100,4,2,1,100,0,1
86705,-100,4,2,1,100,0,0

[Colours]
Combo1 : 98,255,98
Combo2 : 255,128,255
Combo3 : 0,255,255
Combo4 : 255,128,0
Combo5 : 128,0,255

[HitObjects]
96,120,1848,2,0,B|104:168|104:168|136:200,1,75
416,120,2705,2,0,B|408:168|408:168|376:200,1,75
256,192,3562,1,0,0:0:0:0:
256,192,3776,1,0,0:0:0:0:
72,304,4205,2,0,P|114:294|151:259,1,75
160,192,4633,1,0,0:0:0:0:
144,96,4848,1,0,0:0:0:0:
72,32,5062,1,0,0:0:0:0:
424,112,5276,6,0,B|376:96|376:96|352:56,1,75
156,321,6133,2,0,B|136:288|136:288|88:272,1,75
256,192,6990,1,0,0:0:0:0:
256,192,7205,1,0,0:0:0:0:
400,192,7633,5,0,0:0:0:0:
360,112,7848,1,0,0:0:0:0:
288,56,8062,1,0,0:0:0:0:
200,64,8276,1,0,0:0:0:0:
120,112,8490,1,0,0:0:0:0:
64,320,29490,6,0,B|104:320|104:320|136:288,1,75
130,256,29812,1,0,0:0:0:0:
224,280,30133,2,0,B|264:280|264:280|296:248,1,75
292,296,30455,1,0,0:0:0:0:
388,240,30776,1,0,0:0:0:0:
325,169,30990,1,0,0:0:0:0:
425,155,31205,1,0,0:0:0:0:
362,82,31419,1,0,0:0:0:0:
265,95,31633,1,0,0:0:0:0:
52,88,32919,6,0,B|92:96|92:96|110:128,1,75
72,293,33348,1,0,0:0:0:70:
135,218,33562,1,0,0:0:0:0:
232,236,33776,2,0,B|300:205|300:205|372:240,1,150
391,138,34419,2,0,L|311:98,1,75
192,80,34848,1,0,0:0:0:0:
88,160,35062,2,0,L|48:184,2,37.5
246,323,36348,5,0,0:0:0:0:
332,268,36562,2,0,L|364:244,2,37.5
243,216,36990,2,0,L|203:210,3,37.5
112,144,37633,1,0,0:0:0:0:
153,54,37848,1,0,0:0:0:0:
258,34,38062,1,0,0:0:0:0:
329,105,38276,1,0,0:0:0:0:
315,203,38490,1,0,0:0:0:0:
61,299,38919,6,0,P|98:293|130:263,1,75
109,177,39348,1,0,0:0:0:0:
136,85,39562,2,0,P|172:90|201:114,1,75,0|0,0:0|0:0,0:0:0:0:
279,190,39990,1,0,0:0:0:0:
246,293,40205,2,0,P|301:312|353:260,1,112.5
360,103,40848,6,0,P|328:116|280:112,1,75,0|0,0:0|0:0,0:0:0:0:
256,88,41276,1,0,0:0:0:0:
128,64,41705,1,0,0:0:0:0:
57,169,41919,1,0,0:0:0:0:
382,282,42776,6,0,B|376:239|327:222,1,75
176,288,43526,2,0,B|67:260|79:132,1,187.5
137,47,44276,2,0,B|173:59|173:59|221:47,1,75
279,35,44705,1,0,0:0:0:0:
375,180,44919,2,0,B|339:168|339:168|291:180,1,75
233,192,45348,1,0,0:0:0:0:
108,168,45562,2,0,L|68:200,2,37.5
83,301,45990,1,0,0:0:0:0:
208,360,46205,1,0,0:0:0:0:
307,272,46419,2,0,B|248:248|208:152,1,150
276,104,47062,2,0,B|288:200|396:236,1,187.5
444,184,47705,2,0,B|431:150|431:150|394:144|394:144|390:110|390:110|358:111|358:111|352:80|352:80|322:77|322:77|311:52,1,225
404,304,49740,5,0,0:0:0:0:
404,304,49848,1,0,0:0:0:0:
276,252,50062,1,0,0:0:0:0:
136,276,50276,2,0,L|97:239,4,37.5
180,152,50919,1,0,0:0:0:0:
132,51,51133,1,0,0:0:0:0:
24,68,51348,1,0,0:0:0:0:
8,184,51562,1,0,0:0:0:0:
101,238,51776,2,0,L|85:294,2,56.25
220,232,52312,2,0,B|239:168|239:168|297:150,1,112.5
432,68,52848,6,0,B|387:44|387:44|314:66,1,112.5
272,52,53276,1,0,0:0:0:0:
172,60,53490,1,0,0:0:0:0:
92,136,53705,1,0,0:0:0:0:
96,240,53919,2,0,L|128:273,2,37.5
242,282,54348,1,0,0:0:0:0:
273,169,54562,1,0,0:0:0:0:
390,146,54776,1,0,0:0:0:0:
462,238,54990,1,0,0:0:0:0:
429,340,55205,1,0,0:0:0:0:
320,356,55419,2,0,B|306:314|248:308,1,75
66,176,56062,5,0,0:0:0:0:
117,253,56276,1,0,0:0:0:0:
206,280,56490,1,0,0:0:0:0:
180,171,56705,2,0,B|180:135|208:101|220:118|231:133|255:103|240:80,1,112.5
216,32,57133,2,0,P|180:40|144:32,1,75
108,48,57455,2,0,P|85:76|16:112,1,112.5
19,212,57990,1,0,0:0:0:0:
113,303,58205,1,0,0:0:0:0:
237,254,58419,2,0,P|244:183|305:147,1,112.5
360,120,59062,1,0,0:0:0:0:
104,40,59490,6,0,P|96:80|64:108,1,75
72,232,59919,1,0,0:0:0:0:
212,284,60133,2,0,P|245:269|282:275,1,75
408,268,60562,1,0,0:0:0:0:
408,268,60776,1,0,0:0:0:0:
384,140,60990,2,0,P|360:108|320:100,1,75
204,64,61419,2,0,P|164:72|124:48,1,75
56,128,61848,1,0,0:0:0:0:
80,224,62062,1,0,0:0:0:0:
176,248,62276,1,0,0:0:0:0:
248,176,62490,1,0,0:0:0:0:
440,112,62919,6,0,B|416:80|372:84,1,75
255,40,63348,1,0,0:0:0:0:
132,80,63562,1,0,0:0:0:0:
228,166,63776,1,0,0:0:0:0:
356,196,63990,2,0,B|397:192|421:224,1,75
343,322,64419,1,0,0:0:0:0:
183,320,64633,1,0,0:0:0:0:
88,188,64848,1,0,0:0:0:0:
165,80,65062,2,0,B|137:58|137:58|97:62,2,75
248,180,65705,1,0,0:0:0:0:
354,108,65919,1,0,0:0:0:0:
40,256,66348,5,0,0:0:0:0:
152,252,66562,2,0,B|188:228|184:180,1,75
92,144,66990,1,0,0:0:0:0:
296,80,67205,1,0,0:0:0:0:
180,80,67419,1,0,0:0:0:0:
380,144,67633,1,0,0:0:0:0:
392,256,67848,2,0,B|344:264|332:224|324:192|260:196,1,150
156,176,68490,5,0,0:0:0:0:
232,104,68705,1,0,0:0:0:0:
332,140,68919,1,0,0:0:0:0:
320,248,69133,1,0,0:0:0:0:
208,268,69348,1,0,0:0:0:0:
428,160,69776,6,0,B|404:128|404:128|364:116,1,75
246,130,70205,1,0,0:0:0:0:
256,264,70419,2,0,B|232:296|232:296|192:308,1,75,0|0,0:0|0:0,0:0:0:0:
128,264,70848,2,0,B|96:240|96:240|84:200,1,75
144,124,71276,2,0,L|116:84,2,37.5
236,88,71705,2,0,B|248:120|248:120|296:140,1,75
376,112,72133,2,0,B|412:136|412:136|428:188,1,75
256,192,72562,1,0,0:0:0:0:
268,344,72776,1,0,0:0:0:0:
244,40,73205,5,0,0:0:0:0:
176,136,73419,1,0,0:0:0:0:
308,136,73633,1,0,0:0:0:0:
248,232,73848,2,0,B|216:228|216:228|176:256,1,75
236,300,74276,2,0,B|268:302|268:302|301:276,1,75
424,256,74705,1,0,0:0:0:0:
428,144,74919,2,0,B|424:108|424:108|380:64,1,75
276,68,75348,1,0,0:0:0:0:
212,204,75562,1,0,0:0:0:0:
184,60,75776,1,0,0:0:0:0:
300,160,75990,1,0,0:0:0:0:
144,140,76205,1,0,0:0:0:0:
148,304,76633,5,0,0:0:0:0:
80,244,76848,1,0,0:0:0:0:
88,156,77062,1,0,0:0:0:0:
184,160,77276,2,0,P|200:188|252:204,2,75
155,73,77919,1,0,0:0:0:0:
260,64,78133,2,0,P|288:88|336:88,1,75
408,136,78562,1,0,0:0:0:0:
368,232,78776,1,0,0:0:0:0:
284,176,78990,1,0,0:0:0:0:
184,168,79205,1,0,0:0:0:0:
96,200,79419,2,0,P|76:240|108:280,1,75
216,284,80062,6,0,B|272:252|288:280|308:312|360:280,1,150
440,224,80705,1,0,0:0:0:0:
234,73,81026,1,0,0:0:0:0:
400,88,81348,1,0,0:0:0:0:
276,216,81776,2,0,B|272:216|272:216|252:208|252:208|232:220|232:220|216:208|216:208|200:220|200:220|184:208|184:208|168:220|168:220|152:208|152:208|136:220|136:220|120:208|120:208|102:219|102:219|84:208|84:208|80:208,1,225
104,88,83062,6,0,B|148:96|172:116|172:116|192:96|244:88,1,150
340,40,83705,1,0,0:0:0:0:
436,128,83919,1,0,0:0:0:0:
372,244,84133,2,0,P|332:252|320:304,1,75
240,324,84455,2,0,B|244:251|368:239|404:119|312:39|228:107|228:107|212:119|196:107|196:107|108:39|12:123|48:259|156:231|184:280,1,750
