osu file format v14

[General]
AudioFilename: lumpy.mp3
AudioLeadIn: 0
PreviewTime: 5027
Countdown: 0
SampleSet: Normal
StackLeniency: 0.7
Mode: 1
LetterboxInBreaks: 0
WidescreenStoryboard: 0

[Editor]
Bookmarks: 46702,80432,90810,101189,121945,146594,162242,177729,193297,208864,221512,223458,236107
DistanceSpacing: 1
BeatDivisor: 4
GridSize: 32
TimelineZoom: 1.9

[Metadata]
Title:Yoru orioriorioriori
TitleUnicode:夜折り折り折り折り折り
Artist:Lumpy
ArtistUnicode:Lumpy
Creator:Firce777
Version:Firce777's Taiko (TWC ver.)
Source:
Tags:
BeatmapID:707110
BeatmapSetID:317402

[Difficulty]
HPDrainRate:5
CircleSize:5
OverallDifficulty:5
ApproachRate:5
SliderMultiplier:1.4
SliderTickRate:1

[Events]
//Background and Video events
0,0,"21226_1311501927o3Ak.jpg",0,0
//Break Periods
//Storyboard Layer 0 (Background)
//Storyboard Layer 1 (Fail)
//Storyboard Layer 2 (Pass)
//Storyboard Layer 3 (Foreground)
//Storyboard Sound Samples

[TimingPoints]
0,324.324324324324,4,1,0,100,1,0
10378,-100,4,1,0,100,0,0
46702,-100,4,1,0,100,0,1
80432,-100,4,1,0,100,0,0
145378,-100,4,1,0,100,0,0
146594,324.324324324324,6,1,0,100,1,0
162161,-100,6,1,0,100,0,0
163053,-200,6,1,0,100,0,0
177729,-100,6,1,0,100,0,0
193296,-83.3333333333333,6,1,0,100,0,1
223458,-83.3333333333333,6,1,0,100,0,0
239350,324.324324324324,6,1,0,100,1,0
239350,-33.3333333333333,6,1,0,100,0,0

[HitObjects]
256,192,0,5,0,0:0:0:0:
256,192,162,1,2,0:0:0:0:
256,192,324,1,0,0:0:0:0:
256,192,486,1,2,0:0:0:0:
256,192,567,1,2,0:0:0:0:
256,192,648,1,0,0:0:0:0:
256,192,810,1,2,0:0:0:0:
256,192,972,1,0,0:0:0:0:
256,192,1054,1,2,0:0:0:0:
256,192,1135,1,2,0:0:0:0:
256,192,1216,1,2,0:0:0:0:
256,192,1297,1,0,0:0:0:0:
256,192,1378,1,0,0:0:0:0:
256,192,1459,1,2,0:0:0:0:
256,192,1621,1,0,0:0:0:0:
256,192,1783,1,2,0:0:0:0:
256,192,1945,1,0,0:0:0:0:
256,192,2270,1,0,0:0:0:0:
256,192,2594,1,0,0:0:0:0:
256,192,2756,1,2,0:0:0:0:
256,192,2918,1,0,0:0:0:0:
256,192,3080,1,2,0:0:0:0:
256,192,3161,1,2,0:0:0:0:
256,192,3242,1,0,0:0:0:0:
256,192,3404,1,2,0:0:0:0:
256,192,3566,1,0,0:0:0:0:
256,192,3648,1,2,0:0:0:0:
256,192,3729,1,2,0:0:0:0:
256,192,3810,1,2,0:0:0:0:
256,192,3891,1,0,0:0:0:0:
256,192,3972,1,0,0:0:0:0:
256,192,4053,1,2,0:0:0:0:
256,192,4215,1,0,0:0:0:0:
256,192,4377,1,2,0:0:0:0:
256,192,4539,1,0,0:0:0:0:
256,192,4702,1,0,0:0:0:0:
256,192,4864,1,0,0:0:0:0:
256,192,5189,1,0,0:0:0:0:
256,192,5351,1,2,0:0:0:0:
256,192,5513,1,0,0:0:0:0:
256,192,5675,1,2,0:0:0:0:
256,192,5756,1,2,0:0:0:0:
256,192,5837,1,0,0:0:0:0:
256,192,5999,1,2,0:0:0:0:
256,192,6161,1,0,0:0:0:0:
256,192,6243,1,2,0:0:0:0:
256,192,6324,1,2,0:0:0:0:
256,192,6405,1,2,0:0:0:0:
256,192,6486,1,0,0:0:0:0:
256,192,6567,1,0,0:0:0:0:
256,192,6648,1,2,0:0:0:0:
256,192,6810,1,0,0:0:0:0:
256,192,6972,1,2,0:0:0:0:
256,192,7134,1,0,0:0:0:0:
256,192,7459,1,0,0:0:0:0:
256,192,7783,1,0,0:0:0:0:
256,192,7945,1,2,0:0:0:0:
256,192,8107,1,0,0:0:0:0:
256,192,8269,1,2,0:0:0:0:
256,192,8350,1,2,0:0:0:0:
256,192,8431,1,0,0:0:0:0:
256,192,8593,1,2,0:0:0:0:
256,192,8755,1,0,0:0:0:0:
256,192,8837,1,2,0:0:0:0:
256,192,8918,1,2,0:0:0:0:
256,192,8999,1,2,0:0:0:0:
256,192,9080,1,0,0:0:0:0:
256,192,9161,1,0,0:0:0:0:
256,192,9242,1,2,0:0:0:0:
256,192,9404,1,0,0:0:0:0:
256,192,9566,1,2,0:0:0:0:
256,192,9728,1,0,0:0:0:0:
256,192,9810,1,0,0:0:0:0:
256,192,9891,1,0,0:0:0:0:
256,192,9972,1,0,0:0:0:0:
256,192,10054,1,0,0:0:0:0:
256,192,10135,1,2,0:0:0:0:
256,192,10216,1,2,0:0:0:0:
256,192,10297,1,2,0:0:0:0:
256,192,10378,1,0,0:0:0:0:
256,192,10702,1,2,0:0:0:0:
256,192,10783,1,2,0:0:0:0:
256,192,10864,1,0,0:0:0:0:
256,192,10945,1,2,0:0:0:0:
256,192,11027,1,2,0:0:0:0:
256,192,11189,1,0,0:0:0:0:
256,192,11351,1,2,0:0:0:0:
256,192,11432,1,2,0:0:0:0:
256,192,11513,1,0,0:0:0:0:
256,192,11594,1,0,0:0:0:0:
256,192,11999,1,2,0:0:0:0:
256,192,12080,1,2,0:0:0:0:
256,192,12161,1,0,0:0:0:0:
256,192,12242,1,2,0:0:0:0:
256,192,12324,1,2,0:0:0:0:
256,192,12486,1,0,0:0:0:0:
256,192,12648,1,2,0:0:0:0:
256,192,12729,1,2,0:0:0:0:
256,192,12810,1,0,0:0:0:0:
256,192,12891,1,0,0:0:0:0:
256,192,12972,1,0,0:0:0:0:
256,192,13135,1,0,0:0:0:0:
256,192,13297,1,2,0:0:0:0:
256,192,13459,1,2,0:0:0:0:
256,192,13540,1,2,0:0:0:0:
256,192,13621,1,0,0:0:0:0:
256,192,13783,1,2,0:0:0:0:
256,192,13945,1,0,0:0:0:0:
256,192,14027,1,0,0:0:0:0:
256,192,14108,1,2,0:0:0:0:
256,192,14189,1,2,0:0:0:0:
256,192,14270,1,0,0:0:0:0:
256,192,14351,1,0,0:0:0:0:
256,192,14432,1,0,0:0:0:0:
256,192,14513,1,2,0:0:0:0:
256,192,14594,1,0,0:0:0:0:
256,192,14675,1,2,0:0:0:0:
256,192,14756,1,2,0:0:0:0:
256,192,14837,1,2,0:0:0:0:
256,192,14918,1,0,0:0:0:0:
256,192,14999,1,2,0:0:0:0:
256,192,15081,1,0,0:0:0:0:
256,192,15162,1,0,0:0:0:0:
256,192,15243,1,0,0:0:0:0:
256,192,15324,1,2,0:0:0:0:
256,192,15405,1,0,0:0:0:0:
256,192,15486,1,0,0:0:0:0:
256,192,15567,1,0,0:0:0:0:
256,192,15891,1,2,0:0:0:0:
256,192,15972,1,2,0:0:0:0:
256,192,16054,1,2,0:0:0:0:
256,192,16135,1,0,0:0:0:0:
256,192,16216,1,0,0:0:0:0:
256,192,16540,1,0,0:0:0:0:
256,192,16621,1,2,0:0:0:0:
256,192,16702,1,0,0:0:0:0:
256,192,16783,1,2,0:0:0:0:
256,192,16864,1,2,0:0:0:0:
256,192,17027,1,2,0:0:0:0:
256,192,17189,1,0,0:0:0:0:
256,192,17270,1,2,0:0:0:0:
256,192,17351,1,2,0:0:0:0:
256,192,17432,1,2,0:0:0:0:
256,192,17513,1,0,0:0:0:0:
256,192,17594,1,0,0:0:0:0:
256,192,17675,1,2,0:0:0:0:
256,192,17756,1,0,0:0:0:0:
256,192,17837,1,0,0:0:0:0:
256,192,17918,1,2,0:0:0:0:
256,192,17999,1,0,0:0:0:0:
256,192,18081,1,0,0:0:0:0:
256,192,18162,1,0,0:0:0:0:
256,192,18324,1,0,0:0:0:0:
256,192,18486,1,2,0:0:0:0:
256,192,18648,1,2,0:0:0:0:
256,192,18729,1,2,0:0:0:0:
256,192,18810,1,0,0:0:0:0:
256,192,18891,5,2,0:0:0:0:
256,192,18972,1,0,0:0:0:0:
256,192,19054,1,0,0:0:0:0:
256,192,19135,1,0,0:0:0:0:
256,192,19216,1,0,0:0:0:0:
256,192,19297,1,2,0:0:0:0:
256,192,19378,1,2,0:0:0:0:
256,192,19459,1,0,0:0:0:0:
256,192,19621,1,2,0:0:0:0:
256,192,19702,1,2,0:0:0:0:
256,192,19783,1,0,0:0:0:0:
256,192,19864,1,0,0:0:0:0:
256,192,19945,1,2,0:0:0:0:
256,192,20027,1,2,0:0:0:0:
256,192,20108,1,0,0:0:0:0:
256,192,20189,1,0,0:0:0:0:
256,192,20270,1,2,0:0:0:0:
256,192,20351,1,2,0:0:0:0:
256,192,20432,1,0,0:0:0:0:
256,192,20513,1,0,0:0:0:0:
256,192,20594,1,0,0:0:0:0:
256,192,20675,1,2,0:0:0:0:
256,192,20756,1,0,0:0:0:0:
256,192,20837,1,0,0:0:0:0:
256,192,20918,1,0,0:0:0:0:
256,192,20999,1,2,0:0:0:0:
256,192,21162,1,0,0:0:0:0:
256,192,21243,1,2,0:0:0:0:
256,192,21324,1,2,0:0:0:0:
256,192,21405,1,2,0:0:0:0:
256,192,21486,1,0,0:0:0:0:
256,192,21567,1,0,0:0:0:0:
256,192,21648,1,2,0:0:0:0:
256,192,21729,1,2,0:0:0:0:
256,192,21810,1,0,0:0:0:0:
256,192,21891,1,0,0:0:0:0:
256,192,21972,1,2,0:0:0:0:
256,192,22054,1,2,0:0:0:0:
256,192,22135,1,0,0:0:0:0:
256,192,22297,1,0,0:0:0:0:
256,192,22378,1,2,0:0:0:0:
256,192,22540,1,0,0:0:0:0:
256,192,22621,1,0,0:0:0:0:
256,192,22702,1,0,0:0:0:0:
256,192,22783,1,2,0:0:0:0:
256,192,22864,1,2,0:0:0:0:
256,192,22945,1,0,0:0:0:0:
256,192,23027,1,0,0:0:0:0:
256,192,23108,1,2,0:0:0:0:
256,192,23189,1,2,0:0:0:0:
256,192,23270,1,0,0:0:0:0:
256,192,23351,1,0,0:0:0:0:
256,192,23432,1,0,0:0:0:0:
256,192,23513,1,0,0:0:0:0:
256,192,23594,1,2,0:0:0:0:
256,192,23757,1,0,0:0:0:0:
256,192,23838,1,2,0:0:0:0:
256,192,23919,1,2,0:0:0:0:
256,192,24000,1,2,0:0:0:0:
256,192,24081,1,0,0:0:0:0:
256,192,24162,1,0,0:0:0:0:
256,192,24243,1,2,0:0:0:0:
256,192,24324,1,2,0:0:0:0:
256,192,24405,1,0,0:0:0:0:
256,192,24486,1,0,0:0:0:0:
256,192,24567,1,2,0:0:0:0:
256,192,24649,1,2,0:0:0:0:
256,192,24730,1,0,0:0:0:0:
256,192,24810,1,0,0:0:0:0:
256,192,24891,1,0,0:0:0:0:
256,192,24973,1,2,0:0:0:0:
256,192,25135,1,2,0:0:0:0:
256,192,25216,1,0,0:0:0:0:
256,192,25297,1,0,0:0:0:0:
256,192,25378,1,2,0:0:0:0:
256,192,25459,1,2,0:0:0:0:
256,192,25540,1,0,0:0:0:0:
256,192,25622,1,0,0:0:0:0:
256,192,25703,1,2,0:0:0:0:
256,192,25784,1,2,0:0:0:0:
256,192,25865,1,0,0:0:0:0:
256,192,25946,1,0,0:0:0:0:
256,192,26108,1,2,0:0:0:0:
256,192,26270,1,0,0:0:0:0:
256,192,26432,1,2,0:0:0:0:
256,192,26513,1,2,0:0:0:0:
256,192,26594,1,0,0:0:0:0:
256,192,26756,1,2,0:0:0:0:
256,192,26837,1,2,0:0:0:0:
256,192,26918,1,0,0:0:0:0:
256,192,27162,1,0,0:0:0:0:
256,192,27243,1,0,0:0:0:0:
256,192,27405,1,2,0:0:0:0:
256,192,27567,1,0,0:0:0:0:
256,192,27648,1,0,0:0:0:0:
256,192,27729,1,2,0:0:0:0:
256,192,27810,1,2,0:0:0:0:
256,192,27891,1,0,0:0:0:0:
256,192,27972,1,0,0:0:0:0:
256,192,28054,1,0,0:0:0:0:
256,192,28135,1,2,0:0:0:0:
256,192,28216,1,0,0:0:0:0:
256,192,28297,1,2,0:0:0:0:
256,192,28378,1,2,0:0:0:0:
256,192,28459,1,2,0:0:0:0:
256,192,28540,1,0,0:0:0:0:
256,192,28702,1,2,0:0:0:0:
256,192,28864,1,0,0:0:0:0:
256,192,29026,1,2,0:0:0:0:
256,192,29107,1,2,0:0:0:0:
256,192,29188,1,0,0:0:0:0:
256,192,29351,1,2,0:0:0:0:
256,192,29513,1,0,0:0:0:0:
256,192,29675,1,2,0:0:0:0:
256,192,29756,1,0,0:0:0:0:
256,192,29837,1,0,0:0:0:0:
256,192,29999,1,2,0:0:0:0:
256,192,30162,1,0,0:0:0:0:
256,192,30243,1,2,0:0:0:0:
256,192,30324,1,2,0:0:0:0:
256,192,30405,1,2,0:0:0:0:
256,192,30486,1,0,0:0:0:0:
256,192,30567,1,0,0:0:0:0:
256,192,30648,1,2,0:0:0:0:
256,192,30729,1,2,0:0:0:0:
256,192,30810,1,0,0:0:0:0:
256,192,30891,1,0,0:0:0:0:
256,192,30972,1,2,0:0:0:0:
256,192,31054,1,2,0:0:0:0:
256,192,31135,1,0,0:0:0:0:
256,192,31216,1,0,0:0:0:0:
256,192,31297,1,0,0:0:0:0:
256,192,31378,1,2,0:0:0:0:
256,192,31541,1,0,0:0:0:0:
256,192,31622,1,2,0:0:0:0:
256,192,31703,1,2,0:0:0:0:
256,192,31784,1,2,0:0:0:0:
256,192,31865,1,0,0:0:0:0:
256,192,31946,1,0,0:0:0:0:
256,192,32027,1,2,0:0:0:0:
256,192,32108,1,2,0:0:0:0:
256,192,32189,1,0,0:0:0:0:
256,192,32270,1,0,0:0:0:0:
256,192,32351,1,2,0:0:0:0:
256,192,32432,1,2,0:0:0:0:
256,192,32513,1,0,0:0:0:0:
256,192,32675,1,0,0:0:0:0:
256,192,32756,1,2,0:0:0:0:
256,192,32918,1,0,0:0:0:0:
256,192,32999,1,2,0:0:0:0:
256,192,33081,1,0,0:0:0:0:
256,192,33162,1,0,0:0:0:0:
256,192,33243,1,2,0:0:0:0:
256,192,33405,1,0,0:0:0:0:
256,192,33567,1,2,0:0:0:0:
256,192,33648,1,2,0:0:0:0:
256,192,33729,1,0,0:0:0:0:
256,192,33810,1,0,0:0:0:0:
256,192,33891,1,0,0:0:0:0:
256,192,33972,1,2,0:0:0:0:
256,192,34135,1,0,0:0:0:0:
256,192,34216,1,2,0:0:0:0:
256,192,34297,1,2,0:0:0:0:
256,192,34378,1,2,0:0:0:0:
256,192,34459,1,0,0:0:0:0:
256,192,34540,1,0,0:0:0:0:
256,192,34621,1,2,0:0:0:0:
256,192,34702,1,2,0:0:0:0:
256,192,34783,1,0,0:0:0:0:
256,192,34864,1,0,0:0:0:0:
256,192,34945,1,2,0:0:0:0:
256,192,35027,1,2,0:0:0:0:
256,192,35108,1,0,0:0:0:0:
256,192,35269,1,0,0:0:0:0:
256,192,35351,1,2,0:0:0:0:
256,192,35513,1,0,0:0:0:0:
256,192,35594,1,2,0:0:0:0:
256,192,35675,1,0,0:0:0:0:
256,192,35756,1,0,0:0:0:0:
256,192,35837,1,2,0:0:0:0:
256,192,35999,1,0,0:0:0:0:
256,192,36162,1,0,0:0:0:0:
256,192,36324,1,0,0:0:0:0:
256,192,36405,1,2,0:0:0:0:
256,192,36486,1,2,0:0:0:0:
256,192,36567,1,0,0:0:0:0:
256,192,36648,1,0,0:0:0:0:
256,192,36729,1,2,0:0:0:0:
256,192,36810,1,2,0:0:0:0:
256,192,36891,1,0,0:0:0:0:
256,192,36972,1,2,0:0:0:0:
256,192,37054,1,0,0:0:0:0:
256,192,37135,1,2,0:0:0:0:
256,192,37216,1,0,0:0:0:0:
256,192,37297,1,2,0:0:0:0:
256,192,37378,1,2,0:0:0:0:
256,192,37459,1,0,0:0:0:0:
256,192,37540,1,0,0:0:0:0:
256,192,37621,1,0,0:0:0:0:
256,192,37702,1,2,0:0:0:0:
256,192,37783,1,2,0:0:0:0:
256,192,37864,1,0,0:0:0:0:
256,192,37945,1,2,0:0:0:0:
256,192,38026,1,2,0:0:0:0:
256,192,38107,1,0,0:0:0:0:
256,192,38188,1,0,0:0:0:0:
256,192,38269,1,0,0:0:0:0:
256,192,38432,1,2,0:0:0:0:
256,192,38513,1,0,0:0:0:0:
256,192,38594,1,2,0:0:0:0:
256,192,38756,1,0,0:0:0:0:
256,192,38918,1,0,0:0:0:0:
256,192,39000,1,2,0:0:0:0:
256,192,39081,1,2,0:0:0:0:
256,192,39162,1,0,0:0:0:0:
256,192,39243,1,0,0:0:0:0:
256,192,39324,1,2,0:0:0:0:
256,192,39405,1,2,0:0:0:0:
256,192,39486,1,0,0:0:0:0:
256,192,39567,1,2,0:0:0:0:
256,192,39649,1,0,0:0:0:0:
256,192,39730,1,2,0:0:0:0:
256,192,39811,1,0,0:0:0:0:
256,192,39892,1,2,0:0:0:0:
256,192,39973,1,2,0:0:0:0:
256,192,40054,1,0,0:0:0:0:
256,192,40135,1,0,0:0:0:0:
256,192,40216,1,0,0:0:0:0:
256,192,40297,1,2,0:0:0:0:
256,192,40378,1,2,0:0:0:0:
256,192,40459,1,0,0:0:0:0:
256,192,40540,1,2,0:0:0:0:
256,192,40621,1,2,0:0:0:0:
256,192,40702,1,0,0:0:0:0:
256,192,40783,1,0,0:0:0:0:
256,192,40864,1,0,0:0:0:0:
256,192,41189,1,0,0:0:0:0:
256,192,41513,1,0,0:0:0:0:
256,192,41594,1,2,0:0:0:0:
256,192,41675,1,2,0:0:0:0:
256,192,41756,1,0,0:0:0:0:
256,192,41837,1,0,0:0:0:0:
256,192,41918,1,2,0:0:0:0:
256,192,41999,1,2,0:0:0:0:
256,192,42080,1,0,0:0:0:0:
256,192,42161,1,2,0:0:0:0:
256,192,42243,1,0,0:0:0:0:
256,192,42324,1,2,0:0:0:0:
256,192,42405,1,0,0:0:0:0:
256,192,42486,1,2,0:0:0:0:
256,192,42567,1,2,0:0:0:0:
256,192,42648,1,0,0:0:0:0:
256,192,42729,1,0,0:0:0:0:
256,192,42810,1,0,0:0:0:0:
256,192,42891,1,2,0:0:0:0:
256,192,42972,1,2,0:0:0:0:
256,192,43053,1,0,0:0:0:0:
256,192,43134,1,2,0:0:0:0:
256,192,43215,1,2,0:0:0:0:
256,192,43296,1,0,0:0:0:0:
256,192,43377,1,0,0:0:0:0:
256,192,43458,1,0,0:0:0:0:
256,192,43621,1,2,0:0:0:0:
256,192,43702,1,0,0:0:0:0:
256,192,43783,1,2,0:0:0:0:
256,192,43864,1,0,0:0:0:0:
256,192,43945,1,0,0:0:0:0:
256,192,44108,1,0,0:0:0:0:
256,192,44189,1,2,0:0:0:0:
256,192,44270,1,2,0:0:0:0:
256,192,44351,1,0,0:0:0:0:
256,192,44432,1,0,0:0:0:0:
256,192,44513,1,2,0:0:0:0:
256,192,44594,1,2,0:0:0:0:
256,192,44675,1,0,0:0:0:0:
256,192,44756,1,2,0:0:0:0:
256,192,44838,1,0,0:0:0:0:
256,192,44919,1,2,0:0:0:0:
256,192,45000,1,0,0:0:0:0:
256,192,45081,1,2,0:0:0:0:
256,192,45162,1,2,0:0:0:0:
256,192,45243,1,0,0:0:0:0:
256,192,45324,1,0,0:0:0:0:
256,192,45405,1,0,0:0:0:0:
256,192,45486,1,2,0:0:0:0:
256,192,45567,1,2,0:0:0:0:
256,192,45648,1,0,0:0:0:0:
256,192,45729,1,2,0:0:0:0:
256,192,45810,1,2,0:0:0:0:
256,192,45891,1,0,0:0:0:0:
256,192,45972,1,0,0:0:0:0:
256,192,46054,1,2,0:0:0:0:
256,192,46378,1,0,0:0:0:0:
256,192,46459,1,2,0:0:0:0:
256,192,46540,1,0,0:0:0:0:
256,192,46621,1,2,0:0:0:0:
256,192,46702,1,2,0:0:0:0:
256,192,46783,1,0,0:0:0:0:
256,192,46864,1,2,0:0:0:0:
256,192,46945,1,0,0:0:0:0:
256,192,47027,1,0,0:0:0:0:
256,192,47189,1,0,0:0:0:0:
256,192,47270,1,2,0:0:0:0:
256,192,47351,1,0,0:0:0:0:
256,192,47432,1,0,0:0:0:0:
256,192,47513,1,2,0:0:0:0:
256,192,47594,1,0,0:0:0:0:
256,192,47675,1,0,0:0:0:0:
256,192,47756,1,2,0:0:0:0:
256,192,47837,1,0,0:0:0:0:
256,192,47918,1,2,0:0:0:0:
256,192,47999,1,0,0:0:0:0:
256,192,48081,1,2,0:0:0:0:
256,192,48162,1,0,0:0:0:0:
256,192,48243,1,0,0:0:0:0:
256,192,48324,1,2,0:0:0:0:
256,192,48486,1,0,0:0:0:0:
256,192,48567,1,2,0:0:0:0:
256,192,48648,1,0,0:0:0:0:
256,192,48729,1,2,0:0:0:0:
256,192,48810,1,0,0:0:0:0:
256,192,48891,1,2,0:0:0:0:
256,192,48972,1,2,0:0:0:0:
256,192,49054,1,0,0:0:0:0:
256,192,49135,1,0,0:0:0:0:
256,192,49216,1,2,0:0:0:0:
256,192,49297,1,0,0:0:0:0:
256,192,49459,1,2,0:0:0:0:
256,192,49513,1,2,0:0:0:0:
256,192,49567,1,2,0:0:0:0:
256,192,49621,1,0,0:0:0:0:
256,192,49783,1,0,0:0:0:0:
256,192,49864,1,2,0:0:0:0:
256,192,49945,1,2,0:0:0:0:
256,192,50027,1,0,0:0:0:0:
256,192,50108,1,0,0:0:0:0:
256,192,50189,1,2,0:0:0:0:
256,192,50270,1,2,0:0:0:0:
256,192,50351,1,0,0:0:0:0:
256,192,50432,1,0,0:0:0:0:
256,192,50513,1,2,0:0:0:0:
256,192,50594,1,0,0:0:0:0:
256,192,50675,1,0,0:0:0:0:
256,192,50756,1,0,0:0:0:0:
256,192,50837,1,2,0:0:0:0:
256,192,51000,1,0,0:0:0:0:
256,192,51081,1,2,0:0:0:0:
256,192,51162,1,2,0:0:0:0:
256,192,51243,1,2,0:0:0:0:
256,192,51324,1,0,0:0:0:0:
256,192,51405,1,0,0:0:0:0:
256,192,51486,1,2,0:0:0:0:
256,192,51567,1,2,0:0:0:0:
256,192,51648,1,0,0:0:0:0:
256,192,51729,1,0,0:0:0:0:
256,192,51810,1,2,0:0:0:0:
256,192,51891,1,2,0:0:0:0:
256,192,51972,1,0,0:0:0:0:
256,192,52135,1,0,0:0:0:0:
256,192,52216,1,2,0:0:0:0:
256,192,52378,1,0,0:0:0:0:
256,192,52459,1,2,0:0:0:0:
256,192,52540,1,0,0:0:0:0:
256,192,52621,1,2,0:0:0:0:
256,192,52702,1,2,0:0:0:0:
256,192,52783,1,0,0:0:0:0:
256,192,52864,1,0,0:0:0:0:
256,192,52945,1,2,0:0:0:0:
256,192,53027,1,2,0:0:0:0:
256,192,53108,1,0,0:0:0:0:
256,192,53189,1,0,0:0:0:0:
256,192,53270,1,2,0:0:0:0:
256,192,53351,1,0,0:0:0:0:
256,192,53432,1,2,0:0:0:0:
256,192,53594,1,0,0:0:0:0:
256,192,53675,1,2,0:0:0:0:
256,192,53756,1,2,0:0:0:0:
256,192,53837,1,2,0:0:0:0:
256,192,53918,1,0,0:0:0:0:
256,192,53999,1,0,0:0:0:0:
256,192,54080,1,2,0:0:0:0:
256,192,54161,1,2,0:0:0:0:
256,192,54242,1,0,0:0:0:0:
256,192,54323,1,0,0:0:0:0:
256,192,54404,1,2,0:0:0:0:
256,192,54485,1,2,0:0:0:0:
256,192,54566,1,0,0:0:0:0:
256,192,54648,1,0,0:0:0:0:
256,192,54729,1,0,0:0:0:0:
256,192,54810,1,2,0:0:0:0:
256,192,54891,1,2,0:0:0:0:
256,192,54972,1,0,0:0:0:0:
256,192,55054,1,0,0:0:0:0:
256,192,55135,1,0,0:0:0:0:
256,192,55216,1,2,0:0:0:0:
256,192,55297,1,2,0:0:0:0:
256,192,55378,1,0,0:0:0:0:
256,192,55459,1,0,0:0:0:0:
256,192,55540,1,2,0:0:0:0:
256,192,55621,1,2,0:0:0:0:
256,192,55702,1,0,0:0:0:0:
256,192,55783,1,0,0:0:0:0:
256,192,55945,1,2,0:0:0:0:
256,192,56108,1,0,0:0:0:0:
256,192,56270,1,2,0:0:0:0:
256,192,56351,1,0,0:0:0:0:
256,192,56432,1,2,0:0:0:0:
256,192,56513,1,0,0:0:0:0:
256,192,56594,1,0,0:0:0:0:
256,192,56756,1,0,0:0:0:0:
256,192,56837,1,2,0:0:0:0:
256,192,57081,1,0,0:0:0:0:
256,192,57243,1,2,0:0:0:0:
256,192,57405,1,0,0:0:0:0:
256,192,57486,1,0,0:0:0:0:
256,192,57567,1,2,0:0:0:0:
256,192,57648,1,2,0:0:0:0:
256,192,57729,1,0,0:0:0:0:
256,192,57810,1,2,0:0:0:0:
256,192,57891,1,2,0:0:0:0:
256,192,57972,1,2,0:0:0:0:
256,192,58054,1,2,0:0:0:0:
256,192,58135,1,0,0:0:0:0:
256,192,58216,1,0,0:0:0:0:
256,192,58297,1,0,0:0:0:0:
256,192,58378,1,0,0:0:0:0:
256,192,58459,1,2,0:0:0:0:
256,192,58540,1,2,0:0:0:0:
256,192,58621,1,2,0:0:0:0:
256,192,58702,1,0,0:0:0:0:
256,192,58783,1,0,0:0:0:0:
256,192,58864,1,2,0:0:0:0:
256,192,58918,1,2,0:0:0:0:
256,192,58972,1,2,0:0:0:0:
256,192,59027,1,0,0:0:0:0:
256,192,59189,1,2,0:0:0:0:
256,192,59351,1,0,0:0:0:0:
256,192,59432,1,0,0:0:0:0:
256,192,59513,1,2,0:0:0:0:
256,192,59594,1,0,0:0:0:0:
256,192,59675,1,0,0:0:0:0:
256,192,59837,1,0,0:0:0:0:
256,192,59891,1,0,0:0:0:0:
256,192,59945,1,0,0:0:0:0:
256,192,59999,1,2,0:0:0:0:
256,192,60162,1,0,0:0:0:0:
256,192,60243,1,2,0:0:0:0:
256,192,60324,1,0,0:0:0:0:
256,192,60405,1,0,0:0:0:0:
256,192,60486,1,2,0:0:0:0:
256,192,60567,1,2,0:0:0:0:
256,192,60648,1,0,0:0:0:0:
256,192,60729,1,0,0:0:0:0:
256,192,60810,1,2,0:0:0:0:
256,192,60891,1,2,0:0:0:0:
256,192,60972,1,0,0:0:0:0:
256,192,61054,1,2,0:0:0:0:
256,192,61135,1,0,0:0:0:0:
256,192,61216,1,0,0:0:0:0:
256,192,61297,1,2,0:0:0:0:
256,192,61459,1,0,0:0:0:0:
256,192,61540,1,2,0:0:0:0:
256,192,61621,1,0,0:0:0:0:
256,192,61783,1,2,0:0:0:0:
256,192,61945,1,0,0:0:0:0:
256,192,62027,1,0,0:0:0:0:
256,192,62108,1,2,0:0:0:0:
256,192,62189,1,2,0:0:0:0:
256,192,62270,1,0,0:0:0:0:
256,192,62351,1,0,0:0:0:0:
256,192,62432,1,2,0:0:0:0:
256,192,62513,1,0,0:0:0:0:
256,192,62594,1,0,0:0:0:0:
256,192,62756,1,2,0:0:0:0:
256,192,62837,1,0,0:0:0:0:
256,192,62918,1,0,0:0:0:0:
256,192,62999,1,0,0:0:0:0:
256,192,63081,1,2,0:0:0:0:
256,192,63243,1,0,0:0:0:0:
256,192,63324,1,0,0:0:0:0:
256,192,63405,1,2,0:0:0:0:
256,192,63486,1,2,0:0:0:0:
256,192,63567,1,0,0:0:0:0:
256,192,63648,1,0,0:0:0:0:
256,192,63729,1,0,0:0:0:0:
256,192,63810,1,2,0:0:0:0:
256,192,63973,1,0,0:0:0:0:
256,192,64054,1,2,0:0:0:0:
256,192,64135,1,2,0:0:0:0:
256,192,64216,1,2,0:0:0:0:
256,192,64297,1,0,0:0:0:0:
256,192,64378,1,0,0:0:0:0:
256,192,64459,1,2,0:0:0:0:
256,192,64540,1,2,0:0:0:0:
256,192,64621,1,0,0:0:0:0:
256,192,64702,1,0,0:0:0:0:
256,192,64783,1,2,0:0:0:0:
256,192,64864,1,2,0:0:0:0:
256,192,64945,1,0,0:0:0:0:
256,192,65027,1,0,0:0:0:0:
256,192,65108,1,0,0:0:0:0:
256,192,65189,1,2,0:0:0:0:
256,192,65351,1,0,0:0:0:0:
256,192,65432,1,2,0:0:0:0:
256,192,65513,1,0,0:0:0:0:
256,192,65594,1,0,0:0:0:0:
256,192,65675,1,2,0:0:0:0:
256,192,65837,1,2,0:0:0:0:
256,192,65918,1,2,0:0:0:0:
256,192,65999,1,0,0:0:0:0:
256,192,66081,1,0,0:0:0:0:
256,192,66162,1,0,0:0:0:0:
256,192,66243,1,2,0:0:0:0:
256,192,66324,1,2,0:0:0:0:
256,192,66405,1,0,0:0:0:0:
256,192,66486,1,0,0:0:0:0:
256,192,66567,1,2,0:0:0:0:
256,192,66648,1,2,0:0:0:0:
256,192,66729,1,0,0:0:0:0:
256,192,66810,1,2,0:0:0:0:
256,192,66892,1,0,0:0:0:0:
256,192,66973,1,2,0:0:0:0:
256,192,67054,1,0,0:0:0:0:
256,192,67135,1,2,0:0:0:0:
256,192,67216,1,2,0:0:0:0:
256,192,67297,1,0,0:0:0:0:
256,192,67378,1,0,0:0:0:0:
256,192,67459,1,0,0:0:0:0:
256,192,67540,1,2,0:0:0:0:
256,192,67621,1,2,0:0:0:0:
256,192,67702,1,0,0:0:0:0:
256,192,67783,1,2,0:0:0:0:
256,192,67864,1,2,0:0:0:0:
256,192,67945,1,0,0:0:0:0:
256,192,68026,1,0,0:0:0:0:
256,192,68107,1,0,0:0:0:0:
256,192,68189,1,0,0:0:0:0:
256,192,68270,1,0,0:0:0:0:
256,192,68351,1,2,0:0:0:0:
256,192,68432,1,0,0:0:0:0:
256,192,68756,1,0,0:0:0:0:
256,192,68837,1,2,0:0:0:0:
256,192,68918,1,2,0:0:0:0:
256,192,68999,1,0,0:0:0:0:
256,192,69080,1,0,0:0:0:0:
256,192,69161,1,2,0:0:0:0:
256,192,69242,1,2,0:0:0:0:
256,192,69323,1,0,0:0:0:0:
256,192,69404,1,2,0:0:0:0:
256,192,69486,1,0,0:0:0:0:
256,192,69567,1,2,0:0:0:0:
256,192,69648,1,0,0:0:0:0:
256,192,69729,1,2,0:0:0:0:
256,192,69810,1,2,0:0:0:0:
256,192,69891,1,0,0:0:0:0:
256,192,69972,1,0,0:0:0:0:
256,192,70053,1,0,0:0:0:0:
256,192,70134,1,2,0:0:0:0:
256,192,70215,1,2,0:0:0:0:
256,192,70296,1,0,0:0:0:0:
256,192,70377,1,2,0:0:0:0:
256,192,70458,1,2,0:0:0:0:
256,192,70539,1,0,0:0:0:0:
256,192,70620,1,0,0:0:0:0:
256,192,70701,1,0,0:0:0:0:
256,192,70945,1,0,0:0:0:0:
256,192,71027,1,2,0:0:0:0:
256,192,71189,1,0,0:0:0:0:
256,192,71351,1,0,0:0:0:0:
256,192,71432,1,2,0:0:0:0:
256,192,71513,1,2,0:0:0:0:
256,192,71594,1,0,0:0:0:0:
256,192,71675,1,0,0:0:0:0:
256,192,71756,1,2,0:0:0:0:
256,192,71837,1,2,0:0:0:0:
256,192,71918,1,0,0:0:0:0:
256,192,71999,1,2,0:0:0:0:
256,192,72081,1,0,0:0:0:0:
256,192,72162,1,2,0:0:0:0:
256,192,72243,1,0,0:0:0:0:
256,192,72324,1,2,0:0:0:0:
256,192,72405,1,2,0:0:0:0:
256,192,72486,1,0,0:0:0:0:
256,192,72567,1,0,0:0:0:0:
256,192,72648,1,0,0:0:0:0:
256,192,72729,1,2,0:0:0:0:
256,192,72810,1,2,0:0:0:0:
256,192,72891,1,0,0:0:0:0:
256,192,72972,1,2,0:0:0:0:
256,192,73053,1,2,0:0:0:0:
256,192,73134,1,0,0:0:0:0:
256,192,73215,1,0,0:0:0:0:
256,192,73296,1,0,0:0:0:0:
256,192,73378,1,0,0:0:0:0:
256,192,73459,1,0,0:0:0:0:
256,192,73540,1,2,0:0:0:0:
256,192,73621,1,0,0:0:0:0:
256,192,73945,1,0,0:0:0:0:
256,192,74026,1,2,0:0:0:0:
256,192,74107,1,2,0:0:0:0:
256,192,74188,1,0,0:0:0:0:
256,192,74269,1,0,0:0:0:0:
256,192,74350,1,2,0:0:0:0:
256,192,74431,1,2,0:0:0:0:
256,192,74512,1,0,0:0:0:0:
256,192,74593,1,2,0:0:0:0:
256,192,74675,1,0,0:0:0:0:
256,192,74756,1,2,0:0:0:0:
256,192,74837,1,0,0:0:0:0:
256,192,74918,1,2,0:0:0:0:
256,192,74999,1,2,0:0:0:0:
256,192,75080,1,0,0:0:0:0:
256,192,75161,1,0,0:0:0:0:
256,192,75242,1,0,0:0:0:0:
256,192,75323,1,2,0:0:0:0:
256,192,75404,1,2,0:0:0:0:
256,192,75485,1,0,0:0:0:0:
256,192,75566,1,2,0:0:0:0:
256,192,75647,1,2,0:0:0:0:
256,192,75728,1,0,0:0:0:0:
256,192,75809,1,0,0:0:0:0:
256,192,75890,1,0,0:0:0:0:
256,192,76216,1,0,0:0:0:0:
256,192,76297,1,2,0:0:0:0:
256,192,76378,1,0,0:0:0:0:
256,192,76459,1,2,0:0:0:0:
256,192,76540,1,2,0:0:0:0:
256,192,76702,1,2,0:0:0:0:
256,192,76864,1,0,0:0:0:0:
256,192,76945,1,2,0:0:0:0:
256,192,77026,1,0,0:0:0:0:
256,192,77107,1,2,0:0:0:0:
256,192,77188,1,2,0:0:0:0:
256,192,77350,1,2,0:0:0:0:
256,192,77513,1,0,0:0:0:0:
256,192,77594,1,2,0:0:0:0:
256,192,77675,1,2,0:0:0:0:
256,192,77837,1,0,0:0:0:0:
256,192,77918,1,2,0:0:0:0:
256,192,77999,1,0,0:0:0:0:
256,192,78080,1,2,0:0:0:0:
256,192,78161,1,2,0:0:0:0:
256,192,78324,1,0,0:0:0:0:
256,192,78405,1,2,0:0:0:0:
256,192,78567,1,0,0:0:0:0:
256,192,78648,1,2,0:0:0:0:
256,192,78810,1,0,0:0:0:0:
256,192,78891,1,2,0:0:0:0:
256,192,79054,1,0,0:0:0:0:
256,192,79135,1,2,0:0:0:0:
256,192,79297,1,0,0:0:0:0:
256,192,79378,1,2,0:0:0:0:
256,192,79540,1,0,0:0:0:0:
256,192,79621,1,2,0:0:0:0:
256,192,79784,1,0,0:0:0:0:
256,192,79865,1,2,0:0:0:0:
256,192,80027,1,0,0:0:0:0:
256,192,80108,1,2,0:0:0:0:
256,192,80162,1,2,0:0:0:0:
256,192,80216,1,2,0:0:0:0:
256,192,80270,1,2,0:0:0:0:
256,192,80324,1,0,0:0:0:0:
256,192,80378,1,0,0:0:0:0:
256,192,80432,1,0,0:0:0:0:
256,192,80756,1,2,0:0:0:0:
256,192,81081,1,0,0:0:0:0:
256,192,81243,1,0,0:0:0:0:
256,192,81405,1,2,0:0:0:0:
256,192,81567,1,2,0:0:0:0:
256,192,81648,1,0,0:0:0:0:
256,192,81729,1,0,0:0:0:0:
256,192,82054,1,2,0:0:0:0:
256,192,82378,1,0,0:0:0:0:
256,192,82459,1,0,0:0:0:0:
256,192,82540,1,0,0:0:0:0:
256,192,82621,1,0,0:0:0:0:
256,192,82702,1,2,0:0:0:0:
256,192,82864,1,2,0:0:0:0:
256,192,82945,1,0,0:0:0:0:
256,192,83027,1,0,0:0:0:0:
256,192,83351,1,2,0:0:0:0:
256,192,83676,1,0,0:0:0:0:
256,192,83838,1,0,0:0:0:0:
256,192,84000,1,2,0:0:0:0:
256,192,84162,1,2,0:0:0:0:
256,192,84243,1,0,0:0:0:0:
256,192,84324,1,0,0:0:0:0:
256,192,84649,1,2,0:0:0:0:
256,192,84973,1,0,0:0:0:0:
256,192,85054,1,0,0:0:0:0:
256,192,85135,1,0,0:0:0:0:
256,192,85216,1,0,0:0:0:0:
256,192,85297,1,2,0:0:0:0:
256,192,85459,1,2,0:0:0:0:
256,192,85540,1,0,0:0:0:0:
256,192,85621,1,0,0:0:0:0:
256,192,85945,1,2,0:0:0:0:
256,192,86270,1,0,0:0:0:0:
256,192,86432,1,0,0:0:0:0:
256,192,86594,1,2,0:0:0:0:
256,192,86756,1,2,0:0:0:0:
256,192,86837,1,0,0:0:0:0:
256,192,86918,1,0,0:0:0:0:
256,192,87243,1,2,0:0:0:0:
256,192,87567,1,0,0:0:0:0:
256,192,87648,1,0,0:0:0:0:
256,192,87729,1,0,0:0:0:0:
256,192,87810,1,0,0:0:0:0:
256,192,87891,1,2,0:0:0:0:
256,192,88054,1,2,0:0:0:0:
256,192,88135,1,0,0:0:0:0:
256,192,88216,1,0,0:0:0:0:
256,192,88540,1,2,0:0:0:0:
256,192,88865,1,0,0:0:0:0:
256,192,89027,1,0,0:0:0:0:
256,192,89189,1,2,0:0:0:0:
256,192,89351,1,2,0:0:0:0:
256,192,89432,1,0,0:0:0:0:
256,192,89513,1,0,0:0:0:0:
256,192,89838,1,2,0:0:0:0:
256,192,90162,1,0,0:0:0:0:
256,192,90243,1,0,0:0:0:0:
256,192,90324,1,0,0:0:0:0:
256,192,90405,1,0,0:0:0:0:
256,192,90486,1,2,0:0:0:0:
256,192,90810,1,0,0:0:0:0:
256,192,90891,1,2,0:0:0:0:
256,192,90972,1,2,0:0:0:0:
256,192,91054,1,0,0:0:0:0:
256,192,91135,1,2,0:0:0:0:
256,192,91216,1,2,0:0:0:0:
256,192,91297,1,0,0:0:0:0:
256,192,91378,1,0,0:0:0:0:
256,192,91459,1,2,0:0:0:0:
256,192,91540,1,2,0:0:0:0:
256,192,91621,1,0,0:0:0:0:
256,192,91702,1,0,0:0:0:0:
256,192,91783,1,0,0:0:0:0:
256,192,91864,1,2,0:0:0:0:
256,192,91945,1,2,0:0:0:0:
256,192,92027,1,0,0:0:0:0:
256,192,92108,1,2,0:0:0:0:
256,192,92189,1,2,0:0:0:0:
256,192,92270,1,0,0:0:0:0:
256,192,92351,1,0,0:0:0:0:
256,192,92432,1,2,0:0:0:0:
256,192,92513,1,2,0:0:0:0:
256,192,92594,1,0,0:0:0:0:
256,192,92675,1,0,0:0:0:0:
256,192,92756,1,2,0:0:0:0:
256,192,92837,1,0,0:0:0:0:
256,192,92918,1,0,0:0:0:0:
256,192,92999,1,0,0:0:0:0:
256,192,93081,1,2,0:0:0:0:
256,192,93162,1,2,0:0:0:0:
256,192,93243,1,0,0:0:0:0:
256,192,93324,1,2,0:0:0:0:
256,192,93405,1,2,0:0:0:0:
256,192,93486,1,0,0:0:0:0:
256,192,93567,1,2,0:0:0:0:
256,192,93648,1,2,0:0:0:0:
256,192,93729,1,0,0:0:0:0:
256,192,93810,1,2,0:0:0:0:
256,192,93891,1,2,0:0:0:0:
256,192,93972,1,2,0:0:0:0:
256,192,94054,1,0,0:0:0:0:
256,192,94135,1,2,0:0:0:0:
256,192,94216,1,0,0:0:0:0:
256,192,94297,1,0,0:0:0:0:
256,192,94378,1,0,0:0:0:0:
256,192,94459,1,2,0:0:0:0:
256,192,94540,1,0,0:0:0:0:
256,192,94621,1,0,0:0:0:0:
256,192,94702,1,0,0:0:0:0:
256,192,95189,1,2,0:0:0:0:
256,192,95270,1,0,0:0:0:0:
256,192,95351,1,2,0:0:0:0:
256,192,95432,1,2,0:0:0:0:
256,192,95513,1,0,0:0:0:0:
256,192,95594,1,0,0:0:0:0:
256,192,95675,1,2,0:0:0:0:
256,192,95756,1,0,0:0:0:0:
256,192,95837,1,0,0:0:0:0:
256,192,95918,1,0,0:0:0:0:
256,192,95999,1,0,0:0:0:0:
256,192,96080,1,2,0:0:0:0:
256,192,96161,1,2,0:0:0:0:
256,192,96243,1,0,0:0:0:0:
256,192,96324,1,2,0:0:0:0:
256,192,96405,1,2,0:0:0:0:
256,192,96486,1,0,0:0:0:0:
256,192,96567,1,0,0:0:0:0:
256,192,96648,1,2,0:0:0:0:
256,192,96729,1,2,0:0:0:0:
256,192,96810,1,0,0:0:0:0:
256,192,96891,1,0,0:0:0:0:
256,192,96972,1,0,0:0:0:0:
256,192,97053,1,2,0:0:0:0:
256,192,97134,1,2,0:0:0:0:
256,192,97216,1,0,0:0:0:0:
256,192,97297,1,2,0:0:0:0:
256,192,97378,1,2,0:0:0:0:
256,192,97459,1,0,0:0:0:0:
256,192,97540,1,0,0:0:0:0:
256,192,97621,1,2,0:0:0:0:
256,192,97702,1,2,0:0:0:0:
256,192,97783,1,0,0:0:0:0:
256,192,97864,1,0,0:0:0:0:
256,192,97945,1,2,0:0:0:0:
256,192,98026,1,0,0:0:0:0:
256,192,98107,1,0,0:0:0:0:
256,192,98188,1,0,0:0:0:0:
256,192,98270,1,2,0:0:0:0:
256,192,98351,1,2,0:0:0:0:
256,192,98432,1,0,0:0:0:0:
256,192,98513,1,2,0:0:0:0:
256,192,98594,1,2,0:0:0:0:
256,192,98675,1,0,0:0:0:0:
256,192,98756,1,2,0:0:0:0:
256,192,98837,1,2,0:0:0:0:
256,192,98918,1,0,0:0:0:0:
256,192,98999,1,0,0:0:0:0:
256,192,99080,1,2,0:0:0:0:
256,192,99161,1,2,0:0:0:0:
256,192,99243,1,0,0:0:0:0:
256,192,99324,1,2,0:0:0:0:
256,192,99405,1,0,0:0:0:0:
256,192,99486,1,0,0:0:0:0:
256,192,99567,1,0,0:0:0:0:
256,192,99648,1,2,0:0:0:0:
256,192,99729,1,0,0:0:0:0:
256,192,99810,1,0,0:0:0:0:
256,192,99891,1,0,0:0:0:0:
256,192,100378,1,2,0:0:0:0:
256,192,100459,1,0,0:0:0:0:
256,192,100540,1,2,0:0:0:0:
256,192,100621,1,2,0:0:0:0:
256,192,100702,1,0,0:0:0:0:
256,192,100783,1,0,0:0:0:0:
256,192,100864,1,2,0:0:0:0:
256,192,101189,1,0,0:0:0:0:
256,192,101270,1,0,0:0:0:0:
256,192,101351,1,2,0:0:0:0:
256,192,101432,1,0,0:0:0:0:
256,192,101513,1,2,0:0:0:0:
256,192,101594,1,2,0:0:0:0:
256,192,101675,1,0,0:0:0:0:
256,192,101756,1,0,0:0:0:0:
256,192,101837,1,2,0:0:0:0:
256,192,101918,1,2,0:0:0:0:
256,192,101999,1,0,0:0:0:0:
256,192,102081,1,0,0:0:0:0:
256,192,102162,1,0,0:0:0:0:
256,192,102243,1,2,0:0:0:0:
256,192,102324,1,2,0:0:0:0:
256,192,102405,1,0,0:0:0:0:
256,192,102486,1,2,0:0:0:0:
256,192,102567,1,0,0:0:0:0:
256,192,102648,1,0,0:0:0:0:
256,192,102729,1,2,0:0:0:0:
256,192,102810,1,2,0:0:0:0:
256,192,102891,1,0,0:0:0:0:
256,192,102972,1,0,0:0:0:0:
256,192,103054,1,2,0:0:0:0:
256,192,103135,1,2,0:0:0:0:
256,192,103216,1,0,0:0:0:0:
256,192,103297,1,0,0:0:0:0:
256,192,103378,1,0,0:0:0:0:
256,192,103459,1,2,0:0:0:0:
256,192,103540,1,0,0:0:0:0:
256,192,103621,1,0,0:0:0:0:
256,192,103702,1,2,0:0:0:0:
256,192,103783,1,0,0:0:0:0:
256,192,103864,1,0,0:0:0:0:
256,192,103945,1,0,0:0:0:0:
256,192,104027,1,2,0:0:0:0:
256,192,104108,1,2,0:0:0:0:
256,192,104162,1,2,0:0:0:0:
256,192,104216,1,2,0:0:0:0:
256,192,104270,1,0,0:0:0:0:
256,192,104432,1,0,0:0:0:0:
256,192,104513,1,2,0:0:0:0:
256,192,104594,1,2,0:0:0:0:
256,192,104675,1,0,0:0:0:0:
256,192,104756,1,0,0:0:0:0:
256,192,104837,1,0,0:0:0:0:
256,192,104918,1,2,0:0:0:0:
256,192,104999,1,2,0:0:0:0:
256,192,105081,1,0,0:0:0:0:
256,192,105135,1,0,0:0:0:0:
256,192,105189,1,0,0:0:0:0:
256,192,105243,1,2,0:0:0:0:
256,192,105405,1,0,0:0:0:0:
256,192,105567,1,2,0:0:0:0:
256,192,105648,1,0,0:0:0:0:
256,192,105729,1,2,0:0:0:0:
256,192,105810,1,2,0:0:0:0:
256,192,105891,1,0,0:0:0:0:
256,192,105972,1,0,0:0:0:0:
256,192,106053,1,2,0:0:0:0:
256,192,106134,1,0,0:0:0:0:
256,192,106215,1,0,0:0:0:0:
256,192,106270,1,0,0:0:0:0:
256,192,106324,1,0,0:0:0:0:
256,192,106378,1,0,0:0:0:0:
256,192,106540,1,2,0:0:0:0:
256,192,106621,1,0,0:0:0:0:
256,192,106702,1,2,0:0:0:0:
256,192,106783,1,2,0:0:0:0:
256,192,106864,1,0,0:0:0:0:
256,192,106945,1,0,0:0:0:0:
256,192,107026,1,2,0:0:0:0:
256,192,107107,1,2,0:0:0:0:
256,192,107188,1,0,0:0:0:0:
256,192,107270,1,0,0:0:0:0:
256,192,107351,1,0,0:0:0:0:
256,192,107432,1,2,0:0:0:0:
256,192,107513,1,2,0:0:0:0:
256,192,107594,1,0,0:0:0:0:
256,192,107675,1,2,0:0:0:0:
256,192,107756,1,0,0:0:0:0:
256,192,107837,1,0,0:0:0:0:
256,192,107918,1,2,0:0:0:0:
256,192,107999,1,0,0:0:0:0:
256,192,108054,1,0,0:0:0:0:
256,192,108108,1,0,0:0:0:0:
256,192,108161,1,8,0:0:0:0:
256,192,108324,1,2,0:0:0:0:
256,192,108405,1,0,0:0:0:0:
256,192,108486,1,0,0:0:0:0:
256,192,108567,1,0,0:0:0:0:
256,192,108648,1,2,0:0:0:0:
256,192,108729,1,0,0:0:0:0:
256,192,108810,1,0,0:0:0:0:
256,192,108891,1,2,0:0:0:0:
256,192,108972,1,0,0:0:0:0:
256,192,109053,1,0,0:0:0:0:
256,192,109134,1,0,0:0:0:0:
256,192,109216,1,2,0:0:0:0:
256,192,109297,1,2,0:0:0:0:
256,192,109378,1,2,0:0:0:0:
256,192,109459,1,0,0:0:0:0:
256,192,109540,1,2,0:0:0:0:
256,192,109621,1,0,0:0:0:0:
256,192,109702,1,2,0:0:0:0:
256,192,109783,1,2,0:0:0:0:
256,192,109864,1,0,0:0:0:0:
256,192,109945,1,0,0:0:0:0:
256,192,110026,1,0,0:0:0:0:
256,192,110107,1,2,0:0:0:0:
256,192,110188,1,2,0:0:0:0:
256,192,110270,1,0,0:0:0:0:
256,192,110351,1,2,0:0:0:0:
256,192,110432,1,0,0:0:0:0:
256,192,110513,1,2,0:0:0:0:
256,192,110594,1,0,0:0:0:0:
256,192,110756,1,2,0:0:0:0:
256,192,110837,1,0,0:0:0:0:
256,192,110918,1,2,0:0:0:0:
256,192,110999,1,2,0:0:0:0:
256,192,111080,1,0,0:0:0:0:
256,192,111161,1,0,0:0:0:0:
256,192,111242,1,2,0:0:0:0:
256,192,111323,1,0,0:0:0:0:
256,192,111405,1,0,0:0:0:0:
256,192,111486,1,0,0:0:0:0:
256,192,111566,1,0,0:0:0:0:
256,192,111729,1,2,0:0:0:0:
256,192,111783,1,2,0:0:0:0:
256,192,111837,1,2,0:0:0:0:
256,192,111891,1,0,0:0:0:0:
256,192,112054,1,2,0:0:0:0:
256,192,112216,1,2,0:0:0:0:
256,192,112270,1,2,0:0:0:0:
256,192,112324,1,2,0:0:0:0:
256,192,112378,1,0,0:0:0:0:
256,192,112459,1,0,0:0:0:0:
256,192,112540,1,0,0:0:0:0:
256,192,112621,1,0,0:0:0:0:
256,192,112702,1,2,0:0:0:0:
256,192,112864,1,2,0:0:0:0:
256,192,112945,1,0,0:0:0:0:
256,192,113108,1,2,0:0:0:0:
256,192,113189,1,0,0:0:0:0:
256,192,113351,1,2,0:0:0:0:
256,192,113432,1,0,0:0:0:0:
256,192,113513,1,0,0:0:0:0:
256,192,113594,1,2,0:0:0:0:
256,192,113675,1,0,0:0:0:0:
256,192,113756,1,0,0:0:0:0:
256,192,113837,1,2,0:0:0:0:
256,192,113918,1,0,0:0:0:0:
256,192,113999,1,0,0:0:0:0:
256,192,114081,1,2,0:0:0:0:
256,192,114162,1,0,0:0:0:0:
256,192,114243,1,2,0:0:0:0:
256,192,114324,1,0,0:0:0:0:
256,192,114486,1,2,0:0:0:0:
256,192,114567,1,0,0:0:0:0:
256,192,114729,1,2,0:0:0:0:
256,192,114891,1,0,0:0:0:0:
256,192,114972,1,0,0:0:0:0:
256,192,115054,1,2,0:0:0:0:
256,192,115135,1,0,0:0:0:0:
256,192,115216,1,2,0:0:0:0:
256,192,115297,1,2,0:0:0:0:
256,192,115378,1,2,0:0:0:0:
256,192,115459,1,0,0:0:0:0:
256,192,115540,1,2,0:0:0:0:
256,192,115621,1,0,0:0:0:0:
256,192,115702,1,2,0:0:0:0:
256,192,115864,1,0,0:0:0:0:
256,192,115945,1,2,0:0:0:0:
256,192,116108,1,0,0:0:0:0:
256,192,116189,1,2,0:0:0:0:
256,192,116351,1,0,0:0:0:0:
256,192,116432,1,2,0:0:0:0:
256,192,116513,1,2,0:0:0:0:
256,192,116594,1,2,0:0:0:0:
256,192,116675,1,0,0:0:0:0:
256,192,116756,1,0,0:0:0:0:
256,192,116837,1,0,0:0:0:0:
256,192,116918,1,0,0:0:0:0:
256,192,116999,1,2,0:0:0:0:
256,192,117081,1,2,0:0:0:0:
256,192,117135,1,0,0:0:0:0:
256,192,117189,1,0,0:0:0:0:
256,192,117243,1,0,0:0:0:0:
256,192,117405,1,0,0:0:0:0:
256,192,117486,1,0,0:0:0:0:
256,192,117567,1,2,0:0:0:0:
256,192,117648,1,0,0:0:0:0:
256,192,117729,1,0,0:0:0:0:
256,192,117810,1,2,0:0:0:0:
256,192,117891,1,0,0:0:0:0:
256,192,117972,1,0,0:0:0:0:
256,192,118054,1,2,0:0:0:0:
256,192,118135,1,0,0:0:0:0:
256,192,118216,1,0,0:0:0:0:
256,192,118297,1,2,0:0:0:0:
256,192,118378,1,0,0:0:0:0:
256,192,118459,1,0,0:0:0:0:
256,192,118540,1,2,0:0:0:0:
256,192,118621,1,2,0:0:0:0:
256,192,118783,1,0,0:0:0:0:
256,192,118945,1,0,0:0:0:0:
256,192,119027,1,0,0:0:0:0:
256,192,119108,1,2,0:0:0:0:
256,192,119270,1,0,0:0:0:0:
256,192,119432,1,0,0:0:0:0:
256,192,119513,1,0,0:0:0:0:
256,192,119594,1,2,0:0:0:0:
256,192,119675,1,0,0:0:0:0:
256,192,119756,1,2,0:0:0:0:
256,192,119837,1,0,0:0:0:0:
256,192,119918,1,2,0:0:0:0:
256,192,119999,1,2,0:0:0:0:
256,192,120081,1,2,0:0:0:0:
256,192,120162,1,2,0:0:0:0:
256,192,120243,1,2,0:0:0:0:
256,192,120324,1,0,0:0:0:0:
256,192,120405,1,2,0:0:0:0:
256,192,120486,1,2,0:0:0:0:
256,192,120567,1,2,0:0:0:0:
256,192,120648,1,0,0:0:0:0:
256,192,120810,1,0,0:0:0:0:
256,192,120891,1,2,0:0:0:0:
256,192,121054,1,2,0:0:0:0:
256,192,121135,1,0,0:0:0:0:
256,192,121297,1,0,0:0:0:0:
256,192,121351,1,0,0:0:0:0:
256,192,121405,1,0,0:0:0:0:
256,192,121459,1,2,0:0:0:0:
256,192,121513,1,2,0:0:0:0:
256,192,121567,1,2,0:0:0:0:
256,192,121621,1,0,0:0:0:0:
256,192,121702,1,0,0:0:0:0:
256,192,121783,1,0,0:0:0:0:
256,192,121864,1,0,0:0:0:0:
256,192,121945,1,2,0:0:0:0:
256,192,122027,1,0,0:0:0:0:
256,192,122108,1,0,0:0:0:0:
256,192,122189,1,0,0:0:0:0:
256,192,122270,1,0,0:0:0:0:
256,192,122432,1,2,0:0:0:0:
256,192,122513,1,0,0:0:0:0:
256,192,122594,1,0,0:0:0:0:
256,192,122675,1,0,0:0:0:0:
256,192,122756,1,0,0:0:0:0:
256,192,122918,1,2,0:0:0:0:
256,192,122999,1,0,0:0:0:0:
256,192,123080,1,0,0:0:0:0:
256,192,123161,1,2,0:0:0:0:
256,192,123242,1,0,0:0:0:0:
256,192,123324,1,0,0:0:0:0:
256,192,123405,1,2,0:0:0:0:
256,192,123486,1,0,0:0:0:0:
256,192,123568,1,0,0:0:0:0:
256,192,123648,1,2,0:0:0:0:
256,192,123730,1,0,0:0:0:0:
256,192,123811,1,0,0:0:0:0:
256,192,123892,1,0,0:0:0:0:
256,192,123972,1,0,0:0:0:0:
256,192,124135,1,2,0:0:0:0:
256,192,124216,1,0,0:0:0:0:
256,192,124297,1,0,0:0:0:0:
256,192,124378,1,0,0:0:0:0:
256,192,124459,1,0,0:0:0:0:
256,192,124621,1,2,0:0:0:0:
256,192,124702,1,0,0:0:0:0:
256,192,124783,1,0,0:0:0:0:
256,192,124864,1,2,0:0:0:0:
256,192,124945,1,0,0:0:0:0:
256,192,125027,1,0,0:0:0:0:
256,192,125108,1,2,0:0:0:0:
256,192,125189,1,0,0:0:0:0:
256,192,125271,1,0,0:0:0:0:
256,192,125351,1,2,0:0:0:0:
256,192,125433,1,0,0:0:0:0:
256,192,125514,1,0,0:0:0:0:
256,192,125595,1,0,0:0:0:0:
256,192,125676,1,0,0:0:0:0:
256,192,125838,1,2,0:0:0:0:
256,192,125919,1,0,0:0:0:0:
256,192,126000,1,0,0:0:0:0:
256,192,126081,1,0,0:0:0:0:
256,192,126162,1,0,0:0:0:0:
256,192,126324,1,2,0:0:0:0:
256,192,126405,1,0,0:0:0:0:
256,192,126486,1,0,0:0:0:0:
256,192,126567,1,2,0:0:0:0:
256,192,126648,1,0,0:0:0:0:
256,192,126730,1,0,0:0:0:0:
256,192,126811,1,2,0:0:0:0:
256,192,126892,1,0,0:0:0:0:
256,192,126972,1,0,0:0:0:0:
256,192,127054,1,2,0:0:0:0:
256,192,127136,1,0,0:0:0:0:
256,192,127217,1,0,0:0:0:0:
256,192,127298,1,0,0:0:0:0:
256,192,127379,1,0,0:0:0:0:
256,192,127541,1,2,0:0:0:0:
256,192,127622,1,0,0:0:0:0:
256,192,127703,1,0,0:0:0:0:
256,192,127784,1,0,0:0:0:0:
256,192,127865,1,0,0:0:0:0:
256,192,128027,1,2,0:0:0:0:
256,192,128108,1,0,0:0:0:0:
256,192,128189,1,0,0:0:0:0:
256,192,128270,1,2,0:0:0:0:
256,192,128351,1,0,0:0:0:0:
256,192,128405,1,0,0:0:0:0:
256,192,128459,1,0,0:0:0:0:
256,192,128513,1,2,0:0:0:0:
256,192,128594,1,2,0:0:0:0:
256,192,128675,1,2,0:0:0:0:
256,192,128756,1,2,0:0:0:0:
256,192,128837,1,0,0:0:0:0:
256,192,128918,1,0,0:0:0:0:
256,192,128999,1,0,0:0:0:0:
256,192,129081,1,0,0:0:0:0:
256,192,129243,1,2,0:0:0:0:
256,192,129324,1,0,0:0:0:0:
256,192,129405,1,2,0:0:0:0:
256,192,129729,1,2,0:0:0:0:
256,192,129810,1,0,0:0:0:0:
256,192,129891,1,0,0:0:0:0:
256,192,129972,1,2,0:0:0:0:
256,192,130054,1,0,0:0:0:0:
256,192,130135,1,0,0:0:0:0:
256,192,130216,1,2,0:0:0:0:
256,192,130297,1,0,0:0:0:0:
256,192,130378,1,2,0:0:0:0:
256,192,130621,1,2,0:0:0:0:
256,192,130702,1,2,0:0:0:0:
256,192,130756,1,2,0:0:0:0:
256,192,130810,1,2,0:0:0:0:
256,192,130864,1,2,0:0:0:0:
256,192,130945,1,2,0:0:0:0:
256,192,131027,1,0,0:0:0:0:
256,192,131108,1,0,0:0:0:0:
256,192,131189,1,0,0:0:0:0:
256,192,131270,1,0,0:0:0:0:
256,192,131432,1,2,0:0:0:0:
256,192,131513,1,0,0:0:0:0:
256,192,131594,1,2,0:0:0:0:
256,192,131918,1,2,0:0:0:0:
256,192,132081,1,0,0:0:0:0:
256,192,132162,1,2,0:0:0:0:
256,192,132243,1,0,0:0:0:0:
256,192,132486,1,2,0:0:0:0:
256,192,132567,1,0,0:0:0:0:
256,192,132648,1,2,0:0:0:0:
256,192,132729,1,2,0:0:0:0:
256,192,132810,1,0,0:0:0:0:
256,192,132972,1,0,0:0:0:0:
256,192,133027,1,0,0:0:0:0:
256,192,133081,1,0,0:0:0:0:
256,192,133135,1,2,0:0:0:0:
256,192,133297,1,0,0:0:0:0:
256,192,133378,1,2,0:0:0:0:
256,192,133459,1,0,0:0:0:0:
256,192,133540,1,0,0:0:0:0:
256,192,133621,1,2,0:0:0:0:
256,192,133702,1,0,0:0:0:0:
256,192,133783,1,0,0:0:0:0:
256,192,133864,1,2,0:0:0:0:
256,192,133945,1,0,0:0:0:0:
256,192,134027,1,0,0:0:0:0:
256,192,134108,1,0,0:0:0:0:
256,192,134189,1,0,0:0:0:0:
256,192,134270,1,2,0:0:0:0:
256,192,134432,1,2,0:0:0:0:
256,192,134513,1,2,0:0:0:0:
256,192,134594,1,0,0:0:0:0:
256,192,134756,1,2,0:0:0:0:
256,192,134837,1,0,0:0:0:0:
256,192,134918,1,0,0:0:0:0:
256,192,134999,1,2,0:0:0:0:
256,192,135081,1,0,0:0:0:0:
256,192,135162,1,0,0:0:0:0:
256,192,135243,1,2,0:0:0:0:
256,192,135324,1,2,0:0:0:0:
256,192,135405,1,0,0:0:0:0:
256,192,135486,1,2,0:0:0:0:
256,192,135567,1,0,0:0:0:0:
256,192,135729,1,0,0:0:0:0:
256,192,135810,1,2,0:0:0:0:
256,192,135891,1,0,0:0:0:0:
256,192,136054,1,2,0:0:0:0:
256,192,136135,1,2,0:0:0:0:
256,192,136216,1,0,0:0:0:0:
256,192,136297,1,2,0:0:0:0:
256,192,136378,1,2,0:0:0:0:
256,192,136459,1,2,0:0:0:0:
256,192,136540,1,0,0:0:0:0:
256,192,136620,1,2,0:0:0:0:
256,192,136782,1,2,0:0:0:0:
256,192,136945,1,2,0:0:0:0:
256,192,137108,1,0,0:0:0:0:
256,192,137270,1,0,0:0:0:0:
320,160,137351,1,0,0:0:0:0:
320,160,137432,1,0,0:0:0:0:
256,192,137513,1,0,0:0:0:0:
256,192,137594,1,8,0:0:0:0:
256,192,137675,1,0,0:0:0:0:
256,192,137756,1,0,0:0:0:0:
256,192,137837,1,2,0:0:0:0:
256,192,137918,1,0,0:0:0:0:
256,192,137999,1,0,0:0:0:0:
256,192,138081,1,2,0:0:0:0:
256,192,138162,1,0,0:0:0:0:
256,192,138243,1,0,0:0:0:0:
256,192,138297,1,0,0:0:0:0:
256,192,138351,1,0,0:0:0:0:
256,192,138405,1,2,0:0:0:0:
256,192,138486,1,2,0:0:0:0:
256,192,138594,1,2,0:0:0:0:
256,192,138702,1,2,0:0:0:0:
256,192,138810,1,8,0:0:0:0:
256,192,138891,1,0,0:0:0:0:
256,192,138972,1,0,0:0:0:0:
256,192,139054,1,0,0:0:0:0:
256,192,139135,1,0,0:0:0:0:
256,192,139297,1,2,0:0:0:0:
256,192,139378,1,0,0:0:0:0:
256,192,139459,1,2,0:0:0:0:
256,192,139783,1,2,0:0:0:0:
256,192,139864,1,2,0:0:0:0:
256,192,139945,1,0,0:0:0:0:
256,192,140027,1,2,0:0:0:0:
256,192,140108,1,0,0:0:0:0:
256,192,140189,1,2,0:0:0:0:
256,192,140351,1,2,0:0:0:0:
256,192,140432,1,0,0:0:0:0:
256,192,140513,1,2,0:0:0:0:
256,192,140594,1,2,0:0:0:0:
256,192,140675,1,0,0:0:0:0:
256,192,140756,1,0,0:0:0:0:
256,192,140837,1,0,0:0:0:0:
256,192,140918,1,0,0:0:0:0:
256,192,141000,1,2,0:0:0:0:
256,192,141081,1,0,0:0:0:0:
256,192,141162,1,0,0:0:0:0:
256,192,141243,1,2,0:0:0:0:
256,192,141324,1,0,0:0:0:0:
256,192,141405,1,0,0:0:0:0:
256,192,141486,1,2,0:0:0:0:
256,192,141567,1,0,0:0:0:0:
256,192,141648,1,0,0:0:0:0:
256,192,141729,1,2,0:0:0:0:
256,192,141810,1,0,0:0:0:0:
256,192,141891,1,0,0:0:0:0:
256,192,141972,1,0,0:0:0:0:
256,192,142054,1,0,0:0:0:0:
256,192,142135,1,2,0:0:0:0:
256,192,142297,1,2,0:0:0:0:
256,192,142378,1,0,0:0:0:0:
256,192,142459,1,0,0:0:0:0:
256,192,142540,1,0,0:0:0:0:
256,192,142621,1,2,0:0:0:0:
256,192,142702,1,0,0:0:0:0:
256,192,142783,1,0,0:0:0:0:
256,192,142864,1,2,0:0:0:0:
256,192,142945,1,0,0:0:0:0:
256,192,143027,1,0,0:0:0:0:
256,192,143108,1,2,0:0:0:0:
256,192,143189,1,2,0:0:0:0:
256,192,143270,1,0,0:0:0:0:
256,192,143351,1,2,0:0:0:0:
256,192,143432,1,8,0:0:0:0:
256,192,143513,1,2,0:0:0:0:
256,192,143594,1,0,0:0:0:0:
256,192,143675,1,2,0:0:0:0:
256,192,143756,1,0,0:0:0:0:
256,192,143918,1,2,0:0:0:0:
256,192,143999,1,2,0:0:0:0:
256,192,144081,1,0,0:0:0:0:
256,192,144162,1,2,0:0:0:0:
256,192,144243,1,2,0:0:0:0:
256,192,144324,1,2,0:0:0:0:
256,192,144405,1,2,0:0:0:0:
256,192,144486,1,0,0:0:0:0:
256,192,144567,1,2,0:0:0:0:
256,192,144729,1,0,0:0:0:0:
256,192,144891,1,0,0:0:0:0:
256,192,144972,1,2,0:0:0:0:
256,192,145135,1,0,0:0:0:0:
256,192,145216,1,2,0:0:0:0:
256,192,145297,1,0,0:0:0:0:
256,192,145459,1,0,0:0:0:0:
256,192,145621,1,2,0:0:0:0:
256,192,146108,1,0,0:0:0:0:
256,192,146189,1,2,0:0:0:0:
256,192,146270,1,0,0:0:0:0:
256,192,146351,1,0,0:0:0:0:
256,192,146432,1,2,0:0:0:0:
256,192,146513,1,2,0:0:0:0:
256,192,146594,1,0,0:0:0:0:
256,192,147080,1,0,0:0:0:0:
256,192,147242,1,2,0:0:0:0:
256,192,147729,1,0,0:0:0:0:
256,192,147891,1,0,0:0:0:0:
256,192,148053,1,0,0:0:0:0:
256,192,148215,1,2,0:0:0:0:
256,192,148539,1,0,0:0:0:0:
256,192,149026,1,0,0:0:0:0:
256,192,149188,1,2,0:0:0:0:
256,192,149675,1,0,0:0:0:0:
256,192,149838,1,0,0:0:0:0:
256,192,150000,1,0,0:0:0:0:
256,192,150162,1,2,0:0:0:0:
256,192,150404,1,2,0:0:0:0:
256,192,150485,1,2,0:0:0:0:
256,192,150972,1,0,0:0:0:0:
256,192,151134,1,2,0:0:0:0:
256,192,151621,1,0,0:0:0:0:
256,192,151783,1,0,0:0:0:0:
256,192,151945,1,0,0:0:0:0:
256,192,152107,1,2,0:0:0:0:
256,192,152431,1,0,0:0:0:0:
256,192,152918,1,0,0:0:0:0:
256,192,153080,1,2,0:0:0:0:
256,192,153567,1,0,0:0:0:0:
256,192,153730,1,0,0:0:0:0:
256,192,153892,1,0,0:0:0:0:
256,192,154054,1,2,0:0:0:0:
256,192,154134,1,0,0:0:0:0:
256,192,154215,1,0,0:0:0:0:
256,192,154296,1,2,0:0:0:0:
256,192,154377,1,2,0:0:0:0:
256,192,154864,1,0,0:0:0:0:
256,192,155026,1,2,0:0:0:0:
256,192,155513,1,0,0:0:0:0:
256,192,155675,1,0,0:0:0:0:
256,192,155837,1,0,0:0:0:0:
256,192,155999,1,2,0:0:0:0:
256,192,156323,1,0,0:0:0:0:
256,192,156810,1,0,0:0:0:0:
256,192,156972,1,2,0:0:0:0:
256,192,157459,1,0,0:0:0:0:
256,192,157622,1,0,0:0:0:0:
256,192,157784,1,0,0:0:0:0:
256,192,157946,1,2,0:0:0:0:
256,192,158188,1,2,0:0:0:0:
256,192,158269,1,2,0:0:0:0:
256,192,158756,1,0,0:0:0:0:
256,192,158918,1,2,0:0:0:0:
256,192,159405,1,0,0:0:0:0:
256,192,159567,1,0,0:0:0:0:
256,192,159729,1,0,0:0:0:0:
256,192,159891,1,2,0:0:0:0:
256,192,160215,1,0,0:0:0:0:
256,192,160702,1,0,0:0:0:0:
256,192,160864,1,2,0:0:0:0:
256,192,161351,1,0,0:0:0:0:
256,192,161512,1,0,0:0:0:0:
256,192,161676,1,0,0:0:0:0:
256,192,161756,1,2,0:0:0:0:
256,192,161837,1,0,0:0:0:0:
256,192,161918,1,0,0:0:0:0:
256,192,161999,1,2,0:0:0:0:
256,192,162080,1,2,0:0:0:0:
256,192,162161,1,0,0:0:0:0:
256,192,163134,1,0,0:0:0:0:
256,192,163458,1,0,0:0:0:0:
256,192,163783,1,0,0:0:0:0:
256,192,164107,1,2,0:0:0:0:
256,192,165080,1,0,0:0:0:0:
256,192,165404,1,0,0:0:0:0:
256,192,165566,1,2,0:0:0:0:
256,192,165729,1,2,0:0:0:0:
256,192,166053,1,2,0:0:0:0:
256,192,166215,1,0,0:0:0:0:
256,192,166296,1,0,0:0:0:0:
256,192,166377,1,0,0:0:0:0:
256,192,166702,1,0,0:0:0:0:
256,192,166864,1,2,0:0:0:0:
256,192,167026,1,0,0:0:0:0:
256,192,167107,1,2,0:0:0:0:
256,192,167188,1,0,0:0:0:0:
256,192,167350,1,0,0:0:0:0:
256,192,167512,1,2,0:0:0:0:
256,192,167675,1,0,0:0:0:0:
256,192,167756,1,2,0:0:0:0:
256,192,167918,1,2,0:0:0:0:
256,192,168080,1,2,0:0:0:0:
256,192,168242,1,0,0:0:0:0:
256,192,168323,1,2,0:0:0:0:
256,192,168485,1,0,0:0:0:0:
256,192,168566,1,2,0:0:0:0:
256,192,168648,1,0,0:0:0:0:
256,192,168810,1,0,0:0:0:0:
256,192,168972,1,2,0:0:0:0:
256,192,169458,1,0,0:0:0:0:
256,192,169539,1,2,0:0:0:0:
256,192,169621,1,0,0:0:0:0:
256,192,169702,1,0,0:0:0:0:
256,192,169783,1,2,0:0:0:0:
256,192,169864,1,2,0:0:0:0:
256,192,169945,1,0,0:0:0:0:
256,192,170918,1,0,0:0:0:0:
256,192,171242,1,0,0:0:0:0:
256,192,171567,1,0,0:0:0:0:
256,192,171891,1,2,0:0:0:0:
256,192,172864,1,0,0:0:0:0:
256,192,173188,1,0,0:0:0:0:
256,192,173350,1,2,0:0:0:0:
256,192,173513,1,2,0:0:0:0:
256,192,173837,1,2,0:0:0:0:
256,192,173999,1,0,0:0:0:0:
256,192,174080,1,0,0:0:0:0:
256,192,174161,1,0,0:0:0:0:
256,192,174486,1,0,0:0:0:0:
256,192,174648,1,2,0:0:0:0:
256,192,174810,1,0,0:0:0:0:
256,192,174891,1,2,0:0:0:0:
256,192,174972,1,0,0:0:0:0:
256,192,175134,1,0,0:0:0:0:
256,192,175296,1,2,0:0:0:0:
256,192,175459,1,0,0:0:0:0:
256,192,175540,1,2,0:0:0:0:
256,192,175702,1,2,0:0:0:0:
256,192,175864,1,2,0:0:0:0:
256,192,176026,1,0,0:0:0:0:
256,192,176107,1,2,0:0:0:0:
256,192,176269,1,0,0:0:0:0:
256,192,176350,1,2,0:0:0:0:
256,192,176432,1,0,0:0:0:0:
256,192,176594,1,0,0:0:0:0:
256,192,176756,1,2,0:0:0:0:
256,192,177242,1,0,0:0:0:0:
256,192,177323,1,2,0:0:0:0:
256,192,177405,1,0,0:0:0:0:
256,192,177486,1,0,0:0:0:0:
256,192,177567,1,2,0:0:0:0:
256,192,177648,1,2,0:0:0:0:
256,192,177729,1,0,0:0:0:0:
256,192,177891,1,2,0:0:0:0:
256,192,178053,1,0,0:0:0:0:
256,192,178134,1,2,0:0:0:0:
256,192,178296,1,0,0:0:0:0:
256,192,178377,1,2,0:0:0:0:
256,192,178458,1,0,0:0:0:0:
256,192,178539,1,0,0:0:0:0:
256,192,178621,1,2,0:0:0:0:
256,192,178783,1,0,0:0:0:0:
256,192,178864,1,2,0:0:0:0:
256,192,178945,1,0,0:0:0:0:
256,192,179026,1,0,0:0:0:0:
256,192,179107,1,0,0:0:0:0:
256,192,179188,1,0,0:0:0:0:
256,192,179269,1,2,0:0:0:0:
256,192,179350,1,2,0:0:0:0:
256,192,179431,1,0,0:0:0:0:
256,192,179512,1,0,0:0:0:0:
256,192,179593,1,2,0:0:0:0:
256,192,179675,1,0,0:0:0:0:
256,192,179837,1,2,0:0:0:0:
256,192,179999,1,0,0:0:0:0:
256,192,180080,1,2,0:0:0:0:
256,192,180242,1,0,0:0:0:0:
256,192,180323,1,2,0:0:0:0:
256,192,180404,1,0,0:0:0:0:
256,192,180485,1,0,0:0:0:0:
256,192,180567,1,2,0:0:0:0:
256,192,180729,1,0,0:0:0:0:
256,192,180810,1,2,0:0:0:0:
256,192,180891,1,0,0:0:0:0:
256,192,180972,1,0,0:0:0:0:
256,192,181053,1,0,0:0:0:0:
256,192,181134,1,0,0:0:0:0:
256,192,181215,1,2,0:0:0:0:
256,192,181296,1,2,0:0:0:0:
256,192,181377,1,0,0:0:0:0:
256,192,181458,1,0,0:0:0:0:
256,192,181539,1,2,0:0:0:0:
256,192,181621,1,0,0:0:0:0:
256,192,181783,1,0,0:0:0:0:
256,192,181864,1,2,0:0:0:0:
256,192,181945,1,0,0:0:0:0:
256,192,182026,1,2,0:0:0:0:
256,192,182188,1,0,0:0:0:0:
256,192,182270,1,0,0:0:0:0:
256,192,182432,1,2,0:0:0:0:
256,192,182594,1,0,0:0:0:0:
256,192,182675,1,2,0:0:0:0:
256,192,182756,1,0,0:0:0:0:
256,192,182918,1,0,0:0:0:0:
256,192,183080,1,2,0:0:0:0:
256,192,183243,1,2,0:0:0:0:
256,192,183323,1,0,0:0:0:0:
256,192,183404,1,0,0:0:0:0:
256,192,183486,1,2,0:0:0:0:
256,192,183648,1,2,0:0:0:0:
256,192,183810,1,0,0:0:0:0:
256,192,183891,1,2,0:0:0:0:
256,192,183972,1,0,0:0:0:0:
256,192,184053,1,0,0:0:0:0:
256,192,184134,1,2,0:0:0:0:
256,192,184216,1,0,0:0:0:0:
256,192,184378,1,0,0:0:0:0:
256,192,184540,1,2,0:0:0:0:
256,192,184702,1,2,0:0:0:0:
256,192,184783,1,0,0:0:0:0:
256,192,184864,1,0,0:0:0:0:
256,192,184945,1,0,0:0:0:0:
256,192,185026,1,2,0:0:0:0:
256,192,185107,1,2,0:0:0:0:
256,192,185188,1,2,0:0:0:0:
256,192,185269,1,0,0:0:0:0:
256,192,185350,1,2,0:0:0:0:
256,192,185431,1,2,0:0:0:0:
256,192,185512,1,0,0:0:0:0:
256,192,185675,1,2,0:0:0:0:
256,192,185837,1,0,0:0:0:0:
256,192,185918,1,2,0:0:0:0:
256,192,186080,1,0,0:0:0:0:
256,192,186161,1,2,0:0:0:0:
256,192,186242,1,0,0:0:0:0:
256,192,186323,1,0,0:0:0:0:
256,192,186405,1,2,0:0:0:0:
256,192,186567,1,0,0:0:0:0:
256,192,186648,1,2,0:0:0:0:
256,192,186729,1,0,0:0:0:0:
256,192,186810,1,0,0:0:0:0:
256,192,186891,1,0,0:0:0:0:
256,192,186972,1,0,0:0:0:0:
256,192,187053,1,2,0:0:0:0:
256,192,187134,1,2,0:0:0:0:
256,192,187215,1,0,0:0:0:0:
256,192,187296,1,0,0:0:0:0:
256,192,187377,1,2,0:0:0:0:
256,192,187459,1,0,0:0:0:0:
256,192,187621,1,2,0:0:0:0:
256,192,187783,1,0,0:0:0:0:
256,192,187864,1,2,0:0:0:0:
256,192,188026,1,0,0:0:0:0:
256,192,188107,1,2,0:0:0:0:
256,192,188188,1,0,0:0:0:0:
256,192,188269,1,0,0:0:0:0:
256,192,188351,1,2,0:0:0:0:
256,192,188513,1,0,0:0:0:0:
256,192,188594,1,2,0:0:0:0:
256,192,188675,1,0,0:0:0:0:
256,192,188756,1,0,0:0:0:0:
256,192,188837,1,0,0:0:0:0:
256,192,188918,1,0,0:0:0:0:
256,192,188999,1,2,0:0:0:0:
256,192,189080,1,2,0:0:0:0:
256,192,189161,1,0,0:0:0:0:
256,192,189242,1,0,0:0:0:0:
256,192,189323,1,2,0:0:0:0:
256,192,189405,1,0,0:0:0:0:
256,192,189567,1,0,0:0:0:0:
256,192,189648,1,2,0:0:0:0:
256,192,189729,1,0,0:0:0:0:
256,192,189810,1,2,0:0:0:0:
256,192,189972,1,0,0:0:0:0:
256,192,190054,1,0,0:0:0:0:
256,192,190216,1,2,0:0:0:0:
256,192,190378,1,0,0:0:0:0:
256,192,190459,1,2,0:0:0:0:
256,192,190540,1,0,0:0:0:0:
256,192,190702,1,0,0:0:0:0:
256,192,190864,1,2,0:0:0:0:
256,192,191027,1,2,0:0:0:0:
256,192,191107,1,0,0:0:0:0:
256,192,191188,1,0,0:0:0:0:
256,192,191270,1,2,0:0:0:0:
256,192,191432,1,2,0:0:0:0:
256,192,191594,1,0,0:0:0:0:
256,192,191675,1,2,0:0:0:0:
256,192,191756,1,0,0:0:0:0:
256,192,191837,1,0,0:0:0:0:
256,192,191918,1,2,0:0:0:0:
256,192,192000,1,0,0:0:0:0:
256,192,192162,1,0,0:0:0:0:
256,192,192324,1,2,0:0:0:0:
256,192,192486,1,2,0:0:0:0:
256,192,192567,1,0,0:0:0:0:
256,192,192648,1,0,0:0:0:0:
256,192,192810,1,2,0:0:0:0:
256,192,192891,1,2,0:0:0:0:
256,192,192972,1,2,0:0:0:0:
256,192,193053,1,0,0:0:0:0:
256,192,193134,1,2,0:0:0:0:
256,192,193215,1,2,0:0:0:0:
256,192,193296,1,0,0:0:0:0:
256,192,193458,1,2,0:0:0:0:
256,192,193539,1,2,0:0:0:0:
256,192,193621,1,0,0:0:0:0:
256,192,193702,1,0,0:0:0:0:
256,192,193864,1,2,0:0:0:0:
256,192,193945,1,0,0:0:0:0:
256,192,194026,1,2,0:0:0:0:
256,192,194107,1,0,0:0:0:0:
256,192,194269,1,2,0:0:0:0:
256,192,194350,1,2,0:0:0:0:
256,192,194431,1,0,0:0:0:0:
256,192,194512,1,2,0:0:0:0:
256,192,194593,1,0,0:0:0:0:
256,192,194675,1,2,0:0:0:0:
256,192,194756,1,2,0:0:0:0:
256,192,194837,1,0,0:0:0:0:
256,192,194918,1,0,0:0:0:0:
256,192,194999,1,2,0:0:0:0:
256,192,195080,1,2,0:0:0:0:
256,192,195161,1,2,0:0:0:0:
256,192,195242,1,2,0:0:0:0:
256,192,195323,1,0,0:0:0:0:
256,192,195404,1,0,0:0:0:0:
256,192,195485,1,2,0:0:0:0:
256,192,195566,1,0,0:0:0:0:
256,192,195648,1,0,0:0:0:0:
256,192,195729,1,2,0:0:0:0:
256,192,195810,1,0,0:0:0:0:
256,192,195891,1,0,0:0:0:0:
256,192,195972,1,2,0:0:0:0:
256,192,196053,1,0,0:0:0:0:
256,192,196134,1,0,0:0:0:0:
256,192,196215,1,8,0:0:0:0:
256,192,196296,1,0,0:0:0:0:
256,192,196377,1,8,0:0:0:0:
256,192,196458,1,0,0:0:0:0:
256,192,196539,1,2,0:0:0:0:
256,192,196621,1,2,0:0:0:0:
256,192,196702,1,2,0:0:0:0:
256,192,196783,1,2,0:0:0:0:
256,192,196864,1,2,0:0:0:0:
256,192,196945,1,0,0:0:0:0:
256,192,197026,1,2,0:0:0:0:
256,192,197107,1,0,0:0:0:0:
256,192,197188,1,0,0:0:0:0:
256,192,197350,1,2,0:0:0:0:
256,192,197431,1,2,0:0:0:0:
256,192,197512,1,0,0:0:0:0:
256,192,197675,1,0,0:0:0:0:
256,192,197756,1,2,0:0:0:0:
256,192,197837,1,0,0:0:0:0:
256,192,197918,1,0,0:0:0:0:
256,192,197999,1,2,0:0:0:0:
256,192,198161,1,0,0:0:0:0:
256,192,198242,1,0,0:0:0:0:
256,192,198323,1,2,0:0:0:0:
256,192,198404,1,0,0:0:0:0:
256,192,198485,1,0,0:0:0:0:
256,192,198566,1,2,0:0:0:0:
256,192,198648,1,0,0:0:0:0:
256,192,198729,1,2,0:0:0:0:
256,192,198810,1,2,0:0:0:0:
256,192,198891,1,0,0:0:0:0:
256,192,198972,1,0,0:0:0:0:
256,192,199053,1,2,0:0:0:0:
256,192,199134,1,2,0:0:0:0:
256,192,199215,1,2,0:0:0:0:
256,192,199296,1,2,0:0:0:0:
256,192,199377,1,0,0:0:0:0:
256,192,199458,1,2,0:0:0:0:
256,192,199539,1,0,0:0:0:0:
256,192,199621,1,2,0:0:0:0:
256,192,199702,1,8,0:0:0:0:
256,192,199783,1,2,0:0:0:0:
256,192,199864,1,0,0:0:0:0:
256,192,199945,1,2,0:0:0:0:
256,192,200026,1,0,0:0:0:0:
256,192,200107,1,2,0:0:0:0:
256,192,200188,1,0,0:0:0:0:
256,192,200269,1,2,0:0:0:0:
256,192,200350,1,0,0:0:0:0:
256,192,200431,1,2,0:0:0:0:
256,192,200512,1,0,0:0:0:0:
256,192,200593,1,0,0:0:0:0:
256,192,200675,1,0,0:0:0:0:
256,192,200756,1,2,0:0:0:0:
256,192,200837,1,2,0:0:0:0:
256,192,200918,1,0,0:0:0:0:
256,192,200999,1,2,0:0:0:0:
256,192,201080,1,2,0:0:0:0:
256,192,201242,1,2,0:0:0:0:
256,192,201404,1,0,0:0:0:0:
256,192,201485,1,2,0:0:0:0:
256,192,201648,1,2,0:0:0:0:
256,192,201810,1,0,0:0:0:0:
256,192,201891,1,2,0:0:0:0:
256,192,202053,1,0,0:0:0:0:
256,192,202215,1,2,0:0:0:0:
256,192,202296,1,2,0:0:0:0:
256,192,202377,1,0,0:0:0:0:
256,192,202458,1,0,0:0:0:0:
256,192,202621,1,0,0:0:0:0:
256,192,202702,1,2,0:0:0:0:
256,192,202783,1,2,0:0:0:0:
256,192,202864,1,2,0:0:0:0:
256,192,202945,1,2,0:0:0:0:
256,192,203026,1,0,0:0:0:0:
256,192,203107,1,2,0:0:0:0:
256,192,203188,1,0,0:0:0:0:
256,192,203269,1,2,0:0:0:0:
256,192,203350,1,2,0:0:0:0:
256,192,203431,1,0,0:0:0:0:
256,192,203512,1,0,0:0:0:0:
256,192,203593,1,0,0:0:0:0:
256,192,203674,1,0,0:0:0:0:
256,192,203755,1,2,0:0:0:0:
256,192,203809,1,2,0:0:0:0:
256,192,203863,1,2,0:0:0:0:
256,192,203917,1,0,0:0:0:0:
256,192,203998,1,0,0:0:0:0:
256,192,204161,1,2,0:0:0:0:
256,192,204323,1,0,0:0:0:0:
256,192,204404,1,2,0:0:0:0:
256,192,204485,1,2,0:0:0:0:
256,192,204566,1,2,0:0:0:0:
256,192,204648,1,2,0:0:0:0:
256,192,204729,1,0,0:0:0:0:
256,192,204810,1,8,0:0:0:0:
256,160,204891,1,8,0:0:0:0:
256,192,204972,1,0,0:0:0:0:
256,192,205053,1,2,0:0:0:0:
256,192,205134,1,0,0:0:0:0:
256,192,205215,1,2,0:0:0:0:
256,192,205296,1,0,0:0:0:0:
256,192,205377,1,0,0:0:0:0:
256,192,205458,1,0,0:0:0:0:
256,192,205512,1,0,0:0:0:0:
256,192,205566,1,0,0:0:0:0:
256,192,205621,1,2,0:0:0:0:
256,192,205702,1,2,0:0:0:0:
256,192,205783,1,0,0:0:0:0:
256,192,205945,1,2,0:0:0:0:
256,192,206026,1,2,0:0:0:0:
256,192,206107,1,0,0:0:0:0:
256,192,206269,1,0,0:0:0:0:
256,192,206350,1,0,0:0:0:0:
256,192,206431,1,2,0:0:0:0:
256,192,206593,1,0,0:0:0:0:
256,192,206675,1,2,0:0:0:0:
256,192,206756,1,0,0:0:0:0:
256,192,206837,1,2,0:0:0:0:
256,192,206918,1,0,0:0:0:0:
256,192,206999,1,2,0:0:0:0:
256,192,207080,1,2,0:0:0:0:
256,192,207161,1,0,0:0:0:0:
256,192,207242,1,2,0:0:0:0:
256,192,207323,1,2,0:0:0:0:
256,192,207404,1,0,0:0:0:0:
256,192,207485,1,2,0:0:0:0:
256,192,207566,1,2,0:0:0:0:
256,192,207648,1,0,0:0:0:0:
256,192,207729,1,0,0:0:0:0:
256,192,207810,1,2,0:0:0:0:
256,192,207972,1,2,0:0:0:0:
256,192,208053,1,0,0:0:0:0:
256,192,208134,1,0,0:0:0:0:
256,192,208215,1,2,0:0:0:0:
256,192,208377,1,2,0:0:0:0:
256,192,208539,1,0,0:0:0:0:
256,192,208621,1,2,0:0:0:0:
256,192,208702,1,2,0:0:0:0:
256,192,208783,1,2,0:0:0:0:
256,192,208864,1,0,0:0:0:0:
256,192,208945,1,2,0:0:0:0:
256,192,209026,1,0,0:0:0:0:
256,192,209107,1,2,0:0:0:0:
256,192,209188,1,0,0:0:0:0:
256,192,209269,1,2,0:0:0:0:
256,192,209350,1,0,0:0:0:0:
256,192,209431,1,2,0:0:0:0:
256,192,209512,1,0,0:0:0:0:
256,192,209675,1,2,0:0:0:0:
256,192,209756,1,0,0:0:0:0:
256,192,209999,1,0,0:0:0:0:
256,192,210080,1,0,0:0:0:0:
256,192,210161,1,2,0:0:0:0:
256,192,210323,1,2,0:0:0:0:
256,192,210485,1,0,0:0:0:0:
256,192,210566,1,2,0:0:0:0:
256,192,210648,1,0,0:0:0:0:
256,192,210729,1,2,0:0:0:0:
256,192,210810,1,0,0:0:0:0:
256,192,210972,1,0,0:0:0:0:
256,192,211134,1,0,0:0:0:0:
256,192,211215,1,2,0:0:0:0:
256,192,211296,1,2,0:0:0:0:
256,192,211377,1,0,0:0:0:0:
256,192,211458,1,0,0:0:0:0:
256,192,211539,1,2,0:0:0:0:
256,192,211621,1,0,0:0:0:0:
256,192,211702,1,0,0:0:0:0:
256,192,211783,1,2,0:0:0:0:
256,192,211864,1,0,0:0:0:0:
256,192,211945,1,2,0:0:0:0:
256,192,212026,1,2,0:0:0:0:
256,192,212107,1,2,0:0:0:0:
256,192,212188,1,0,0:0:0:0:
256,192,212269,1,2,0:0:0:0:
256,192,212350,1,0,0:0:0:0:
256,192,212431,1,2,0:0:0:0:
256,192,212512,1,2,0:0:0:0:
256,192,212593,1,0,0:0:0:0:
256,192,212675,1,0,0:0:0:0:
256,192,212756,1,2,0:0:0:0:
256,192,212918,1,0,0:0:0:0:
256,192,212999,1,0,0:0:0:0:
256,192,213080,1,2,0:0:0:0:
256,192,213161,1,0,0:0:0:0:
256,192,213242,1,2,0:0:0:0:
256,192,213323,1,2,0:0:0:0:
256,192,213404,1,0,0:0:0:0:
256,192,213485,1,2,0:0:0:0:
256,192,213566,1,2,0:0:0:0:
256,192,213648,1,2,0:0:0:0:
256,192,213729,1,0,0:0:0:0:
256,192,213810,1,2,0:0:0:0:
256,192,213891,1,0,0:0:0:0:
256,192,213972,1,2,0:0:0:0:
256,192,214053,1,0,0:0:0:0:
256,192,214215,1,2,0:0:0:0:
256,192,214296,1,0,0:0:0:0:
256,192,214458,1,2,0:0:0:0:
256,192,214539,1,0,0:0:0:0:
256,192,214702,1,2,0:0:0:0:
256,192,214783,1,0,0:0:0:0:
256,192,214945,1,2,0:0:0:0:
256,192,215026,1,0,0:0:0:0:
256,192,215107,1,2,0:0:0:0:
256,192,215188,1,0,0:0:0:0:
256,192,215269,1,2,0:0:0:0:
256,192,215350,1,0,0:0:0:0:
256,192,215512,1,0,0:0:0:0:
256,192,215675,1,2,0:0:0:0:
256,192,215837,1,2,0:0:0:0:
256,192,215945,1,0,0:0:0:0:
256,192,216053,1,0,0:0:0:0:
256,192,216161,1,2,0:0:0:0:
256,192,216269,1,0,0:0:0:0:
256,192,216377,1,2,0:0:0:0:
256,192,216485,1,0,0:0:0:0:
256,192,216539,1,2,0:0:0:0:
256,192,216593,1,0,0:0:0:0:
256,192,216648,1,2,0:0:0:0:
256,192,216810,1,0,0:0:0:0:
256,192,216891,1,2,0:0:0:0:
256,192,217053,1,0,0:0:0:0:
256,192,217134,1,0,0:0:0:0:
256,192,217296,1,0,0:0:0:0:
256,192,217377,1,2,0:0:0:0:
256,192,217539,1,0,0:0:0:0:
256,192,217621,1,0,0:0:0:0:
256,192,217783,1,0,0:0:0:0:
256,192,217945,1,2,0:0:0:0:
256,192,218107,1,2,0:0:0:0:
256,192,218161,1,2,0:0:0:0:
256,192,218215,1,2,0:0:0:0:
256,192,218269,1,0,0:0:0:0:
256,192,218431,1,0,0:0:0:0:
256,192,218512,1,2,0:0:0:0:
256,192,218593,1,0,0:0:0:0:
256,192,218675,1,2,0:0:0:0:
256,192,218756,1,0,0:0:0:0:
256,192,218837,1,2,0:0:0:0:
256,192,218918,1,2,0:0:0:0:
256,192,218999,1,0,0:0:0:0:
256,192,219080,1,2,0:0:0:0:
256,192,219161,1,0,0:0:0:0:
256,192,219242,1,2,0:0:0:0:
256,192,219323,1,0,0:0:0:0:
256,192,219404,1,2,0:0:0:0:
256,192,219485,1,2,0:0:0:0:
256,192,219566,1,0,0:0:0:0:
256,192,219648,1,2,0:0:0:0:
256,192,219729,1,0,0:0:0:0:
256,192,219810,1,2,0:0:0:0:
256,192,219891,1,2,0:0:0:0:
256,192,220053,1,0,0:0:0:0:
256,192,220215,1,2,0:0:0:0:
256,192,220377,1,2,0:0:0:0:
256,192,220458,1,0,0:0:0:0:
256,192,220539,1,0,0:0:0:0:
256,192,220621,1,2,0:0:0:0:
256,192,220702,1,2,0:0:0:0:
256,192,220783,1,0,0:0:0:0:
256,192,220864,1,2,0:0:0:0:
256,192,220945,1,2,0:0:0:0:
256,192,221026,1,0,0:0:0:0:
256,192,221107,1,2,0:0:0:0:
256,192,221188,1,0,0:0:0:0:
256,192,221350,1,0,0:0:0:0:
256,192,221431,1,2,0:0:0:0:
256,192,221512,1,0,0:0:0:0:
256,192,221593,1,2,0:0:0:0:
256,192,221675,1,0,0:0:0:0:
256,192,221837,1,0,0:0:0:0:
256,192,221999,1,2,0:0:0:0:
256,192,222161,1,0,0:0:0:0:
256,192,222242,1,2,0:0:0:0:
256,192,222404,1,0,0:0:0:0:
256,192,222566,1,2,0:0:0:0:
256,192,222729,1,0,0:0:0:0:
256,192,222810,1,2,0:0:0:0:
256,192,222972,1,0,0:0:0:0:
256,192,223053,1,2,0:0:0:0:
256,192,223134,1,0,0:0:0:0:
256,192,223296,1,0,0:0:0:0:
256,192,223458,2,0,B|256:0|256:0|512:0|512:0|512:384|512:384|0:384|0:384|0:0|0:0|288:0|288:0|480:0|480:0|480:352|480:352|256:288,1,2792.99991476441
256,192,228931,2,0,B|256:32|256:0|256:0,1,188.999994232178
256,192,229377,2,0,B|256:0|256:0|320:0,1,251.999992309571
256,192,229945,2,0,B|256:0|256:0|384:0,1,314.999990386963
256,192,230634,2,0,L|256:96,1,83.9999974365235
256,192,230877,2,0,L|256:0,1,188.999994232178
256,192,231323,1,2,0:0:0:0:
256,192,231404,2,0,B|256:0|256:0|288:32,1,230.99999295044
256,192,231931,2,0,B|256:0|256:0|320:0,1,251.999992309571
256,192,232499,2,0,B|256:0|256:0|352:32,1,293.999991027832
256,192,233148,1,2,0:0:0:0:
256,192,233269,2,0,L|256:0|256:0,1,188.999994232178
256,192,233715,2,0,L|256:64,1,125.999996154785
256,192,234039,1,2,0:0:0:0:
256,192,234121,1,0,0:0:0:0:
256,192,234242,1,2,0:0:0:0:
256,192,234323,1,0,0:0:0:0:
256,192,234404,12,0,236107,0:0:0:0:
256,192,239350,5,2,0:0:0:0:
256,192,240323,1,2,0:0:0:0:
256,192,241296,1,2,0:0:0:0:
256,192,243242,1,2,0:0:0:0:
256,192,243323,1,0,0:0:0:0:
