osu file format v9

[General]
AudioFilename: [Luka + Miku] Kagome Kagome[Vocaloid Horror].mp3
AudioLeadIn: 0
PreviewTime: -1
Countdown: 1
SampleSet: Soft
StackLeniency: 0.7
Mode: 0
LetterboxInBreaks: 1

[Editor]
DistanceSpacing: 0.8
BeatDivisor: 4
GridSize: 32

[Metadata]
Title:[Luka + Miku] Kagome Kagome[Vocaloid Horror]
Artist:Luka+Miku
Creator:cominuscoo
Version:nightmare
Source:
Tags:

[Difficulty]
HPDrainRate:3
CircleSize:4
OverallDifficulty:6
ApproachRate:6
SliderMultiplier:1.4
SliderTickRate:1

[Events]
//Background and Video events
0,0,"00002w8q.jpg"
//Break Periods
2,97500,105850
2,193500,211450
2,227100,228250
//Storyboard Layer 0 (Background)
//Storyboard Layer 1 (Fail)
//Storyboard Layer 2 (Pass)
//Storyboard Layer 3 (Foreground)
//Storyboard Sound Samples
//Background Colour Transformations
3,100,163,162,255

[TimingPoints]
20500,600,4,2,0,100,1,0
20500,-100,4,2,0,100,0,0

[HitObjects]
32,32,20500,2,8,B|192:32,1,140
224,32,21400,2,8,B|224:128,1,70
224,160,22000,2,8,B|128:160,1,70
96,160,22600,2,8,B|192:320|320:160,2,280
160,160,25300,2,8,B|256:160,1,70
288,160,25900,2,8,B|288:256,1,70
288,288,26500,2,8,B|192:288,1,70
160,288,27100,2,8,B|160:192,1,70
160,160,27700,2,4,B|320:160|320:160|320:288|320:288|160:288,1,420
96,224,30100,6,8,B|96:384,1,140
160,352,31000,2,8,B|256:352,1,70
288,352,31600,2,8,B|288:256,1,70
288,224,32200,2,8,B|128:224,1,140
96,224,33100,2,4,B|256:224,1,140
64,64,34900,6,8,B|128:0|128:0|192:0,1,140
224,0,35800,2,8,B|192:64|192:64|96:64,1,140
96,128,36700,2,8,B|192:128,1,70
224,128,37300,2,8,B|128:256|256:384,1,280
128,352,39100,2,8,B|224:352,1,70,12|4
256,352,39700,6,4,B|352:288|256:224|160:160|320:160,1,280
384,160,41200,2,0,B|384:256,1,70
384,288,41800,2,0,B|384:384,1,70
480,352,42700,1,0
480,288,43000,2,8,B|480:160|416:320,1,140
352,224,44200,5,0
288,224,44500,2,0,B|288:128,1,70
352,160,45100,2,0,B|448:160,1,70
416,224,45700,2,0,B|416:320,1,70
352,288,46300,2,0,B|256:288,1,70
32,32,46900,5,8
96,32,47200,1,8
160,32,47500,1,8
128,96,47800,1,8
64,96,48100,1,4
32,256,49000,5,0
64,224,49150,1,0
96,256,49300,2,0,B|192:192|128:128,1,140
96,128,50200,1,0
64,160,50500,1,0
32,128,50800,1,0
32,64,51100,1,0
64,32,51400,1,0
96,64,51700,2,6,B|192:96|160:192,1,140
224,192,52600,1,0
192,224,52900,1,0
96,224,53500,2,2,B|128:288|192:352|256:352|320:352|384:288|416:224|384:96|320:32|256:32|192:32|128:96,1,700
32,32,57100,1,0
96,32,57400,1,0
160,32,57700,1,0
32,32,58900,5,0
128,32,59500,1,8
192,32,59800,1,8
256,32,60100,1,0
256,128,60700,1,0
352,128,61300,1,0
352,32,61900,1,0
448,32,62500,1,0
448,128,63100,1,8
448,192,63400,1,8
448,256,63700,1,0
448,352,64300,1,0
352,352,64900,1,0
352,256,65500,1,0
256,256,66100,1,0
256,352,66700,1,0
160,352,67300,1,0
160,256,67900,1,8
160,256,68200,1,8
160,256,68500,5,0
160,160,69100,1,8
160,96,69400,1,8
160,32,69700,1,0
256,32,70300,1,0
256,128,70900,1,0
160,128,71500,1,0
160,224,72100,1,0
32,128,72700,1,8
32,128,73000,1,8
32,32,73300,1,0
32,128,73900,1,0
128,128,74500,1,0
128,32,75100,1,0
224,32,75700,1,0
224,128,76300,1,0
320,128,76900,1,0
320,32,77500,1,8
416,32,77800,1,8
416,32,78100,6,8,B|512:224|416:384|288:320,1,420
256,288,80200,1,8
224,320,80500,2,8,B|96:384|0:224|96:32,1,420
32,32,82600,1,8
32,32,82900,1,0
128,32,83500,1,0
224,32,84100,1,0
320,32,84700,1,0
416,32,85300,1,0
480,96,85900,1,0
480,192,86500,1,0
480,288,87100,1,8
416,288,87400,1,8
416,352,87700,5,0
320,352,88300,1,8
256,352,88600,1,8
192,352,88900,1,0
192,256,89500,1,0
288,256,90100,1,0
288,352,90700,1,0
384,352,91300,1,0
384,256,91900,1,8
384,192,92200,1,8
384,128,92500,1,0
384,64,92800,1,0
384,32,93100,1,0
320,32,93400,1,0
288,32,93700,1,0
288,96,94000,1,0
288,128,94300,1,0
352,128,94600,1,0
384,96,94900,2,8,B|384:0|64:32,1,350
64,96,96700,1,8
128,96,97000,1,8
96,160,97300,1,4
32,32,106900,5,8
96,128,107500,1,8
160,32,108100,1,8
224,128,108700,1,8
288,32,109300,1,8
352,128,109900,1,8
416,32,110500,1,8
480,128,111100,1,8
416,32,111700,1,8
352,128,112300,1,8
288,32,112900,1,8
224,128,113500,1,8
160,32,114100,1,8
96,128,114700,1,8
32,32,115300,1,8
32,32,115900,1,8
32,32,116500,6,0,B|32:192,1,140
96,160,117400,2,0,B|192:160,1,70
224,160,118000,2,0,B|224:64,1,70
224,32,118600,2,0,B|32:32|32:32|32:160|32:160|224:160|224:160|224:96,1,560
160,96,121300,2,0,B|64:96,2,70
288,96,122500,2,0,B|288:192,1,70
224,160,123100,2,0,B|224:64|224:96,1,70
224,32,123700,2,0,B|320:32,1,70
352,32,124300,2,0,B|352:128,1,70
352,160,124900,1,0
352,256,125500,1,8
416,288,125800,1,8
480,352,126100,6,0,B|320:352,1,140
288,352,127000,2,0,B|288:256,1,70
288,224,127600,2,0,B|384:224,1,70
416,224,128200,2,0,B|512:224,1,70
480,160,128800,2,0,B|384:160,1,70
352,160,129400,2,0,B|288:160|288:160|288:352|288:352|320:352,1,280
352,352,130900,2,0,B|512:352,1,140
480,288,131800,2,0,B|480:192,1,70
416,224,132400,2,0,B|320:224,1,70
224,224,133300,2,0,B|224:352|224:352|32:352|32:352|32:224|32:224,1,420
96,160,135700,6,0,B|192:160|192:160|192:96,1,140
128,32,136900,2,0,B|224:32,1,70
320,32,137800,2,0,B|320:128,1,70
320,224,138700,2,0,B|224:224,1,70
128,224,139600,1,8
128,192,139750,1,8
128,160,139900,1,8
192,160,140200,1,0
256,160,140500,2,0,B|352:160|352:160|256:256|256:256|160:160|160:160|224:160,1,420
256,64,142900,1,8
224,128,143200,1,8
288,128,143500,1,8
256,64,143800,1,8
224,128,144100,1,8
288,128,144400,1,8
288,96,144500,1,8
288,64,144600,1,8
256,64,144700,1,8
384,64,145300,6,0,B|480:64,2,70
384,192,146500,1,8
384,288,147100,1,8
288,288,147700,2,0,B|192:288,2,70
288,192,148900,1,8
192,192,149500,1,8
192,96,150100,1,8
288,192,150400,1,8
288,96,150700,1,8
384,96,151300,1,8
288,192,151600,1,8
384,192,151900,1,8
448,192,152200,1,8
416,256,152500,1,8
320,192,153100,1,8
288,256,153400,1,8
256,192,153700,1,8
224,256,154000,1,8
192,192,154300,1,8
32,352,154900,5,0
128,352,155500,1,8
192,352,155800,1,8
256,352,156100,1,0
256,256,156700,1,0
352,256,157300,1,0
352,352,157900,1,0
448,352,158500,1,0
448,256,159100,1,8
448,192,159400,1,8
448,128,159700,1,0
448,32,160300,1,0
352,32,160900,1,0
352,128,161500,1,0
256,128,162100,1,0
256,32,162700,1,0
160,32,163300,1,0
160,128,163900,1,8
160,128,164200,1,8
64,128,164500,5,0
64,224,165100,1,8
64,288,165400,1,8
64,352,165700,1,0
64,256,166300,1,0
160,256,166900,1,0
160,352,167500,1,0
256,352,168100,1,0
352,352,168700,1,8
416,352,169000,1,8
480,352,169300,1,0
480,256,169900,1,0
384,256,170500,1,0
384,352,171100,1,0
288,352,171700,1,0
288,256,172300,1,0
192,256,172900,1,0
192,352,173500,1,8
192,352,173800,1,8
96,352,174100,6,8,B|0:160|128:0|256:64,1,420
256,96,176200,1,8
288,64,176500,2,8,B|384:0|512:160|416:384,1,420
424,362,178600,1,8
224,160,178900,2,0,B|320:160|192:224|224:256,7,140
256,352,183700,5,0
256,256,184300,1,8
160,256,184600,1,8
160,352,184900,1,0
160,256,185500,1,0
256,256,186100,1,0
352,256,186700,1,0
352,352,187300,1,0
256,352,187900,1,8
256,352,188200,1,8
480,352,188500,1,0
480,288,188800,1,0
480,256,189100,1,0
480,192,189400,1,0
480,160,189700,1,0
480,96,190000,1,0
480,64,190300,1,0
416,64,190600,1,0
384,64,190900,2,8,B|224:64|416:288,1,280
288,320,192700,1,8
224,320,193000,1,8
256,256,193300,1,12
32,32,212500,5,12
480,32,214900,1,12
480,352,217300,1,12
32,352,219700,1,12
32,32,222100,1,12
480,32,224500,1,12
480,352,226900,1,12
32,352,229300,5,14
32,32,231700,6,0,B|256:32|0:192,1,280
64,160,233200,1,8
128,160,233500,1,8
32,224,234100,2,0,B|256:224|0:352,1,280
64,352,235600,1,8
128,352,235900,1,8
224,352,236500,2,0,B|384:352|512:352,1,280
480,320,238000,1,8
480,256,238300,1,8
480,128,238900,2,0,B|480:0|256:0,1,280
256,64,240400,1,8
256,128,240700,1,8
32,32,241300,2,0,B|256:32|0:160,1,280
64,160,242800,1,8
128,160,243100,1,8
224,160,243700,2,0,B|448:160|192:320,1,280
224,256,245200,1,8
288,224,245500,1,8
448,352,246100,2,0,B|224:352|480:192,1,280
480,96,247900,5,8
416,128,248200,1,8
352,96,248500,1,8
256,96,249100,1,8
192,128,249400,1,8
128,96,249700,1,8
32,96,250300,1,8
32,160,250600,1,12
32,224,250900,1,8
128,224,251500,1,8
192,224,251800,1,8
256,224,252100,1,8
256,320,252700,1,8
352,320,253300,1,8
352,224,253900,1,8
448,224,254500,1,8
448,320,255100,1,8
448,320,255400,1,8
384,320,255700,1,8
384,224,256300,1,8
288,224,256900,1,8
288,320,257500,1,8
192,320,258100,1,8
192,224,258700,1,8
96,224,259300,1,8
96,320,259900,1,8
96,320,260200,1,8
96,224,260500,5,8
96,128,261100,1,8
96,64,261400,1,8
96,128,261700,1,8
96,32,262300,1,8
192,32,262900,1,8
192,128,263500,1,8
288,128,264100,1,8
288,32,264700,1,8
288,32,265000,1,8
352,32,265300,1,8
448,32,265900,1,8
448,128,266500,1,8
320,128,267100,1,8
320,224,267700,1,8
416,224,268300,1,8
416,320,268900,1,8
320,320,269500,1,8
320,320,269800,1,8
256,320,270100,6,8,B|224:256|224:256|192:320,1,140
193,317,271000,2,8,B|160:256|160:256|128:320,1,140
128,318,271900,2,8,B|96:256|96:256|64:320,1,140
65,317,272800,2,8,B|96:256|96:256|128:320,1,140
127,319,273700,2,8,B|288:320,1,140
256,192,274900,1,8
160,192,275500,1,8
160,96,276100,1,8
256,96,276700,1,8
352,96,277300,1,8
352,192,277900,1,8
352,288,278500,1,8
256,288,279100,1,8
256,224,279400,1,8
256,160,279700,1,8
160,160,280300,1,8
96,160,280600,1,8
32,160,280900,1,8
32,64,281500,1,8
128,64,282100,1,8
128,160,282700,1,8
224,160,283300,1,8
224,64,283900,1,8
224,64,284200,1,8
288,64,284500,1,8
352,64,284800,1,14
384,64,285100,1,8
448,64,285400,1,14
480,64,285700,1,8
480,128,286000,1,14
480,160,286300,1,8
416,160,286600,1,14
384,160,286900,1,8
320,160,287200,1,14
288,160,287500,1,8
256,192,288100,12,4,289300
