osu file format v14

[General]
AudioFilename: owoooo.mp3
AudioLeadIn: 0
PreviewTime: 11268
Countdown: 0
SampleSet: Normal
StackLeniency: 0.2
Mode: 0
LetterboxInBreaks: 0
WidescreenStoryboard: 0

[Editor]
DistanceSpacing: 1.5
BeatDivisor: 4
GridSize: 8
TimelineZoom: 1

[Metadata]
Title:Despacito
TitleUnicode:Despacito
Artist:Luis Fonsi Ft. Daddy Yankee
ArtistUnicode:Luis Fonsi Ft. Daddy Yankee
Creator:pashty
Version:big brain
Source:
Tags:
BeatmapID:1652715
BeatmapSetID:787414

[Difficulty]
HPDrainRate:5.5
CircleSize:4.5
OverallDifficulty:9.5
ApproachRate:9.3
SliderMultiplier:1.6
SliderTickRate:1

[Events]
//Background and Video events
0,0,"qwdqw.jpg",0,0
//Break Periods
//Storyboard Layer 0 (Background)
//Storyboard Layer 1 (Fail)
//Storyboard Layer 2 (Pass)
//Storyboard Layer 3 (Foreground)
//Storyboard Sound Samples

[TimingPoints]
190,750,4,1,0,100,1,0
744,-100,4,1,0,5,0,0
815,-100,4,1,0,5,0,0
940,-100,4,1,0,100,0,0
1690,-100,4,1,0,100,0,0
1690,-100,4,1,0,5,0,0
1830,674.157303370787,4,1,0,100,1,0
1830,-66.6666666666667,4,1,0,100,0,0
2391,-66.6666666666667,4,1,0,100,0,0
2504,-66.6666666666667,4,1,0,100,0,0
4077,-66.6666666666667,4,1,0,100,0,0
4189,-66.6666666666667,4,1,0,100,0,0
5088,-66.6666666666667,4,1,0,100,0,0
5200,-66.6666666666667,4,1,0,100,0,0

[HitObjects]
141,94,190,6,0,P|203:84|280:126,1,133.333333333333
276,152,940,6,0,P|219:176|180:268,1,160
210,287,1830,5,0,0:0:0:0:
224,59,2167,2,0,P|272:60|326:93,1,80.0000030517579
338,102,2504,5,0,0:0:0:0:
205,243,2672,1,0,0:0:0:0:
404,176,2841,5,0,0:0:0:0:
171,162,3009,1,0,0:0:0:0:
379,305,3178,5,0,0:0:0:0:
212,80,3346,1,0,0:0:0:0:
243,355,3515,5,0,0:0:0:0:
308,82,3683,1,0,0:0:0:0:
122,286,3852,2,0,B|61:316|61:316|71:271,1,80.0000030517579
73,265,4189,1,0,0:0:0:0:
214,229,4358,1,0,0:0:0:0:
116,171,4695,6,0,P|132:107|206:90,1,150.000005722046
241,101,5200,5,0,0:0:0:0:
192,323,5369,1,0,0:0:0:0:
130,85,5537,5,0,0:0:0:0:
295,301,5706,1,0,0:0:0:0:
62,198,5874,5,0,0:0:0:0:
360,211,6043,1,0,0:0:0:0:
118,343,6212,5,0,0:0:0:0:
339,101,6381,1,0,0:0:0:0:
278,332,6549,1,0,0:0:0:0:
256,183,6886,5,0,0:0:0:0:
420,131,7054,1,0,0:0:0:0:
376,296,7391,5,0,0:0:0:0:
134,88,7897,5,0,0:0:0:0:
339,50,8065,1,0,0:0:0:0:
141,203,8234,5,0,0:0:0:0:
356,76,8403,1,0,0:0:0:0:
198,316,8571,5,0,0:0:0:0:
388,83,8740,1,0,0:0:0:0:
318,384,8908,5,0,0:0:0:0:
426,71,9077,1,0,0:0:0:0:
458,293,9245,1,0,0:0:0:0:
266,214,9582,5,0,0:0:0:0:
449,123,9751,1,0,0:0:0:0:
269,100,10088,6,0,P|342:98|406:198,1,180.000006866455
391,271,10931,5,0,0:0:0:0:
280,309,11268,5,0,0:0:0:0:
182,220,11942,5,0,0:0:0:0:
166,55,12616,5,0,0:0:0:0:
253,51,12953,1,0,0:0:0:0:
94,133,13290,5,0,0:0:0:0:
301,99,13459,1,0,0:0:0:0:
100,252,13627,5,0,0:0:0:0:
264,61,13796,1,0,0:0:0:0:
193,345,13964,5,0,0:0:0:0:
196,42,14133,1,0,0:0:0:0:
340,312,14301,5,0,0:0:0:0:
128,54,14470,1,0,0:0:0:0:
334,141,14638,1,0,0:0:0:0:
250,90,14976,5,0,0:0:0:0:
223,239,15145,1,0,0:0:0:0:
395,137,15481,5,0,0:0:0:0:
360,228,15818,1,0,0:0:0:0:
468,149,15987,1,0,0:0:0:0:
381,303,16155,1,0,0:0:0:0:
477,210,16324,5,0,0:0:0:0:
284,281,16492,1,0,0:0:0:0:
467,304,16661,5,0,0:0:0:0:
234,220,16829,1,0,0:0:0:0:
393,377,16998,5,0,0:0:0:0:
255,141,17166,1,0,0:0:0:0:
243,294,17335,1,0,0:0:0:0:
371,202,17504,1,0,0:0:0:0:
178,214,17673,1,0,0:0:0:0:
320,288,17841,1,0,0:0:0:0:
248,112,18178,5,0,0:0:0:0:
340,74,18515,1,0,0:0:0:0:
259,196,18683,1,0,0:0:0:0:
256,17,18852,1,0,0:0:0:0:
256,17,18936,1,0,0:0:0:0:
256,17,19021,5,0,0:0:0:0:
371,143,19189,1,0,0:0:0:0:
158,69,19358,5,0,0:0:0:0:
379,59,19526,1,0,0:0:0:0:
141,193,19695,5,0,0:0:0:0:
332,16,19863,1,0,0:0:0:0:
275,173,20032,1,0,0:0:0:0:
262,50,20200,1,0,0:0:0:0:
345,111,20369,1,0,0:0:0:0:
211,121,20537,1,0,0:0:0:0:
369,28,20874,5,0,0:0:0:0:
306,244,21043,1,0,0:0:0:0:
307,37,21212,5,0,0:0:0:0:
376,274,21381,1,0,0:0:0:0:
391,54,21549,5,0,0:0:0:0:
315,314,21718,1,0,0:0:0:0:
307,37,21886,1,0,0:0:0:0:
125,188,22391,5,0,0:0:0:0:
320,122,22560,1,0,0:0:0:0:
138,109,22728,5,0,0:0:0:0:
352,181,22897,1,0,0:0:0:0:
177,201,23065,5,0,0:0:0:0:
412,121,23234,1,0,0:0:0:0:
220,106,23403,1,0,0:0:0:0:
312,257,23571,1,0,0:0:0:0:
315,93,23740,5,0,0:0:0:0:
204,274,23908,1,0,0:0:0:0:
207,97,24077,5,0,0:0:0:0:
329,296,24245,1,0,0:0:0:0:
309,108,24414,5,0,0:0:0:0:
174,326,24582,1,0,0:0:0:0:
180,132,24919,5,0,0:0:0:0:
236,221,25088,1,0,0:0:0:0:
106,231,25256,1,0,0:0:0:0:
211,128,25425,1,0,0:0:0:0:
186,292,25594,1,0,0:0:0:0:
101,135,25762,1,0,0:0:0:0:
283,220,25931,1,0,0:0:0:0:
283,220,26015,1,0,0:0:0:0:
283,220,26099,5,0,0:0:0:0:
70,281,26268,1,0,0:0:0:0:
161,136,26773,5,0,0:0:0:0:
266,280,27447,5,0,0:0:0:0:
332,115,27616,1,0,0:0:0:0:
349,280,27785,5,0,0:0:0:0:
248,92,27954,1,0,0:0:0:0:
414,191,28122,5,0,0:0:0:0:
163,138,28291,1,0,0:0:0:0:
163,138,28374,1,0,0:0:0:0:
163,138,28459,1,0,0:0:0:0:
311,76,28627,1,0,0:0:0:0:
255,238,28964,5,0,0:0:0:0:
222,83,29470,5,0,0:0:0:0:
118,223,30144,5,0,0:0:0:0:
262,131,30313,1,0,0:0:0:0:
107,146,30481,5,0,0:0:0:0:
302,207,30650,1,0,0:0:0:0:
166,63,30818,5,0,0:0:0:0:
260,289,30987,1,0,0:0:0:0:
258,145,31155,1,0,0:0:0:0:
172,268,31324,1,0,0:0:0:0:
286,225,31661,1,0,0:0:0:0:
137,158,32167,5,0,0:0:0:0:
320,78,32335,1,0,0:0:0:0:
192,287,32504,5,0,0:0:0:0:
375,207,32672,1,0,0:0:0:0:
113,153,32841,5,0,0:0:0:0:
332,57,33009,1,0,0:0:0:0:
179,307,33178,5,0,0:0:0:0:
398,211,33346,1,0,0:0:0:0:
113,153,33515,5,0,0:0:0:0:
398,211,33852,5,0,0:0:0:0:
113,153,34189,5,0,0:0:0:0:
260,258,34358,1,0,0:0:0:0:
173,94,34526,5,0,0:0:0:0:
189,310,34695,1,0,0:0:0:0:
271,76,34863,5,0,0:0:0:0:
84,257,35032,1,0,0:0:0:0:
326,158,35200,1,0,0:0:0:0:
326,158,35537,5,0,0:0:0:0:
84,257,35705,1,0,0:0:0:0:
271,76,35874,1,0,0:0:0:0:
232,236,36043,1,0,0:0:0:0:
166,126,36212,1,0,0:0:0:0:
316,162,36380,1,0,0:0:0:0:
172,208,36549,1,0,0:0:0:0:
277,62,36886,5,0,0:0:0:0:
225,274,37223,5,0,0:0:0:0:
406,167,37391,1,0,0:0:0:0:
406,167,37728,5,0,0:0:0:0:
225,274,37896,1,0,0:0:0:0:
242,111,38234,5,0,0:0:0:0:
360,293,38403,1,0,0:0:0:0:
355,73,38571,5,0,0:0:0:0:
236,304,38740,1,0,0:0:0:0:
216,48,38908,5,0,0:0:0:0:
385,310,39077,1,0,0:0:0:0:
362,46,39245,1,0,0:0:0:0:
257,228,39414,1,0,0:0:0:0:
463,158,39751,5,0,0:0:0:0:
302,119,39919,1,0,0:0:0:0:
424,280,40087,1,0,0:0:0:0:
424,280,40425,5,0,0:0:0:0:
302,119,40593,1,0,0:0:0:0:
171,238,40931,5,0,0:0:0:0:
296,156,41099,1,0,0:0:0:0:
140,186,41268,5,0,0:0:0:0:
327,208,41436,1,0,0:0:0:0:
160,105,41605,5,0,0:0:0:0:
316,269,41773,1,0,0:0:0:0:
237,37,41942,5,0,0:0:0:0:
253,310,42110,1,0,0:0:0:0:
359,61,42279,5,0,0:0:0:0:
152,336,42447,1,0,0:0:0:0:
454,190,42616,5,0,0:0:0:0:
58,286,42784,1,0,0:0:0:0:
454,344,42953,5,0,0:0:0:0:
40,129,43121,1,0,0:0:0:0:
512,167,43290,5,0,0:0:0:0:
0,296,43458,1,0,0:0:0:0:
512,384,43627,1,0,0:0:0:0:
198,129,44301,5,0,0:0:0:0:
349,292,44976,5,0,0:0:0:0:
385,173,45313,5,0,0:0:0:0:
