osu file format v12

[General]
AudioFilename: preview.mp3
AudioLeadIn: 1500
PreviewTime: 31654
Countdown: 0
SampleSet: Normal
StackLeniency: 0.7
Mode: 1
LetterboxInBreaks: 0
WidescreenStoryboard: 0

[Editor]
DistanceSpacing: 0.8
BeatDivisor: 4
GridSize: 4

[Metadata]
Title:Solo Un Minuto
TitleUnicode:Solo Un Minuto
Artist:Luis Campos
ArtistUnicode:Luis Campos
Creator:mancuso_JM_
Version:Oni
Source:
Tags:mancusojuanmattos
BeatmapID:311451
BeatmapSetID:121613

[Difficulty]
HPDrainRate:6
CircleSize:5
OverallDifficulty:5
ApproachRate:5
SliderMultiplier:1.6
SliderTickRate:1

[Events]
//Background and Video events
0,0,"BG.JPG",0,0
//Break Periods
//Storyboard Layer 0 (Background)
//Storyboard Layer 1 (Fail)
//Storyboard Layer 2 (Pass)
//Storyboard Layer 3 (Foreground)
//Storyboard Sound Samples
//Background Colour Transformations
3,100,163,162,255

[TimingPoints]
435,487.80487804878,4,1,0,60,1,0
31654,-100,4,1,0,60,0,1
49215,-100,4,1,0,60,0,0
64825,-100,4,1,0,60,0,1
74581,-100,4,1,0,60,0,0

[Colours]
Combo1 : 155,173,236
Combo2 : 47,115,198
Combo3 : 163,139,233
Combo4 : 31,172,214

[HitObjects]
256,192,435,1,0,0:0:0:0:
256,192,1166,1,8,0:0:0:0:
256,192,1654,1,8,0:0:0:0:
256,192,1898,1,0,0:0:0:0:
256,192,2386,1,0,0:0:0:0:
256,192,2874,1,0,0:0:0:0:
256,192,3117,1,8,0:0:0:0:
256,192,3605,1,8,0:0:0:0:
256,192,3849,1,0,0:0:0:0:
256,192,4337,1,8,0:0:0:0:
256,192,4825,1,0,0:0:0:0:
256,192,5069,1,8,0:0:0:0:
256,192,5556,1,8,0:0:0:0:
256,192,5800,1,0,0:0:0:0:
256,192,6044,1,8,0:0:0:0:
256,192,6532,1,0,0:0:0:0:
256,192,6776,1,8,0:0:0:0:
256,192,7020,1,0,0:0:0:0:
256,192,7508,1,8,0:0:0:0:
256,192,7752,1,8,0:0:0:0:
256,192,8239,1,0,0:0:0:0:
256,192,8971,1,8,0:0:0:0:
256,192,9459,1,0,0:0:0:0:
256,192,9703,1,8,0:0:0:0:
256,192,10191,1,0,0:0:0:0:
256,192,10435,1,0,0:0:0:0:
256,192,10922,1,8,0:0:0:0:
256,192,11410,1,0,0:0:0:0:
256,192,11654,1,8,0:0:0:0:
256,192,11898,1,0,0:0:0:0:
256,192,12142,1,0,0:0:0:0:
256,192,12630,1,8,0:0:0:0:
256,192,12874,1,0,0:0:0:0:
256,192,13361,1,0,0:0:0:0:
256,192,13605,1,8,0:0:0:0:
256,192,13849,1,0,0:0:0:0:
256,192,14337,1,8,0:0:0:0:
256,192,14581,1,0,0:0:0:0:
256,192,14825,1,8,0:0:0:0:
256,192,15313,1,8,0:0:0:0:
256,192,15556,1,0,0:0:0:0:
256,192,15800,1,8,0:0:0:0:
256,192,16044,1,0,0:0:0:0:
256,192,16532,1,8,0:0:0:0:
256,192,16776,1,0,0:0:0:0:
256,192,17020,1,0,0:0:0:0:
256,192,17264,1,8,0:0:0:0:
256,192,17508,1,0,0:0:0:0:
256,192,17995,1,0,0:0:0:0:
256,192,18239,1,0,0:0:0:0:
256,192,18483,1,8,0:0:0:0:
256,192,18727,1,0,0:0:0:0:
256,192,19215,1,0,0:0:0:0:
256,192,19459,1,8,0:0:0:0:
256,192,19703,1,0,0:0:0:0:
256,192,19947,1,0,0:0:0:0:
256,192,20435,1,8,0:0:0:0:
256,192,20678,1,0,0:0:0:0:
256,192,21166,1,8,0:0:0:0:
256,192,21410,1,8,0:0:0:0:
256,192,21654,1,0,0:0:0:0:
256,192,21898,1,8,0:0:0:0:
256,192,22386,1,0,0:0:0:0:
256,192,22630,1,8,0:0:0:0:
256,192,23117,1,0,0:0:0:0:
256,192,23361,1,8,0:0:0:0:
256,192,23605,1,8,0:0:0:0:
256,192,23849,1,0,0:0:0:0:
256,192,24093,1,8,0:0:0:0:
256,192,24337,1,8,0:0:0:0:
256,192,24703,1,8,0:0:0:0:
256,192,24825,1,0,0:0:0:0:
256,192,25069,1,0,0:0:0:0:
256,192,25313,1,8,0:0:0:0:
256,192,25556,1,0,0:0:0:0:
256,192,25678,1,0,0:0:0:0:
256,192,25800,1,0,0:0:0:0:
256,192,26044,1,0,0:0:0:0:
256,192,26288,1,8,0:0:0:0:
256,192,26532,1,8,0:0:0:0:
256,192,26654,1,8,0:0:0:0:
256,192,26776,1,0,0:0:0:0:
256,192,27020,1,0,0:0:0:0:
256,192,27264,1,8,0:0:0:0:
256,192,27508,1,8,0:0:0:0:
256,192,27752,1,0,0:0:0:0:
256,192,28239,1,8,0:0:0:0:
256,192,28483,1,0,0:0:0:0:
256,192,28605,1,0,0:0:0:0:
256,192,28727,1,0,0:0:0:0:
256,192,28971,1,0,0:0:0:0:
256,192,29215,1,8,0:0:0:0:
256,192,29459,1,0,0:0:0:0:
256,192,29703,1,4,0:0:0:0:
256,192,29947,1,8,0:0:0:0:
256,192,30191,1,8,0:0:0:0:
256,192,30435,1,8,0:0:0:0:
256,192,30678,1,4,0:0:0:0:
256,192,30922,1,8,0:0:0:0:
256,192,31166,1,8,0:0:0:0:
256,192,31410,1,8,0:0:0:0:
256,192,31654,1,4,0:0:0:0:
256,192,32142,1,8,0:0:0:0:
256,192,32386,1,0,0:0:0:0:
256,192,32874,1,0,0:0:0:0:
256,192,33117,1,8,0:0:0:0:
256,192,33361,1,0,0:0:0:0:
256,192,33483,1,0,0:0:0:0:
256,192,33605,1,0,0:0:0:0:
256,192,33849,1,0,0:0:0:0:
256,192,34093,1,8,0:0:0:0:
256,192,34337,1,0,0:0:0:0:
256,192,34825,1,0,0:0:0:0:
256,192,35069,1,8,0:0:0:0:
256,192,35313,1,8,0:0:0:0:
256,192,35556,1,0,0:0:0:0:
256,192,36044,1,8,0:0:0:0:
256,192,36288,1,0,0:0:0:0:
256,192,36776,1,0,0:0:0:0:
256,192,37020,1,8,0:0:0:0:
256,192,37264,1,0,0:0:0:0:
256,192,37386,1,0,0:0:0:0:
256,192,37508,1,0,0:0:0:0:
256,192,37752,1,0,0:0:0:0:
256,192,37995,1,8,0:0:0:0:
256,192,38239,1,0,0:0:0:0:
256,192,38361,1,0,0:0:0:0:
256,192,38605,1,8,0:0:0:0:
256,192,38727,1,0,0:0:0:0:
256,192,38971,1,8,0:0:0:0:
256,192,39215,1,0,0:0:0:0:
256,192,39337,1,8,0:0:0:0:
256,192,39459,1,0,0:0:0:0:
256,192,39947,1,8,0:0:0:0:
256,192,40191,1,0,0:0:0:0:
256,192,40678,1,0,0:0:0:0:
256,192,40922,1,8,0:0:0:0:
256,192,41166,1,8,0:0:0:0:
256,192,41410,1,0,0:0:0:0:
256,192,41654,1,0,0:0:0:0:
256,192,41898,1,8,0:0:0:0:
256,192,42142,1,0,0:0:0:0:
256,192,42630,1,0,0:0:0:0:
256,192,42874,1,8,0:0:0:0:
256,192,43117,1,0,0:0:0:0:
256,192,43361,1,0,0:0:0:0:
256,192,43849,1,8,0:0:0:0:
256,192,44093,1,0,0:0:0:0:
256,192,44581,1,0,0:0:0:0:
256,192,44825,1,8,0:0:0:0:
256,192,45069,1,8,0:0:0:0:
256,192,45313,1,0,0:0:0:0:
256,192,45556,1,0,0:0:0:0:
256,192,45678,1,0,0:0:0:0:
256,192,45800,1,8,0:0:0:0:
256,192,46044,1,0,0:0:0:0:
256,192,46166,1,0,0:0:0:0:
256,192,46410,1,8,0:0:0:0:
256,192,46532,1,0,0:0:0:0:
256,192,46776,1,8,0:0:0:0:
256,192,47020,1,8,0:0:0:0:
256,192,47142,1,8,0:0:0:0:
256,192,47264,1,0,0:0:0:0:
256,192,47508,1,0,0:0:0:0:
256,192,47752,1,8,0:0:0:0:
256,192,47995,1,0,0:0:0:0:
256,192,48239,1,8,0:0:0:0:
256,192,48483,1,8,0:0:0:0:
256,192,48727,1,4,0:0:0:0:
256,192,48971,1,4,0:0:0:0:
256,192,49215,1,6,0:0:0:0:
256,192,49703,1,8,0:0:0:0:
256,192,49947,1,0,0:0:0:0:
256,192,50434,1,0,0:0:0:0:
256,192,50678,1,8,0:0:0:0:
256,192,50922,1,0,0:0:0:0:
256,192,51044,1,0,0:0:0:0:
256,192,51166,1,0,0:0:0:0:
256,192,51654,1,8,0:0:0:0:
256,192,51898,1,0,0:0:0:0:
256,192,52386,1,0,0:0:0:0:
256,192,52630,1,8,0:0:0:0:
256,192,52874,1,8,0:0:0:0:
256,192,53117,1,4,0:0:0:0:
256,192,53361,1,0,0:0:0:0:
256,192,53605,1,8,0:0:0:0:
256,192,53849,1,0,0:0:0:0:
256,192,54337,1,0,0:0:0:0:
256,192,54581,1,8,0:0:0:0:
256,192,54825,1,8,0:0:0:0:
256,192,55069,1,0,0:0:0:0:
256,192,55556,1,8,0:0:0:0:
256,192,55800,1,8,0:0:0:0:
256,192,56044,1,0,0:0:0:0:
256,192,56288,1,0,0:0:0:0:
256,192,56532,1,8,0:0:0:0:
256,192,56776,1,8,0:0:0:0:
256,192,57020,1,4,0:0:0:0:
256,192,57508,1,8,0:0:0:0:
256,192,57752,1,0,0:0:0:0:
256,192,58239,1,0,0:0:0:0:
256,192,58483,1,8,0:0:0:0:
256,192,58727,1,0,0:0:0:0:
256,192,58849,1,0,0:0:0:0:
256,192,58971,1,0,0:0:0:0:
256,192,59215,1,0,0:0:0:0:
256,192,59459,1,8,0:0:0:0:
256,192,59703,1,0,0:0:0:0:
256,192,60191,1,0,0:0:0:0:
256,192,60434,1,8,0:0:0:0:
256,192,60678,1,8,0:0:0:0:
256,192,60922,1,4,0:0:0:0:
256,192,61410,1,8,0:0:0:0:
256,192,61654,1,0,0:0:0:0:
256,192,62142,1,0,0:0:0:0:
256,192,62386,1,8,0:0:0:0:
256,192,62630,1,8,0:0:0:0:
256,192,62874,1,4,0:0:0:0:
256,192,63117,1,4,0:0:0:0:
256,192,63605,1,6,0:0:0:0:
256,192,63849,1,6,0:0:0:0:
256,192,64093,1,6,0:0:0:0:
256,192,64825,1,4,0:0:0:0:
256,192,65313,1,8,0:0:0:0:
256,192,65556,1,0,0:0:0:0:
256,192,66044,1,0,0:0:0:0:
256,192,66288,1,8,0:0:0:0:
256,192,66532,1,0,0:0:0:0:
256,192,66654,1,0,0:0:0:0:
256,192,66776,1,0,0:0:0:0:
256,192,67020,1,0,0:0:0:0:
256,192,67264,1,8,0:0:0:0:
256,192,67508,1,0,0:0:0:0:
256,192,67995,1,0,0:0:0:0:
256,192,68239,1,8,0:0:0:0:
256,192,68483,1,8,0:0:0:0:
256,192,68727,1,0,0:0:0:0:
256,192,69215,1,8,0:0:0:0:
256,192,69459,1,0,0:0:0:0:
256,192,69947,1,0,0:0:0:0:
256,192,70191,1,8,0:0:0:0:
256,192,70434,1,8,0:0:0:0:
256,192,70556,1,8,0:0:0:0:
256,192,70678,1,0,0:0:0:0:
256,192,70922,1,0,0:0:0:0:
256,192,71166,1,8,0:0:0:0:
256,192,71410,1,0,0:0:0:0:
256,192,71532,1,0,0:0:0:0:
256,192,71776,1,8,0:0:0:0:
256,192,71898,1,0,0:0:0:0:
256,192,72142,1,6,0:0:0:0:
256,192,72630,1,0,0:0:0:0:
256,192,72874,1,8,0:0:0:0:
256,192,73117,1,0,0:0:0:0:
256,192,73361,1,0,0:0:0:0:
256,192,73605,1,8,0:0:0:0:
256,192,73849,1,0,0:0:0:0:
256,192,74093,1,8,0:0:0:0:
256,192,74337,1,8,0:0:0:0:
256,192,74581,1,4,0:0:0:0:
256,192,75313,1,0,0:0:0:0:
256,192,75556,1,8,0:0:0:0:
256,192,75800,1,0,0:0:0:0:
256,192,76044,1,0,0:0:0:0:
256,192,76532,1,4,0:0:0:0:
