osu file format v12

[General]
AudioFilename: preview.mp3
AudioLeadIn: 1500
PreviewTime: 31654
Countdown: 0
SampleSet: Normal
StackLeniency: 0.7
Mode: 1
LetterboxInBreaks: 0
WidescreenStoryboard: 0

[Editor]
DistanceSpacing: 0.8
BeatDivisor: 4
GridSize: 4

[Metadata]
Title:Solo Un Minuto
TitleUnicode:Solo Un Minuto
Artist:Luis Campos
ArtistUnicode:Luis Campos
Creator:mancuso_JM_
Version:Kantan
Source:
Tags:mancusojuanmattos
BeatmapID:311449
BeatmapSetID:121613

[Difficulty]
HPDrainRate:3
CircleSize:5
OverallDifficulty:4
ApproachRate:5
SliderMultiplier:1.2
SliderTickRate:1

[Events]
//Background and Video events
0,0,"BG.JPG",0,0
//Break Periods
//Storyboard Layer 0 (Background)
//Storyboard Layer 1 (Fail)
//Storyboard Layer 2 (Pass)
//Storyboard Layer 3 (Foreground)
//Storyboard Sound Samples
//Background Colour Transformations
3,100,163,162,255

[TimingPoints]
435,487.80487804878,4,1,0,60,1,0
31654,-100,4,1,0,60,0,1
49215,-100,4,1,0,60,0,0
64825,-100,4,1,0,60,0,1
74581,-100,4,1,0,60,0,0

[Colours]
Combo1 : 163,139,233
Combo2 : 47,115,198

[HitObjects]
256,192,435,1,0,0:0:0:0:
256,192,1166,1,8,0:0:0:0:
256,192,1898,1,0,0:0:0:0:
256,192,2386,1,0,0:0:0:0:
256,192,3117,1,8,0:0:0:0:
256,192,3849,1,0,0:0:0:0:
256,192,4337,1,0,0:0:0:0:
256,192,5069,1,8,0:0:0:0:
256,192,5800,1,0,0:0:0:0:
256,192,6288,1,0,0:0:0:0:
256,192,8239,1,0,0:0:0:0:
256,192,8971,1,8,0:0:0:0:
256,192,9703,1,0,0:0:0:0:
256,192,10191,1,0,0:0:0:0:
256,192,10922,1,8,0:0:0:0:
256,192,11654,1,0,0:0:0:0:
256,192,12142,1,0,0:0:0:0:
256,192,12874,1,8,0:0:0:0:
256,192,13605,1,0,0:0:0:0:
256,192,14093,1,0,0:0:0:0:
256,192,14825,1,8,0:0:0:0:
256,192,15556,1,8,0:0:0:0:
256,192,16044,1,0,0:0:0:0:
256,192,16776,1,8,0:0:0:0:
256,192,17508,1,0,0:0:0:0:
256,192,17995,1,0,0:0:0:0:
256,192,18727,1,8,0:0:0:0:
256,192,19459,1,0,0:0:0:0:
256,192,19947,1,0,0:0:0:0:
256,192,20434,1,0,0:0:0:0:
256,192,21166,1,8,0:0:0:0:
256,192,21898,1,0,0:0:0:0:
256,192,22630,1,8,0:0:0:0:
256,192,23361,1,8,0:0:0:0:
256,192,23849,1,0,0:0:0:0:
256,192,24337,1,0,0:0:0:0:
256,192,25313,1,0,0:0:0:0:
256,192,25800,1,0,0:0:0:0:
256,192,26288,1,8,0:0:0:0:
256,192,27264,1,8,0:0:0:0:
256,192,27752,1,0,0:0:0:0:
256,196,29703,1,4,0:0:0:0:
256,196,30678,1,4,0:0:0:0:
256,196,31654,1,4,0:0:0:0:
256,196,32142,1,8,0:0:0:0:
256,196,33117,1,0,0:0:0:0:
256,196,33605,1,0,0:0:0:0:
256,196,34093,1,0,0:0:0:0:
256,196,35069,1,8,0:0:0:0:
256,196,35556,1,0,0:0:0:0:
256,196,36532,1,8,0:0:0:0:
256,196,37020,1,8,0:0:0:0:
256,196,37508,1,8,0:0:0:0:
256,196,38971,1,8,0:0:0:0:
256,196,39459,1,4,0:0:0:0:
256,196,40434,1,8,0:0:0:0:
256,196,40922,1,8,0:0:0:0:
256,196,41410,1,0,0:0:0:0:
256,196,42874,1,8,0:0:0:0:
256,196,43361,1,0,0:0:0:0:
256,196,44337,1,8,0:0:0:0:
256,196,44825,1,8,0:0:0:0:
256,196,45313,1,8,0:0:0:0:
256,196,46776,1,8,0:0:0:0:
256,196,47264,1,4,0:0:0:0:
256,196,48239,1,8,0:0:0:0:
256,196,48727,1,8,0:0:0:0:
256,196,49215,1,4,0:0:0:0:
256,196,50678,1,0,0:0:0:0:
256,196,51166,1,0,0:0:0:0:
256,196,51654,1,8,0:0:0:0:
256,196,52630,1,8,0:0:0:0:
256,196,53117,1,0,0:0:0:0:
256,196,54581,1,8,0:0:0:0:
256,196,55069,1,0,0:0:0:0:
256,196,56044,1,0,0:0:0:0:
256,196,56532,1,0,0:0:0:0:
256,196,57020,1,4,0:0:0:0:
256,196,58483,1,8,0:0:0:0:
256,196,58971,1,0,0:0:0:0:
256,196,59459,1,0,0:0:0:0:
256,196,60434,1,8,0:0:0:0:
256,196,60922,1,4,0:0:0:0:
256,196,62386,1,8,0:0:0:0:
256,196,62874,1,4,0:0:0:0:
256,196,63849,1,0,0:0:0:0:
256,196,64825,1,4,0:0:0:0:
256,196,65313,1,8,0:0:0:0:
256,196,66288,1,8,0:0:0:0:
256,196,66776,1,0,0:0:0:0:
256,196,67752,1,8,0:0:0:0:
256,196,68239,1,8,0:0:0:0:
256,196,68727,1,8,0:0:0:0:
256,196,69703,1,8,0:0:0:0:
256,196,70190,1,8,0:0:0:0:
256,196,70678,1,4,0:0:0:0:
256,196,72142,1,14,0:0:0:0:
256,196,72630,1,0,0:0:0:0:
256,196,73605,1,8,0:0:0:0:
256,196,74093,1,8,0:0:0:0:
256,196,74581,1,4,0:0:0:0:
256,196,75556,1,8,0:0:0:0:
256,196,76044,1,0,0:0:0:0:
256,196,76532,1,4,0:0:0:0:
