osu file format v12

[General]
AudioFilename: Lucky Vacuum.mp3
AudioLeadIn: 0
PreviewTime: 40096
Countdown: 1
SampleSet: Normal
StackLeniency: 0.7
Mode: 0
LetterboxInBreaks: 1

[Editor]
DistanceSpacing: 2
BeatDivisor: 2
GridSize: 4

[Metadata]
Title:Daily Lunch Special
TitleUnicode:Daily Lunch Special
Artist:Lucky Vacuum
ArtistUnicode:Lucky Vacuum
Creator:SnowWhite
Version:Extreme
Source:REFLEC BEAT
Tags:colette jubeat saucer csy the corrupt [Kirisame-Marisa] etc
BeatmapID:198179
BeatmapSetID:67905

[Difficulty]
HPDrainRate:7
CircleSize:5
OverallDifficulty:8
ApproachRate:9
SliderMultiplier:1.6
SliderTickRate:1

[Events]
//Background and Video events
0,0,"BG.jpg",1,1
//Break Periods
2,40295,47691
//Storyboard Layer 0 (Background)
//Storyboard Layer 1 (Fail)
//Storyboard Layer 2 (Pass)
//Storyboard Layer 3 (Foreground)
//Storyboard Sound Samples
//Background Colour Transformations
3,100,163,162,255

[TimingPoints]
1316,292.682926829268,4,1,0,70,1,0
39803,-133.333333333333,4,1,0,70,0,0
48291,-133.333333333333,4,2,0,70,0,0
58828,-100,4,1,0,70,0,0
87950,-100,4,1,0,70,0,1
110340,-133.333333333333,4,2,0,70,0,0
119998,-133.333333333333,4,2,0,60,0,0
121169,-133.333333333333,4,2,0,50,0,0
122340,-133.333333333333,4,2,0,40,0,0
123511,-133.333333333333,4,2,0,30,0,0
123950,-133.333333333333,4,2,0,20,0,0
124389,-133.333333333333,4,2,0,10,0,0
124828,-100,4,2,0,5,0,0

[Colours]
Combo1 : 255,0,128
Combo2 : 255,255,255
Combo3 : 0,255,255

[HitObjects]
88,164,1316,2,0,P|140:192|154:108,1,160,4|0,0:0|0:0,0:0:0:0:
164,116,1681,1,0,0:0:0:0:
164,116,1755,2,0,L|236:82,1,80
92,311,2047,2,0,L|164:276,1,80,0|0,0:0|0:0,0:0:0:0:
324,296,2340,2,0,L|397:263,1,80,0|0,0:0|0:0,0:0:0:0:
236,244,2633,2,0,L|223:323,1,80
328,184,2925,2,0,L|344:100,1,80,0|0,0:0|0:0,0:0:0:0:
204,48,3218,5,0,0:0:0:0:
200,92,3291,1,0,0:0:0:0:
168,124,3364,1,0,0:0:0:0:
128,140,3437,1,0,0:0:0:0:
84,128,3511,1,0,0:0:0:0:
104,288,3657,6,0,B|160:260|160:260|200:256|200:256|272:220,1,160,4|0,0:0|0:0,0:0:0:0:
251,230,4023,1,0,0:0:0:0:
251,230,4096,2,0,L|220:148,1,80
155,353,4389,2,0,L|124:280,1,80
97,44,4681,2,0,L|124:120,1,80
76,232,4974,2,0,P|40:260|8:272,1,80
200,244,5267,2,0,P|233:218|269:206,1,80,0|0,0:0|0:0,0:0:0:0:
332,104,5559,5,0,0:0:0:0:
356,140,5633,1,0,0:0:0:0:
396,160,5706,1,0,0:0:0:0:
440,164,5779,1,0,0:0:0:0:
476,140,5852,1,0,0:0:0:0:
352,240,5998,6,0,B|280:272|280:272|252:312|200:304,1,160,4|0,0:0|0:0,0:0:0:0:
210,305,6364,1,0,0:0:0:0:
210,305,6437,2,0,L|184:216,1,80
108,96,6730,2,0,L|28:108,1,80
152,180,7023,2,0,L|236:168,1,80
359,241,7315,2,0,L|280:252,1,80
412,324,7608,2,0,L|507:308,1,80
460,220,7901,5,0,0:0:0:0:
448,184,7974,1,0,0:0:0:0:
436,148,8047,1,0,0:0:0:0:
424,108,8120,1,0,0:0:0:0:
412,68,8194,1,0,0:0:0:0:
272,272,8340,6,0,L|223:120,1,160,4|0,0:0|0:0,0:0:0:0:
222,119,8706,1,0,0:0:0:0:
222,119,8779,2,0,L|142:110,1,80
295,23,9072,2,0,L|375:31,1,80
372,256,9364,1,0,0:0:0:0:
372,256,9511,6,0,L|396:72,1,160,0|0,0:0|0:0,0:0:0:0:
284,152,9950,1,0,0:0:0:0:
480,180,10096,1,0,0:0:0:0:
284,152,10242,1,0,0:0:0:0:
372,256,10389,1,0,0:0:0:0:
328,268,10462,1,0,0:0:0:0:
284,280,10535,1,0,0:0:0:0:
128,316,10681,6,0,B|144:260|144:260|136:216|136:216|160:136,1,160,4|0,0:0|0:0,0:0:0:0:
152,161,11047,1,0,0:0:0:0:
152,161,11120,2,0,L|80:96,1,80
203,313,11413,2,0,L|144:260,1,80
248,108,11706,2,0,L|320:176,1,80
144,260,11998,2,0,L|76:303,1,80
307,163,12291,2,0,L|375:120,1,80
72,176,12584,5,0,0:0:0:0:
116,180,12657,1,0,0:0:0:0:
156,164,12730,1,0,0:0:0:0:
184,132,12803,1,0,0:0:0:0:
188,88,12876,1,0,0:0:0:0:
304,52,13023,6,0,P|316:120|412:136,1,160,4|0,0:0|0:0,0:0:0:0:
408,140,13389,1,0,0:0:0:0:
420,132,13462,2,0,L|401:213,1,80
285,129,13755,2,0,L|304:52,1,80
183,131,14047,2,0,L|160:208,1,80
124,324,14340,2,0,L|45:337,1,80
224,256,14633,2,0,L|316:240,1,80
356,136,14925,5,0,0:0:0:0:
396,152,14998,1,0,0:0:0:0:
440,148,15072,1,0,0:0:0:0:
472,116,15145,1,0,0:0:0:0:
484,72,15218,1,0,0:0:0:0:
384,264,15364,6,0,B|308:280|308:280|272:304|224:296,1,160,4|0,0:0|0:0,0:0:0:0:
229,296,15730,1,0,0:0:0:0:
228,296,15803,2,0,L|243:212,1,80
164,56,16096,2,0,L|148:140,1,80
80,224,16389,2,0,L|2:204,1,80,0|0,0:0|0:0,0:0:0:0:
168,248,16681,1,0,0:0:0:0:
168,248,16828,1,0,0:0:0:0:
192,132,16974,1,0,0:0:0:0:
192,132,17120,1,0,0:0:0:0:
272,184,17267,5,0,0:0:0:0:
316,188,17340,1,0,0:0:0:0:
360,180,17413,1,0,0:0:0:0:
392,152,17486,1,0,0:0:0:0:
408,112,17559,1,0,0:0:0:0:
408,112,17706,6,0,B|400:152|400:152|404:172|404:172|396:188|396:188|388:268,1,160,4|0,0:0|0:0,0:0:0:0:
387,268,18072,1,0,0:0:0:0:
387,268,18145,2,0,L|468:251,1,80
272,184,18437,2,0,L|160:208,1,80,0|0,0:0|0:0,0:0:0:0:
148,212,18657,1,0,0:0:0:0:
100,224,18730,1,0,0:0:0:0:
292,104,18876,5,0,0:0:0:0:
388,268,19169,1,0,0:0:0:0:
388,268,19316,1,0,0:0:0:0:
456,124,19462,1,0,0:0:0:0:
456,124,19608,1,0,0:0:0:0:
320,208,19901,5,0,0:0:0:0:
320,208,19974,1,0,0:0:0:0:
320,208,20047,2,0,B|244:224|244:224|208:248|160:244,1,160
88,184,20486,2,0,P|80:144|80:100,1,80
167,20,20779,2,0,P|175:60|176:100,1,80
80,104,21072,2,0,L|0:116,1,80
260,152,21364,2,0,L|348:136,2,80
164,168,21803,2,0,B|164:248|164:248|132:344,1,160
138,323,22169,1,0,0:0:0:0:
138,323,22242,1,0,0:0:0:0:
228,292,22389,6,0,P|275:348|364:354,1,160
444,316,22828,1,0,0:0:0:0:
444,316,22974,1,0,0:0:0:0:
480,228,23120,1,0,0:0:0:0:
480,228,23267,1,0,0:0:0:0:
448,136,23413,1,0,0:0:0:0:
448,136,23559,1,0,0:0:0:0:
368,80,23706,2,0,L|264:68,2,80
72,200,24145,1,0,0:0:0:0:
72,200,24291,2,0,L|149:177,1,80
340,204,24584,2,0,L|236:236,1,80
140,96,24876,6,0,L|156:284,1,160
220,328,25315,1,0,0:0:0:0:
220,328,25389,1,0,0:0:0:0:
220,328,25462,2,0,P|304:332|388:296,1,160
436,232,25901,1,0,0:0:0:0:
316,188,26047,1,0,0:0:0:0:
188,204,26194,1,0,0:0:0:0:
264,100,26340,5,0,0:0:0:0:
380,48,26486,1,0,0:0:0:0:
264,100,26633,2,0,L|152:76,1,80
174,81,26852,1,0,0:0:0:0:
162,79,26925,1,0,0:0:0:0:
66,62,27072,6,0,P|40:132|48:216,1,160
132,304,27511,1,0,0:0:0:0:
132,304,27584,1,0,0:0:0:0:
132,304,27657,1,0,0:0:0:0:
216,216,27803,1,0,0:0:0:0:
216,216,27876,1,0,0:0:0:0:
216,216,27950,1,0,0:0:0:0:
324,268,28096,1,0,0:0:0:0:
324,268,28242,2,0,L|483:252,1,160
324,148,28681,1,0,0:0:0:0:
324,148,28828,1,0,0:0:0:0:
232,124,28974,5,0,0:0:0:0:
196,116,29047,1,0,0:0:0:0:
160,108,29120,1,0,0:0:0:0:
124,100,29194,1,0,0:0:0:0:
88,92,29267,1,0,0:0:0:0:
88,92,29413,6,0,P|68:176|76:264,1,160,4|0,0:0|0:0,0:0:0:0:
156,296,29852,2,0,L|248:308,1,80
256,212,30145,2,0,L|344:224,1,80
432,232,30437,2,0,P|440:188|436:152,1,80
296,148,30730,2,0,P|292:100|308:48,1,80
312,64,30950,1,0,0:0:0:0:
324,64,31023,2,0,L|404:72,1,80
436,160,31315,1,0,0:0:0:0:
424,200,31389,1,0,0:0:0:0:
396,228,31462,1,0,0:0:0:0:
360,240,31535,1,0,0:0:0:0:
320,236,31608,1,0,0:0:0:0:
173,63,31755,6,0,P|153:143|148:220,1,160
100,292,32194,2,0,L|16:308,1,80
248,176,32486,2,0,P|240:216|240:256,1,80
248,264,32706,1,0,0:0:0:0:
260,268,32779,2,0,L|352:248,1,80
481,300,33072,2,0,L|404:320,1,80
484,124,33364,2,0,L|484:204,1,80
336,236,33657,5,0,0:0:0:0:
296,228,33730,1,0,0:0:0:0:
260,212,33803,1,0,0:0:0:0:
232,184,33876,1,0,0:0:0:0:
212,148,33950,1,0,0:0:0:0:
208,108,34023,1,0,0:0:0:0:
212,68,34096,1,0,0:0:0:0:
236,36,34169,1,0,0:0:0:0:
200,24,34242,6,0,L|32:60,1,160
28,152,34681,1,0,0:0:0:0:
124,140,34828,2,0,L|116:220,1,80
208,344,35120,2,0,L|216:264,1,80
224,164,35413,5,0,0:0:0:0:
344,268,35559,1,0,0:0:0:0:
344,268,35633,1,0,0:0:0:0:
344,268,35706,1,0,0:0:0:0:
368,112,35852,1,0,0:0:0:0:
272,240,35998,1,0,0:0:0:0:
368,112,36145,1,0,0:0:0:0:
432,260,36291,1,0,0:0:0:0:
368,112,36437,6,0,B|312:124|292:132|292:132|264:120|204:116,1,160
80,204,36876,1,0,0:0:0:0:
120,184,36950,1,0,0:0:0:0:
164,180,37023,1,0,0:0:0:0:
204,196,37096,1,0,0:0:0:0:
232,228,37169,2,0,P|268:244|336:224,1,80
460,188,37462,5,0,0:0:0:0:
396,336,37608,1,0,0:0:0:0:
328,192,37755,2,0,L|368:108,1,80,4|0,0:0|0:0,0:0:0:0:
400,108,37974,1,0,0:0:0:0:
436,96,38047,1,0,0:0:0:0:
252,20,38194,2,0,L|160:48,1,80,4|0,0:0|0:0,0:0:0:0:
164,80,38413,1,0,0:0:0:0:
152,116,38486,1,0,0:0:0:0:
32,92,38633,5,0,0:0:0:0:
60,208,38779,2,0,B|72:256|104:284|104:284|132:264|200:276,1,160
292,248,39218,1,0,0:0:0:0:
188,32,39511,1,0,0:0:0:0:
284,44,39657,1,0,0:0:0:0:
284,44,39730,1,0,0:0:0:0:
284,44,39803,2,0,L|424:64,1,120.000004577637,0|4,0:0|0:0,0:0:0:0:
100,226,48291,6,0,P|120:244|152:252,1,60.0000022888184,2|0,0:0|0:0,0:0:0:0:
223,113,48584,2,0,P|200:124|176:148,1,60.0000022888184,2|0,0:0|0:0,0:0:0:0:
304,184,48876,2,0,P|332:180|360:164,1,60.0000022888184,2|0,0:0|0:0,0:0:0:0:
312,68,49169,2,0,L|256:40,1,60.0000022888184,2|0,0:0|0:0,0:0:0:0:
360,164,49462,6,0,L|413:190,1,60.0000022888184,10|0,0:0|0:0,0:0:0:0:
480,224,49755,1,0,0:0:0:0:
232,204,49901,2,0,L|179:178,1,60.0000022888184,8|2,0:0|0:0,0:0:0:0:
144,92,50194,1,0,0:0:0:0:
40,120,50340,2,0,P|32:144|31:179,1,60.0000022888184,8|0,0:0|0:0,0:0:0:0:
144,92,50633,6,0,P|152:56|152:32,1,60.0000022888184,10|0,0:0|0:0,0:0:0:0:
236,148,50925,1,0,0:0:0:0:
332,100,51072,2,0,L|385:73,1,60.0000022888184,8|2,0:0|0:0,0:0:0:0:
452,44,51364,1,0,0:0:0:0:
356,204,51511,2,0,L|302:230,1,60.0000022888184,8|0,0:0|0:0,0:0:0:0:
204,280,51803,6,0,L|196:328|192:352,2,60.0000022888184,10|0|0,0:0|0:0|0:0,0:0:0:0:
112,220,52242,2,0,L|44:244,2,60.0000022888184,8|2|0,0:0|0:0|0:0,0:0:0:0:
128,112,52681,1,8,0:0:0:0:
128,112,52828,1,0,0:0:0:0:
340,156,52974,5,10,0:0:0:0:
232,132,53120,1,2,0:0:0:0:
232,132,53194,1,0,0:0:0:0:
232,132,53267,1,0,0:0:0:0:
416,76,53413,5,8,0:0:0:0:
312,52,53559,1,2,0:0:0:0:
312,52,53633,1,0,0:0:0:0:
312,52,53706,1,0,0:0:0:0:
444,180,53852,5,8,0:0:0:0:
372,260,53998,1,2,0:0:0:0:
236,132,54145,6,0,L|228:196,1,60.0000022888184,10|0,0:0|0:0,0:0:0:0:
216,264,54437,1,0,0:0:0:0:
128,108,54584,2,0,L|60:88,1,60.0000022888184,8|2,0:0|0:0,0:0:0:0:
4,68,54876,1,0,0:0:0:0:
228,192,55023,2,0,P|260:188|288:176,1,60.0000022888184,8|0,0:0|0:0,0:0:0:0:
390,88,55315,6,0,P|384:116|387:146,1,60.0000022888184,10|0,0:0|0:0,0:0:0:0:
444,16,55608,1,0,0:0:0:0:
277,235,55755,2,0,P|284:204|284:176,1,60.0000022888184,8|2,0:0|0:0,0:0:0:0:
220,308,56047,1,0,0:0:0:0:
376,292,56194,2,0,L|444:284,1,60.0000022888184,8|0,0:0|0:0,0:0:0:0:
172,192,56486,6,0,L|108:164,1,60.0000022888184,10|0,0:0|0:0,0:0:0:0:
0,116,56779,1,0,0:0:0:0:
64,252,56925,2,0,L|4:224,1,60.0000022888184,8|2,0:0|0:0,0:0:0:0:
156,296,57218,1,0,0:0:0:0:
172,192,57364,2,0,L|184:108,1,60.0000022888184,8|0,0:0|0:0,0:0:0:0:
244,220,57657,6,8,L|316:188,1,60.0000022888184,10|2,0:0|0:0,0:0:0:0:
256,296,57950,2,8,L|336:312,1,60.0000022888184,8|0,0:0|0:0,0:0:0:0:
432,332,58242,1,10,0:0:0:0:
460,216,58389,1,0,0:0:0:0:
460,216,58462,1,0,0:0:0:0:
460,216,58535,1,0,0:0:0:0:
400,112,58681,1,10,0:0:0:0:
280,72,58828,6,0,L|192:80,1,80,4|0,0:0|0:0,0:0:0:0:
200,79,59047,1,0,0:0:0:0:
200,79,59120,1,0,0:0:0:0:
180,184,59267,2,0,L|96:192,1,80
100,191,59486,1,0,0:0:0:0:
100,191,59559,1,0,0:0:0:0:
11,198,59706,2,0,P|3:159|4:116,1,80,0|0,0:0|0:0,0:0:0:0:
244,319,59998,6,0,L|348:303,1,80,4|0,0:0|0:0,0:0:0:0:
323,306,60218,1,0,0:0:0:0:
323,306,60291,1,0,0:0:0:0:
340,203,60437,2,0,L|426:190,1,80,0|0,0:0|0:0,0:0:0:0:
419,191,60657,1,0,0:0:0:0:
419,191,60730,1,0,0:0:0:0:
488,112,60876,2,0,P|488:72|478:32,1,80,0|0,0:0|0:0,0:0:0:0:
320,44,61169,5,0,0:0:0:0:
320,44,61315,1,0,0:0:0:0:
160,20,61462,1,0,0:0:0:0:
160,20,61608,1,0,0:0:0:0:
132,180,61755,1,0,0:0:0:0:
132,180,61901,1,0,0:0:0:0:
288,212,62047,1,0,0:0:0:0:
288,212,62194,1,0,0:0:0:0:
412,112,62340,5,0,0:0:0:0:
412,112,62486,1,0,0:0:0:0:
280,20,62633,1,0,0:0:0:0:
280,20,62779,1,0,0:0:0:0:
192,152,62925,1,0,0:0:0:0:
192,152,63072,1,0,0:0:0:0:
320,244,63218,1,0,0:0:0:0:
320,244,63364,1,0,0:0:0:0:
192,152,63511,6,0,L|224:120,3,40
192,152,63803,1,0,0:0:0:0:
252,300,63950,1,0,0:0:0:0:
412,320,64096,6,0,L|440:284,3,40
412,320,64389,1,0,0:0:0:0:
352,172,64535,1,0,0:0:0:0:
192,152,64681,2,0,L|172:192,3,40
196,152,64974,5,0,0:0:0:0:
104,20,65120,1,0,0:0:0:0:
264,8,65267,6,0,L|244:48,3,40
264,8,65559,1,0,0:0:0:0:
352,144,65706,1,0,0:0:0:0:
352,144,65852,5,0,0:0:0:0:
312,164,65925,1,0,0:0:0:0:
288,200,65998,1,0,0:0:0:0:
292,244,66072,1,0,0:0:0:0:
272,288,66145,1,0,0:0:0:0:
232,308,66218,1,0,0:0:0:0:
188,312,66291,1,0,0:0:0:0:
148,292,66364,1,0,0:0:0:0:
120,260,66437,6,0,B|124:224|140:212|140:212|128:164,1,80
80,48,66730,2,0,B|76:84|60:96|60:96|72:144,1,80,0|0,0:0|0:0,0:0:0:0:
66,121,67169,5,0,0:0:0:0:
160,166,67315,1,0,0:0:0:0:
263,154,67462,1,0,0:0:0:0:
314,64,67608,1,0,0:0:0:0:
404,100,67755,1,0,0:0:0:0:
412,104,67901,1,0,0:0:0:0:
420,108,68047,1,0,0:0:0:0:
420,108,68486,5,4,0:0:0:0:
256,344,68779,1,4,0:0:0:0:
92,108,69072,1,4,0:0:0:0:
92,108,69364,6,0,P|64:180|144:232,1,160,4|0,0:0|0:0,0:0:0:0:
200,188,69803,1,0,0:0:0:0:
200,188,69950,2,0,P|240:216|248:272,1,80
208,108,70242,2,0,P|168:80|160:24,1,80
300,80,70535,1,0,0:0:0:0:
436,40,70681,2,0,P|396:120|444:200,2,160
420,180,71413,1,0,0:0:0:0:
316,280,71559,6,0,P|336:208|272:148,1,160
172,108,71998,1,0,0:0:0:0:
172,108,72145,1,0,0:0:0:0:
56,136,72291,1,0,0:0:0:0:
56,136,72437,1,0,0:0:0:0:
40,256,72584,1,0,0:0:0:0:
40,256,72730,1,0,0:0:0:0:
132,332,72876,2,0,L|112:240,1,80
156,84,73169,1,0,0:0:0:0:
156,84,73315,2,0,P|196:144|184:236,1,160
288,124,73755,5,0,0:0:0:0:
312,164,73828,1,0,0:0:0:0:
352,192,73901,1,0,0:0:0:0:
400,192,73974,1,0,0:0:0:0:
444,176,74047,2,0,L|464:96,1,80
332,256,74340,2,0,L|312:336,1,80
332,256,74633,1,0,0:0:0:0:
444,176,74779,1,0,0:0:0:0:
308,48,74925,2,0,L|288:128,1,80
184,68,75218,5,0,0:0:0:0:
64,52,75364,1,0,0:0:0:0:
172,168,75511,1,0,0:0:0:0:
132,12,75657,1,0,0:0:0:0:
68,156,75803,1,0,0:0:0:0:
228,128,75950,1,0,0:0:0:0:
168,276,76096,1,0,0:0:0:0:
280,236,76242,6,0,B|352:244|352:244|384:224|440:244,1,160
216,324,76681,1,0,0:0:0:0:
168,316,76755,1,0,0:0:0:0:
120,320,76828,1,0,0:0:0:0:
76,336,76901,1,0,0:0:0:0:
36,368,76974,2,0,L|12:272,1,80
44,100,77267,2,0,L|64:180,1,80
160,224,77559,5,0,0:0:0:0:
224,152,77706,1,0,0:0:0:0:
292,220,77852,1,0,0:0:0:0:
320,248,77925,1,0,0:0:0:0:
356,260,77998,1,0,0:0:0:0:
396,260,78072,1,0,0:0:0:0:
432,244,78145,2,0,P|456:176|424:84,1,160
336,44,78584,1,0,0:0:0:0:
336,44,78730,6,0,P|332:88|304:124,1,80
136,44,79023,2,0,P|172:20|208:19,1,80
72,188,79315,2,0,P|52:152|60:116,1,80
192,200,79608,2,0,P|212:236|204:272,1,80
96,304,79901,1,0,0:0:0:0:
96,304,80047,2,0,B|152:316|152:316|184:336|184:336|260:340,1,160
344,348,80486,1,0,0:0:0:0:
380,332,80559,1,0,0:0:0:0:
408,304,80633,1,0,0:0:0:0:
416,264,80706,1,0,0:0:0:0:
404,224,80779,1,0,0:0:0:0:
276,37,80925,6,0,B|276:65|292:105|292:105|312:145|312:192,1,160
252,268,81364,1,0,0:0:0:0:
252,268,81511,1,0,0:0:0:0:
164,228,81657,1,0,0:0:0:0:
164,228,81803,1,0,0:0:0:0:
84,280,81950,1,0,0:0:0:0:
84,280,82096,1,0,0:0:0:0:
9,220,82242,2,0,P|25:176|25:136,1,80
24,104,82462,1,0,0:0:0:0:
12,64,82535,1,0,0:0:0:0:
128,32,82681,1,0,0:0:0:0:
176,140,82828,5,0,0:0:0:0:
212,156,82901,1,0,0:0:0:0:
252,156,82974,1,0,0:0:0:0:
288,140,83047,1,0,0:0:0:0:
316,112,83120,1,0,0:0:0:0:
404,68,83267,1,0,0:0:0:0:
444,80,83340,1,0,0:0:0:0:
484,92,83413,2,0,B|484:148|484:148|504:192|504:192|504:252,1,160
408,260,83852,5,0,0:0:0:0:
408,260,83998,2,0,L|423:338,1,80
280,224,84291,2,0,L|264:144,1,80
192,40,84584,2,0,L|100:28,1,80
72,24,84803,1,0,0:0:0:0:
32,16,84876,1,0,0:0:0:0:
112,160,85023,2,0,L|192:170,1,80
232,176,85242,1,0,0:0:0:0:
272,180,85315,1,0,0:0:0:0:
428,112,85462,1,0,0:0:0:0:
428,112,85608,6,0,P|416:192|432:304,1,160
396,368,86047,1,0,0:0:0:0:
300,364,86194,1,0,0:0:0:0:
208,336,86340,1,0,0:0:0:0:
144,264,86486,1,0,0:0:0:0:
144,168,86633,1,0,0:0:0:0:
196,88,86779,1,0,0:0:0:0:
196,88,87072,6,0,L|104:96,1,80
272,200,87364,1,0,0:0:0:0:
272,200,87511,2,0,L|364:192,1,80,0|0,0:0|0:0,0:0:0:0:
472,184,87803,1,0,0:0:0:0:
472,184,87950,1,0,0:0:0:0:
280,44,88242,5,0,0:0:0:0:
280,44,88315,1,0,0:0:0:0:
280,44,88389,2,0,L|284:124,1,80
144,180,88681,6,0,L|140:140,1,40
144,180,88828,2,0,L|40:192,1,80
252,268,89120,6,0,L|256:308,1,40
252,268,89267,2,0,L|356:256,1,80
476,192,89559,5,0,0:0:0:0:
476,192,89633,1,0,0:0:0:0:
476,192,89706,2,0,P|488:232|488:304,1,80
428,348,89998,1,0,0:0:0:0:
388,356,90072,1,0,0:0:0:0:
348,344,90145,1,0,0:0:0:0:
316,320,90218,1,0,0:0:0:0:
300,284,90291,1,0,0:0:0:0:
148,200,90437,6,0,L|228:188,1,80
128,320,90730,2,0,L|48:332,1,80,0|0,0:0|0:0,0:0:0:0:
8,244,91023,2,0,P|0:200|8:160,1,80
64,92,91315,1,0,0:0:0:0:
204,56,91462,1,0,0:0:0:0:
220,152,91608,1,0,0:0:0:0:
128,120,91755,5,0,0:0:0:0:
268,92,91901,1,0,0:0:0:0:
284,188,92047,1,0,0:0:0:0:
196,152,92194,5,0,0:0:0:0:
428,108,92340,1,0,0:0:0:0:
196,152,92486,1,0,0:0:0:0:
428,108,92633,2,0,P|472:176|460:268,1,160
408,328,93072,6,0,L|304:352,1,80
268,272,93364,2,0,L|164:296,1,80
96,308,93657,1,0,0:0:0:0:
52,224,93803,1,0,0:0:0:0:
144,176,93950,2,0,P|152:128|136:88,1,80
80,28,94242,2,0,L|0:24,1,80,0|0,0:0|0:0,0:0:0:0:
172,60,94535,5,0,0:0:0:0:
208,76,94608,1,0,0:0:0:0:
248,80,94681,1,0,0:0:0:0:
284,68,94755,1,0,0:0:0:0:
312,40,94828,1,0,0:0:0:0:
312,40,94974,6,0,B|312:112|312:112|300:140|304:216,1,160
400,184,95413,2,0,L|478:169,1,80
224,312,95706,2,0,L|146:327,1,80
236,144,95998,1,0,0:0:0:0:
336,292,96145,1,0,0:0:0:0:
344,128,96437,5,0,0:0:0:0:
240,244,96584,1,0,0:0:0:0:
404,184,96730,1,0,0:0:0:0:
236,144,96876,1,0,0:0:0:0:
336,292,97023,1,0,0:0:0:0:
312,200,97169,1,0,0:0:0:0:
312,200,97315,1,0,0:0:0:0:
132,300,97608,5,0,0:0:0:0:
80,176,97755,1,0,0:0:0:0:
176,80,97901,1,0,0:0:0:0:
208,212,98047,5,0,0:0:0:0:
176,80,98194,1,0,0:0:0:0:
300,28,98340,1,0,0:0:0:0:
264,160,98486,5,0,0:0:0:0:
300,28,98633,1,0,0:0:0:0:
432,56,98779,1,0,0:0:0:0:
484,180,98925,5,0,0:0:0:0:
392,280,99072,2,0,B|340:280|340:280|288:300|288:300|208:300,1,160
232,204,99511,1,0,0:0:0:0:
172,132,99657,1,0,0:0:0:0:
88,184,99803,1,0,0:0:0:0:
88,184,99950,1,0,0:0:0:0:
132,276,100096,5,0,0:0:0:0:
180,268,100169,1,0,0:0:0:0:
228,276,100242,1,0,0:0:0:0:
264,308,100315,1,0,0:0:0:0:
276,356,100389,2,0,P|312:372|364:372,1,80
400,364,100608,1,0,0:0:0:0:
436,328,100681,1,0,0:0:0:0:
448,280,100755,1,0,0:0:0:0:
432,236,100828,1,0,0:0:0:0:
392,212,100901,1,0,0:0:0:0:
344,216,100974,6,0,P|336:176|356:128,1,80
263,23,101267,2,0,P|271:63|260:100,1,80
164,96,101559,1,0,0:0:0:0:
120,120,101633,1,0,0:0:0:0:
96,160,101706,1,0,0:0:0:0:
104,208,101779,1,0,0:0:0:0:
140,240,101852,5,0,0:0:0:0:
188,244,101925,1,0,0:0:0:0:
224,272,101998,1,0,0:0:0:0:
240,316,102072,1,0,0:0:0:0:
224,360,102145,2,0,P|316:356|392:308,2,160
100,244,102876,1,0,0:0:0:0:
104,292,102950,1,0,0:0:0:0:
136,328,103023,1,0,0:0:0:0:
144,168,103169,6,0,P|105:161|77:133,1,80
240,264,103462,2,0,P|278:270|306:298,1,80,0|0,0:0|0:0,0:0:0:0:
348,164,103755,2,0,L|436:132,1,80
276,40,104047,2,0,L|188:72,1,80
112,104,104340,6,0,B|115:158|99:198|99:198|104:264,1,160
200,272,104779,2,0,L|300:232,1,80
335,78,105072,2,0,L|300:96,1,40
372,112,105218,2,0,L|406:91,1,40
444,120,105364,6,0,P|464:164|460:208,1,80
412,276,105657,1,0,0:0:0:0:
256,320,105803,1,0,0:0:0:0:
208,308,105876,1,0,0:0:0:0:
164,324,105950,1,0,0:0:0:0:
116,316,106023,1,0,0:0:0:0:
88,276,106096,1,0,0:0:0:0:
32,128,106242,1,0,0:0:0:0:
68,112,106315,1,0,0:0:0:0:
104,96,106389,2,0,L|184:124,1,80
260,212,106681,1,0,0:0:0:0:
296,96,106828,5,0,0:0:0:0:
308,56,106901,1,0,0:0:0:0:
320,20,106974,2,0,L|412:8,1,80
192,128,107267,1,0,0:0:0:0:
160,164,107340,1,0,0:0:0:0:
152,212,107413,1,0,0:0:0:0:
116,240,107486,1,0,0:0:0:0:
68,240,107559,1,0,0:0:0:0:
304,292,107706,2,0,P|344:296|400:336,1,80
192,40,107998,6,0,L|200:84,1,40
188,116,108145,2,0,P|160:136|108:144,1,80
368,276,108437,2,0,L|361:236,1,40
352,188,108584,2,0,P|388:168|436:160,1,80
236,336,108876,2,0,L|152:320,1,80
328,64,109315,5,0,0:0:0:0:
328,64,109462,1,0,0:0:0:0:
196,276,109755,1,0,0:0:0:0:
328,212,109901,5,0,0:0:0:0:
328,212,109974,1,0,0:0:0:0:
328,212,110047,1,0,0:0:0:0:
204,140,110340,6,0,P|168:144|136:132,1,60.0000022888184,2|0,0:0|0:0,0:0:0:0:
80,76,110633,1,0,0:0:0:0:
300,164,110779,2,0,P|328:160|384:164,1,60.0000022888184,0|0,0:0|0:0,0:0:0:0:
432,212,111072,1,0,0:0:0:0:
143,303,111218,2,0,L|152:244,1,60.0000022888184,2|0,0:0|0:0,0:0:0:0:
56,84,111511,6,0,P|68:116|68:152,1,60.0000022888184,2|0,0:0|0:0,0:0:0:0:
40,224,111803,1,0,0:0:0:0:
188,68,111950,2,0,P|176:36|176:0,1,60.0000022888184,0|0,0:0|0:0,0:0:0:0:
188,68,112242,1,0,0:0:0:0:
316,184,112389,2,0,L|257:195,1,60.0000022888184,2|0,0:0|0:0,0:0:0:0:
448,152,112681,6,0,L|472:72,1,60.0000022888184,2|0,0:0|0:0,0:0:0:0:
484,24,112974,1,0,0:0:0:0:
316,184,113120,2,0,L|368:228,1,60.0000022888184,0|0,0:0|0:0,0:0:0:0:
432,276,113413,1,0,0:0:0:0:
192,284,113559,6,0,L|208:224,1,60.0000022888184,2|0,0:0|0:0,0:0:0:0:
236,140,113852,1,2,0:0:0:0:
136,76,113998,1,0,0:0:0:0:
136,76,114072,1,0,0:0:0:0:
136,76,114145,1,0,0:0:0:0:
144,228,114291,1,2,0:0:0:0:
56,164,114437,1,0,0:0:0:0:
56,164,114511,1,0,0:0:0:0:
56,164,114584,1,0,0:0:0:0:
144,228,114730,2,0,L|152:292,1,60.0000022888184,2|0,0:0|0:0,0:0:0:0:
252,340,115023,6,0,L|264:276,2,60.0000022888184,2|0|0,0:0|0:0|0:0,0:0:0:0:
360,224,115462,2,0,L|372:288,2,60.0000022888184,0|0|0,0:0|0:0|0:0,0:0:0:0:
248,108,115901,2,0,L|268:32,1,60.0000022888184,2|0,0:0|0:0,0:0:0:0:
384,84,116194,6,0,L|456:60,2,60.0000022888184,2|0|0,0:0|0:0|0:0,0:0:0:0:
336,180,116633,2,0,L|264:204,2,60.0000022888184,0|0|0,0:0|0:0|0:0,0:0:0:0:
200,324,117072,2,0,L|276:300,1,60.0000022888184,2|0,0:0|0:0,0:0:0:0:
96,208,117364,6,0,L|88:272,2,60.0000022888184,2|0|0,0:0|0:0|0:0,0:0:0:0:
4,112,117803,2,2,L|12:176,2,60.0000022888184,2|0|0,0:0|0:0|0:0,0:0:0:0:
144,20,118242,2,0,L|152:84,1,60.0000022888184,2|0,0:0|0:0,0:0:0:0:
284,200,118535,6,0,P|244:196|208:184,1,60.0000022888184,2|0,0:0|0:0,0:0:0:0:
400,120,118828,2,0,P|440:116|476:104,1,60.0000022888184,2|0,0:0|0:0,0:0:0:0:
400,240,119120,2,0,L|376:324,1,60.0000022888184,2|0,0:0|0:0,0:0:0:0:
383,297,119340,1,0,0:0:0:0:
383,297,119413,1,0,0:0:0:0:
284,336,119559,1,0,0:0:0:0:
200,368,119706,6,0,P|144:372|96:324,1,120.000004577637,2|0,0:0|0:0,0:0:0:0:
84,244,120145,1,0,0:0:0:0:
64,64,120437,1,0,0:0:0:0:
148,84,120584,1,0,0:0:0:0:
148,84,120876,6,0,P|200:120|272:96,1,120.000004577637,2|0,0:0|0:0,0:0:0:0:
320,60,121315,1,0,0:0:0:0:
488,76,121608,1,0,0:0:0:0:
404,108,121755,1,0,0:0:0:0:
404,108,122047,6,0,P|368:148|380:212,1,120.000004577637,2|0,0:0|0:0,0:0:0:0:
444,268,122486,1,0,0:0:0:0:
308,336,122779,1,0,0:0:0:0:
236,292,122925,1,0,0:0:0:0:
68,308,123218,1,2,0:0:0:0:
88,228,123364,6,0,L|88:188,2,30.0000011444092
152,176,123657,2,0,L|152:220,2,30.0000011444092
176,96,123950,1,0,0:0:0:0:
252,60,124096,1,0,0:0:0:0:
328,96,124242,1,0,0:0:0:0:
336,180,124389,1,0,0:0:0:0:
256,192,124462,12,0,127901,0:0:0:0:
