osu file format v12

[General]
AudioFilename: Lucky Vacuum.mp3
AudioLeadIn: 0
PreviewTime: 40096
Countdown: 0
SampleSet: Normal
StackLeniency: 0.3
Mode: 0
LetterboxInBreaks: 1

[Editor]
Bookmarks: 20040,69357
DistanceSpacing: 1.7
BeatDivisor: 4
GridSize: 4

[Metadata]
Title:Daily Lunch Special
TitleUnicode:Daily Lunch Special
Artist:Lucky Vacuum
ArtistUnicode:Lucky Vacuum
Creator:SnowWhite
Version:Extra
Source:REFLEC BEAT
Tags:colette jubeat saucer csy the corrupt [Kirisame-Marisa] etc
BeatmapID:231790
BeatmapSetID:67905

[Difficulty]
HPDrainRate:6
CircleSize:5
OverallDifficulty:8
ApproachRate:9
SliderMultiplier:1.8
SliderTickRate:1

[Events]
//Background and Video events
0,0,"BG.jpg",1,1
//Break Periods
2,40296,46520
//Storyboard Layer 0 (Background)
//Storyboard Layer 1 (Fail)
//Storyboard Layer 2 (Pass)
//Storyboard Layer 3 (Foreground)
//Storyboard Sound Samples
//Background Colour Transformations
3,100,163,162,255

[TimingPoints]
1316,292.682926829268,4,1,0,70,1,0
48145,-100,4,1,0,5,0,0
48291,-133.333333333333,4,2,0,70,0,0
58828,-100,4,2,0,70,0,0
58974,-100,4,2,0,50,0,0
61169,-100,4,2,0,55,0,0
62340,-100,4,2,0,60,0,0
63511,-100,4,1,0,65,0,0
65852,-100,4,1,0,70,0,0
66876,-133.333333333333,4,1,0,70,0,0
67608,-100,4,1,0,70,0,0
67901,-80,4,1,0,70,0,0
68047,-100,4,1,0,70,0,0
87950,-100,4,1,0,70,0,1
109023,-133.333333333333,4,1,0,70,0,1
110047,-200,4,1,0,70,0,1
110340,-133.333333333333,4,2,0,60,0,0
115023,-133.333333333333,4,2,0,55,0,0
119706,-200,4,2,0,50,0,0
120876,-200,4,2,0,45,0,0
122047,-200,4,2,0,40,0,0
123218,-200,4,2,0,35,0,0
124389,-200,4,2,0,30,0,0
125559,-200,4,2,0,25,0,0
126730,-200,4,2,0,20,0,0
127901,-200,4,2,0,5,0,0

[Colours]
Combo1 : 255,0,128
Combo2 : 255,255,255
Combo3 : 0,255,255

[HitObjects]
40,188,1316,2,0,P|92:112|172:116,1,180,4|0,0:0|0:0,0:0:0:0:
252,200,1755,2,0,L|308:269,1,90
496,129,2047,1,0,0:0:0:0:
440,56,2194,1,0,0:0:0:0:
347,130,2340,2,0,L|404:200,1,90
252,348,2633,5,0,0:0:0:0:
164,348,2779,1,0,0:0:0:0:
92,256,2925,2,0,L|182:256,1,90
300,256,3218,1,0,0:0:0:0:
400,80,3364,1,0,0:0:0:0:
380,72,3437,1,0,0:0:0:0:
360,64,3511,1,0,0:0:0:0:
168,36,3657,6,0,P|100:71|175:133,1,180,4|0,0:0|0:0,0:0:0:0:
236,156,4096,1,0,0:0:0:0:
324,164,4242,1,0,0:0:0:0:
309,345,4389,2,0,L|316:256,1,90
324,164,4681,5,0,0:0:0:0:
330,74,4828,1,0,0:0:0:0:
509,87,4974,2,0,L|420:80,1,90
240,66,5267,2,0,L|330:74,1,90
432,200,5559,1,0,0:0:0:0:
308,344,5706,2,0,B|268:320|268:320|244:260,1,90
96,108,5998,6,0,P|15:160|83:228,1,180,4|0,0:0|0:0,0:0:0:0:
200,276,6437,2,0,P|184:233|143:202,1,90
16,320,6730,2,0,P|60:320|104:292,1,90
151,205,7023,1,0,0:0:0:0:
151,205,7169,1,0,0:0:0:0:
184,24,7315,6,0,L|296:52,1,90
468,180,7608,2,0,L|380:158,1,90
292,136,7901,1,0,0:0:0:0:
132,352,8047,1,4,0:0:0:0:
132,352,8340,6,0,B|192:352|192:352|248:324|248:324|324:324,1,180,4|0,0:0|0:0,0:0:0:0:
328,324,8706,1,0,0:0:0:0:
352,324,8779,1,0,0:0:0:0:
448,260,8925,1,0,0:0:0:0:
360,116,9072,2,0,P|316:104|290:147,2,90
264,248,9511,6,0,P|180:200|180:120,1,180,4|0,0:0|0:0,0:0:0:0:
188,104,9876,1,0,0:0:0:0:
200,84,9950,1,0,0:0:0:0:
44,52,10096,1,0,0:0:0:0:
52,72,10169,1,0,0:0:0:0:
60,92,10242,1,0,0:0:0:0:
84,212,10389,1,0,0:0:0:0:
70,226,10462,1,0,0:0:0:0:
56,241,10535,1,0,0:0:0:0:
180,348,10681,6,0,B|240:360|240:360|248:316|312:284|352:360,1,180,4|0,0:0|0:0,0:0:0:0:
448,316,11120,1,0,0:0:0:0:
448,316,11267,1,0,0:0:0:0:
472,96,11413,1,0,0:0:0:0:
364,48,11559,2,0,P|320:44|280:84,2,90
248,272,11998,5,0,0:0:0:0:
148,308,12145,2,0,P|105:296|81:245,2,90
248,272,12584,1,0,0:0:0:0:
392,104,12730,1,0,0:0:0:0:
264,132,12876,1,0,0:0:0:0:
324,352,13023,6,0,P|413:316|460:219,1,180,4|0,0:0|0:0,0:0:0:0:
456,222,13389,1,0,0:0:0:0:
454,199,13462,1,0,0:0:0:0:
392,104,13608,1,0,0:0:0:0:
114,174,13755,2,0,L|192:128,1,90
284,72,14047,1,0,0:0:0:0:
284,72,14194,1,0,0:0:0:0:
301,277,14340,6,0,L|292:188,1,90
284,72,14633,1,0,0:0:0:0:
284,72,14779,1,0,0:0:0:0:
176,32,14925,1,0,0:0:0:0:
28,248,15072,1,0,0:0:0:0:
140,284,15218,1,0,0:0:0:0:
160,280,15291,1,0,0:0:0:0:
180,276,15364,6,0,P|236:204|200:112,1,180,4|0,0:0|0:0,0:0:0:0:
64,80,15803,1,0,0:0:0:0:
64,80,15950,1,0,0:0:0:0:
28,248,16096,2,0,P|40:296|108:328,1,90
179,278,16389,1,0,0:0:0:0:
133,170,16535,1,0,0:0:0:0:
360,148,16681,5,0,0:0:0:0:
469,187,16828,1,0,0:0:0:0:
384,267,16974,1,0,0:0:0:0:
275,227,17121,1,0,0:0:0:0:
360,148,17267,1,0,0:0:0:0:
192,20,17413,1,4,0:0:0:0:
192,20,17706,6,0,B|100:32|100:32|32:120,1,180,4|0,0:0|0:0,0:0:0:0:
52,220,18145,1,0,0:0:0:0:
164,260,18291,2,0,P|152:304|96:320,1,90
52,220,18584,1,0,0:0:0:0:
68,204,18657,1,0,0:0:0:0:
84,188,18730,1,0,0:0:0:0:
284,92,18876,6,0,P|348:124|272:152,2,180,4|4|4,0:0|0:0|0:0,0:0:0:0:
188,140,19608,1,0,0:0:0:0:
232,240,19755,1,4,0:0:0:0:
266,268,19828,1,0,0:0:0:0:
310,275,19901,1,0,0:0:0:0:
354,269,19974,1,0,0:0:0:0:
393,246,20047,6,0,P|438:176|403:80,1,180,4|0,0:0|0:0,0:0:0:0:
304,60,20486,1,0,0:0:0:0:
212,60,20633,1,0,0:0:0:0:
28,216,20779,1,0,0:0:0:0:
120,216,20926,1,0,0:0:0:0:
212,136,21072,1,0,0:0:0:0:
120,136,21219,1,0,0:0:0:0:
28,216,21364,5,0,0:0:0:0:
176,348,21511,1,0,0:0:0:0:
284,364,21657,2,0,P|332:346|361:300,1,90
368,220,21950,1,0,0:0:0:0:
312,125,22096,1,0,0:0:0:0:
218,179,22243,1,0,0:0:0:0:
272,273,22389,6,0,P|336:324|440:300,1,180,4|0,0:0|0:0,0:0:0:0:
488,228,22828,1,0,0:0:0:0:
464,132,22974,1,0,0:0:0:0:
276,48,23120,1,0,0:0:0:0:
208,120,23267,1,0,0:0:0:0:
208,120,23315,1,0,0:0:0:0:
208,120,23364,1,0,0:0:0:0:
208,120,23413,1,0,0:0:0:0:
260,204,23559,5,0,0:0:0:0:
184,268,23706,2,0,P|140:280|92:248,2,90
140,180,24145,2,0,L|88:84,1,90
164,28,24437,1,0,0:0:0:0:
264,28,24584,2,0,L|360:28,1,90
496,192,24876,5,4,0:0:0:0:
354,356,25023,1,0,0:0:0:0:
328,260,25169,1,0,0:0:0:0:
402,176,25315,1,0,0:0:0:0:
304,164,25462,1,0,0:0:0:0:
224,236,25608,2,0,L|224:328,2,90
144,164,26047,5,0,0:0:0:0:
36,184,26194,1,0,0:0:0:0:
76,84,26340,1,0,0:0:0:0:
180,56,26486,1,0,0:0:0:0:
288,56,26633,2,0,P|329:71|373:123,1,90
369,123,26852,1,0,0:0:0:0:
373,144,26925,1,0,0:0:0:0:
344,320,27072,6,0,B|306:334|259:326|267:279|220:270|176:287,1,180,4|0,0:0|0:0,0:0:0:0:
80,332,27511,2,0,P|96:368|152:380,2,90
100,224,27950,1,4,0:0:0:0:
16,156,28096,1,0,0:0:0:0:
216,20,28242,5,4,0:0:0:0:
216,20,28535,1,0,0:0:0:0:
236,32,28608,1,0,0:0:0:0:
256,44,28681,2,0,L|352:44,1,90,0|4,0:0|0:0,0:0:0:0:
424,132,28974,2,0,L|334:132,2,90,0|4|0,0:0|0:0|0:0,0:0:0:0:
495,214,29413,6,0,L|356:328,1,180,4|0,0:0|0:0,0:0:0:0:
332,328,29779,1,0,0:0:0:0:
308,328,29852,1,0,0:0:0:0:
208,328,29998,1,0,0:0:0:0:
56,184,30145,1,4,0:0:0:0:
140,120,30291,5,0,0:0:0:0:
164,116,30364,1,0,0:0:0:0:
188,112,30437,1,0,0:0:0:0:
248,20,30584,1,0,0:0:0:0:
463,123,30730,2,0,P|444:160|400:176,2,90,4|0|0,0:0|0:0|0:0,0:0:0:0:
364,84,31169,2,0,P|296:136|332:236,2,180,4|4|4,0:0|0:0|0:0,0:0:0:0:
480,320,32047,6,0,P|454:285|414:300,1,90
364,372,32340,1,0,0:0:0:0:
188,264,32486,1,0,0:0:0:0:
100,280,32633,1,0,0:0:0:0:
100,280,32681,1,0,0:0:0:0:
100,280,32730,1,0,0:0:0:0:
100,280,32779,1,0,0:0:0:0:
128,196,32925,1,0,0:0:0:0:
40,216,33072,5,0,0:0:0:0:
124,32,33218,1,0,0:0:0:0:
220,16,33364,2,0,L|288:76,1,90
256,172,33657,1,0,0:0:0:0:
312,252,33803,1,0,0:0:0:0:
336,248,33876,1,0,0:0:0:0:
360,244,33950,1,0,0:0:0:0:
396,152,34096,1,0,0:0:0:0:
492,320,34242,5,4,0:0:0:0:
492,320,34389,1,0,0:0:0:0:
404,364,34535,1,0,0:0:0:0:
404,364,34681,1,0,0:0:0:0:
268,308,34828,1,0,0:0:0:0:
176,344,34974,2,0,P|128:328|133:280,2,90
192,248,35413,6,0,L|161:163,1,90,0|0,0:0|0:0,0:0:0:0:
152,140,35633,1,0,0:0:0:0:
143,117,35706,1,0,0:0:0:0:
184,28,35852,2,0,L|265:66,1,90,0|0,0:0|0:0,0:0:0:0:
288,76,36072,1,0,0:0:0:0:
311,85,36145,1,0,0:0:0:0:
324,184,36291,1,0,0:0:0:0:
233,336,36437,6,0,P|332:329|376:268,1,180,4|0,0:0|0:0,0:0:0:0:
324,184,36876,2,0,P|284:208|292:276,1,90
328,332,37169,1,0,0:0:0:0:
428,324,37315,1,0,0:0:0:0:
484,240,37462,1,0,0:0:0:0:
464,144,37608,1,0,0:0:0:0:
376,100,37755,1,0,0:0:0:0:
200,88,37901,6,0,L|148:88,2,45
268,160,38194,1,0,0:0:0:0:
104,200,38340,2,0,L|52:200,2,45
172,272,38633,1,0,0:0:0:0:
104,344,38779,5,0,0:0:0:0:
104,344,39072,1,0,0:0:0:0:
260,344,39218,2,0,L|332:268,1,90
408,312,39511,1,0,0:0:0:0:
464,244,39657,1,0,0:0:0:0:
452,228,39730,1,0,0:0:0:0:
440,212,39803,1,4,0:0:0:0:
440,212,40096,1,4,0:0:0:0:
256,192,47120,12,0,48145,2:0:0:0:
440,48,48291,5,0,0:0:0:0:
398,109,48437,1,0,0:0:0:0:
440,170,48584,1,0,0:0:0:0:
431,243,48730,1,0,0:0:0:0:
359,261,48876,1,0,0:0:0:0:
323,326,49023,1,0,0:0:0:0:
249,318,49169,1,0,0:0:0:0:
214,252,49315,1,0,0:0:0:0:
260,140,49462,6,0,P|264:104|260:64,2,67.5000025749208
148,92,49901,2,0,P|137:57|134:17,2,67.5000025749208,0|0|0,0:0|0:0|0:0,0:0:0:0:
124,212,50340,2,0,P|108:252|84:284,1,67.5000025749208
188,348,50633,6,0,P|224:364|272:360,2,67.5000025749208
316,280,51072,2,0,P|280:264|232:268,2,67.5000025749208
396,372,51511,2,0,P|424:348|440:312,1,67.5000025749208
468,188,51803,6,0,L|480:120,2,67.5000025749208
340,144,52242,2,0,L|316:68,2,67.5000025749208
376,248,52681,1,0,0:0:0:0:
284,308,52828,1,0,0:0:0:0:
156,152,52974,5,0,0:0:0:0:
216,80,53120,2,0,L|260:80,2,33.7500012874604
96,224,53413,1,0,0:0:0:0:
156,152,53559,2,0,L|200:152,2,33.7500012874604
36,296,53852,1,0,0:0:0:0:
120,340,53998,1,0,0:0:0:0:
216,336,54145,6,0,L|284:316,1,67.5000025749208
280,316,54437,1,0,0:0:0:0:
372,344,54584,2,0,L|440:324,1,67.5000025749208
436,324,54876,1,0,0:0:0:0:
480,240,55023,2,0,L|404:192,1,67.5000025749208
332,180,55315,5,0,0:0:0:0:
332,180,55462,2,0,L|376:116,1,67.5000025749208
248,120,55755,1,0,0:0:0:0:
248,120,55902,2,0,L|292:56,1,67.5000025749208
164,60,56194,1,0,0:0:0:0:
60,88,56340,1,0,0:0:0:0:
20,204,56486,5,0,0:0:0:0:
20,204,56633,1,0,0:0:0:0:
112,284,56779,1,0,0:0:0:0:
112,284,56925,1,0,0:0:0:0:
228,244,57072,2,0,P|264:244|304:256,1,67.5000025749208
356,332,57364,1,0,0:0:0:0:
452,296,57511,1,0,0:0:0:0:
472,196,57657,6,0,B|436:140|436:140|376:104,1,135.000005149842,0|0,0:0|1:0,0:0:0:0:
164,80,58242,1,0,1:0:0:0:
48,264,58535,1,4,1:0:0:0:
248,352,58828,5,0,1:0:0:0:
348,276,58974,2,0,L|388:244,2,45
232,228,59267,1,0,0:0:0:0:
132,304,59413,2,0,L|92:336,2,45
248,352,59706,1,0,0:0:0:0:
232,228,59852,1,0,0:0:0:0:
280,112,59998,5,0,0:0:0:0:
188,24,60145,2,0,L|233:24,2,45
280,112,60437,1,0,0:0:0:0:
372,200,60584,2,0,L|327:200,2,45
464,112,60876,1,0,0:0:0:0:
372,200,61023,1,0,0:0:0:0:
428,312,61169,5,0,0:0:0:0:
308,352,61315,2,0,L|264:368,2,45
284,228,61608,1,0,0:0:0:0:
164,268,61754,2,0,L|120:284,2,45
140,144,62047,1,0,0:0:0:0:
20,184,62194,1,0,0:0:0:0:
52,64,62340,5,0,0:0:0:0:
172,32,62486,2,0,L|208:60,2,45
280,100,62779,1,0,0:0:0:0:
400,132,62925,2,0,L|436:104,2,45
500,52,63218,1,0,0:0:0:0:
504,176,63364,1,0,0:0:0:0:
480,272,63511,5,4,0:0:0:0:
392,280,63657,1,0,0:0:0:0:
332,348,63803,1,0,0:0:0:0:
260,296,63950,1,0,0:0:0:0:
172,316,64096,1,4,0:0:0:0:
104,256,64242,1,0,0:0:0:0:
152,180,64389,1,0,0:0:0:0:
132,172,64462,1,0,0:0:0:0:
112,164,64535,1,0,0:0:0:0:
80,80,64681,5,4,0:0:0:0:
156,28,64828,1,0,0:0:0:0:
224,88,64974,1,0,0:0:0:0:
300,40,65120,1,0,0:0:0:0:
352,112,65267,1,4,0:0:0:0:
440,136,65413,1,0,0:0:0:0:
408,220,65559,1,0,0:0:0:0:
480,276,65706,1,0,0:0:0:0:
388,332,65852,5,4,0:0:0:0:
347,350,65925,1,0,0:0:0:0:
302,344,65998,1,0,0:0:0:0:
268,313,66072,1,0,0:0:0:0:
256,269,66145,1,0,0:0:0:0:
268,225,66218,1,0,0:0:0:0:
306,202,66291,1,0,0:0:0:0:
350,202,66364,1,0,0:0:0:0:
392,217,66437,6,0,L|443:242,1,45,0|0,0:0|0:0,0:0:0:0:
350,127,66584,2,0,L|401:152,1,45
306,36,66730,2,0,L|357:61,1,45,0|0,0:0|0:0,0:0:0:0:
224,36,66876,6,0,B|152:40|176:104|88:92,1,135.000005149842,0|0,0:0|2:0,0:0:0:0:
28,104,67315,2,0,P|32:144|64:160,1,67.5000025749208,0|0,2:0|2:0,0:0:0:0:
136,184,67608,2,0,L|240:200,1,90,0|0,2:0|2:0,0:0:0:0:
80,356,67901,2,0,L|65:244,1,112.5,0|0,2:0|2:0,0:0:0:0:
65,244,68486,5,0,0:0:0:0:
65,244,68779,1,0,0:0:0:0:
65,244,69072,1,0,0:0:0:0:
168,96,69364,5,4,0:0:0:0:
247,49,69511,1,0,0:0:0:0:
389,88,69657,1,0,0:0:0:0:
261,162,69803,1,0,0:0:0:0:
168,288,69950,1,0,0:0:0:0:
296,362,70096,1,0,0:0:0:0:
389,296,70242,1,0,0:0:0:0:
310,249,70389,1,0,0:0:0:0:
168,192,70535,5,0,0:0:0:0:
18,216,70681,2,0,P|44:244|92:236,2,90
4,128,71120,1,0,0:0:0:0:
80,80,71267,1,0,0:0:0:0:
155,31,71413,1,0,0:0:0:0:
388,67,71559,6,0,P|402:158|313:192,1,180,4|0,0:0|0:0,0:0:0:0:
252,164,71998,1,0,0:0:0:0:
252,72,72145,1,0,0:0:0:0:
480,56,72291,1,0,0:0:0:0:
504,144,72437,1,0,0:0:0:0:
500,148,72486,1,0,0:0:0:0:
496,152,72535,1,0,0:0:0:0:
492,156,72584,1,0,0:0:0:0:
428,216,72730,1,0,0:0:0:0:
335,302,72876,6,0,P|364:322|412:304,2,90
252,164,73315,1,0,0:0:0:0:
252,164,73608,1,0,0:0:0:0:
172,108,73755,1,0,0:0:0:0:
80,144,73901,1,0,0:0:0:0:
4,351,74047,5,4,0:0:0:0:
121,212,74194,1,0,0:0:0:0:
106,368,74340,1,0,0:0:0:0:
190,268,74486,1,0,0:0:0:0:
261,323,74633,1,0,0:0:0:0:
340,356,74779,2,0,P|384:348|416:304,2,90
330,264,75218,1,0,0:0:0:0:
376,172,75364,5,0,0:0:0:0:
428,64,75511,1,0,0:0:0:0:
324,16,75657,1,0,0:0:0:0:
272,124,75804,1,0,0:0:0:0:
200,28,75950,1,0,0:0:0:0:
180,40,76023,1,0,0:0:0:0:
160,52,76096,1,0,0:0:0:0:
28,144,76242,6,0,B|38:202|38:202|95:229|95:229|109:300,1,180,4|0,0:0|0:0,0:0:0:0:
60,364,76681,1,0,0:0:0:0:
16,284,76828,1,0,0:0:0:0:
106,285,76974,1,0,0:0:0:0:
196,288,77120,2,0,L|296:292,1,90,4|0,0:0|0:0,0:0:0:0:
440,184,77413,6,0,P|448:128|352:140,1,180,4|0,0:0|0:0,0:0:0:0:
360,224,77852,2,0,P|312:220|280:176,1,90
272,100,78145,1,0,0:0:0:0:
424,16,78291,1,4,0:0:0:0:
272,100,78437,1,0,0:0:0:0:
200,44,78584,5,4,0:0:0:0:
200,44,78876,1,0,0:0:0:0:
180,52,78950,1,0,0:0:0:0:
160,60,79023,1,0,0:0:0:0:
56,36,79169,1,0,0:0:0:0:
8,184,79315,1,4,0:0:0:0:
28,192,79389,1,0,0:0:0:0:
48,200,79462,1,0,0:0:0:0:
152,168,79608,1,0,0:0:0:0:
152,168,79755,1,0,0:0:0:0:
216,268,79901,5,4,0:0:0:0:
95,337,80047,2,0,P|88:296|116:260,1,90
216,268,80340,1,4,0:0:0:0:
456,108,80633,1,4,0:0:0:0:
176,36,80925,6,0,B|137:53|137:53|96:140|96:140|108:180,1,180,4|0,0:0|0:0,0:0:0:0:
140,272,81364,1,0,0:0:0:0:
204,196,81511,1,0,0:0:0:0:
20,172,81657,1,0,0:0:0:0:
8,288,81803,1,0,0:0:0:0:
10,293,81852,1,0,0:0:0:0:
11,298,81901,1,0,0:0:0:0:
13,304,81950,1,0,0:0:0:0:
100,364,82096,1,0,0:0:0:0:
200,352,82242,5,0,0:0:0:0:
272,226,82389,2,0,P|300:260|284:300,1,90
176,208,82681,2,0,P|180:165|219:148,1,90
320,156,82974,1,0,0:0:0:0:
340,164,83047,1,0,0:0:0:0:
360,172,83120,1,0,0:0:0:0:
452,140,83267,1,0,0:0:0:0:
264,24,83413,5,4,0:0:0:0:
96,132,83559,1,0,0:0:0:0:
92,32,83706,1,0,0:0:0:0:
180,80,83852,1,0,0:0:0:0:
184,180,83998,1,0,0:0:0:0:
100,232,84145,2,0,B|52:224|52:224|4:180,2,90
264,232,84584,5,0,0:0:0:0:
352,292,84730,1,0,0:0:0:0:
360,272,84803,1,0,0:0:0:0:
368,252,84876,1,0,0:0:0:0:
240,112,85023,1,0,0:0:0:0:
328,172,85169,1,0,0:0:0:0:
336,152,85242,1,0,0:0:0:0:
344,132,85315,1,0,0:0:0:0:
216,0,85462,1,0,0:0:0:0:
452,32,85608,6,0,B|496:124|496:124|464:216,1,180,4|0,0:0|0:0,0:0:0:0:
364,216,86047,2,0,L|397:122,1,90
470,197,86340,1,0,0:0:0:0:
476,288,86486,1,0,0:0:0:0:
388,304,86633,1,0,0:0:0:0:
324,368,86779,1,4,0:0:0:0:
324,368,87072,5,0,0:0:0:0:
236,360,87218,2,0,P|196:340|188:292,1,90
228,220,87511,1,0,0:0:0:0:
204,132,87657,2,0,P|174:101|130:103,1,90
0,244,87950,6,0,L|140:356,1,180,4|0,0:0|0:0,0:0:0:0:
164,356,88315,1,0,0:0:0:0:
188,356,88389,1,0,0:0:0:0:
362,307,88535,2,0,L|292:252,1,90
268,252,88755,1,0,0:0:0:0:
244,252,88828,1,0,0:0:0:0:
80,180,88974,6,0,L|150:124,1,90
174,124,89194,1,0,0:0:0:0:
198,124,89267,1,0,0:0:0:0:
376,124,89413,2,0,L|305:179,1,90
282,180,89633,1,0,0:0:0:0:
258,180,89706,1,0,0:0:0:0:
152,32,89852,5,0,0:0:0:0:
268,32,89998,1,0,0:0:0:0:
292,32,90072,1,0,0:0:0:0:
316,32,90145,1,0,0:0:0:0:
340,32,90218,1,0,0:0:0:0:
364,32,90291,6,0,P|448:96|440:184,1,180,4|0,0:0|0:0,0:0:0:0:
346,196,90730,2,0,P|344:152|376:124,1,90
420,244,91023,1,0,0:0:0:0:
368,368,91169,1,0,0:0:0:0:
272,244,91315,1,0,0:0:0:0:
220,368,91461,1,0,0:0:0:0:
108,292,91608,5,0,0:0:0:0:
12,224,91755,1,0,0:0:0:0:
108,156,91901,1,0,0:0:0:0:
12,88,92048,1,0,0:0:0:0:
108,20,92194,1,0,0:0:0:0:
204,88,92340,1,0,0:0:0:0:
220,100,92413,1,0,0:0:0:0:
236,112,92486,1,0,0:0:0:0:
272,244,92633,5,0,0:0:0:0:
156,312,92779,2,0,L|188:220,1,90,4|0,0:0|0:0,0:0:0:0:
304,160,93072,2,0,L|424:136,1,90
504,64,93364,2,0,L|416:24,1,90
308,24,93657,5,0,0:0:0:0:
199,45,93803,1,0,0:0:0:0:
120,120,93950,1,0,0:0:0:0:
224,152,94096,1,0,0:0:0:0:
199,45,94242,1,0,0:0:0:0:
15,79,94389,2,0,B|31:167|31:167|96:232,1,180,0|0,0:0|0:0,0:0:0:0:
113,245,94755,1,0,0:0:0:0:
130,258,94828,1,0,0:0:0:0:
328,192,94974,6,0,P|324:284|232:296,1,180,4|0,0:0|0:0,0:0:0:0:
208,224,95413,1,0,0:0:0:0:
208,224,95559,1,0,0:0:0:0:
248,144,95706,2,0,B|266:106|266:106|228:60,1,90,0|4,0:0|0:0,0:0:0:0:
144,72,95998,2,0,L|40:80,1,90,0|4,0:0|0:0,0:0:0:0:
54,78,96437,5,4,0:0:0:0:
40,96,96511,1,0,0:0:0:0:
28,112,96584,2,0,B|12:136|12:136|20:204,1,90,0|4,0:0|0:0,0:0:0:0:
36,284,96876,1,0,0:0:0:0:
36,284,97023,1,4,0:0:0:0:
216,352,97169,1,0,0:0:0:0:
396,284,97315,6,0,P|408:220|316:240,1,180,4|0,0:0|0:0,0:0:0:0:
319,225,97681,1,0,0:0:0:0:
319,225,97755,1,0,0:0:0:0:
224,200,97901,1,0,0:0:0:0:
44,152,98047,5,4,0:0:0:0:
44,152,98120,1,0,0:0:0:0:
44,152,98194,1,0,0:0:0:0:
140,126,98340,1,0,0:0:0:0:
304,76,98486,5,0,0:0:0:0:
304,76,98559,1,0,0:0:0:0:
304,76,98633,1,4,0:0:0:0:
208,50,98779,1,0,0:0:0:0:
140,126,98925,5,0,0:0:0:0:
140,224,99072,2,0,P|180:296|284:244,1,180,4|0,0:0|0:0,0:0:0:0:
300,200,99511,2,0,P|256:188|216:224,2,90,0|4|0,0:0|0:0|0:0,0:0:0:0:
348,276,99950,5,0,0:0:0:0:
428,316,100096,1,0,0:0:0:0:
500,264,100242,1,0,0:0:0:0:
480,84,100389,1,0,0:0:0:0:
396,56,100535,1,0,0:0:0:0:
376,68,100608,1,0,0:0:0:0:
356,80,100681,1,0,0:0:0:0:
260,48,100828,1,0,0:0:0:0:
164,20,100974,6,0,L|72:72,1,90
84,164,101267,2,0,L|162:119,1,90
261,117,101559,5,0,0:0:0:0:
301,137,101633,1,0,0:0:0:0:
325,174,101706,1,0,0:0:0:0:
329,218,101779,1,0,0:0:0:0:
302,254,101852,1,0,0:0:0:0:
264,278,101925,1,0,0:0:0:0:
219,275,101998,5,0,0:0:0:0:
136,240,102145,2,0,L|64:136,1,90,4|0,0:0|0:0,0:0:0:0:
172,140,102437,2,0,L|264:116,1,90,0|0,0:0|0:0,0:0:0:0:
344,92,102730,1,0,0:0:0:0:
424,132,102876,1,0,0:0:0:0:
344,92,103023,1,0,0:0:0:0:
224,40,103169,6,0,L|108:36,1,90
360,184,103462,2,0,L|244:180,1,90,0|0,0:0|0:0,0:0:0:0:
496,332,103755,2,0,L|380:328,1,90,0|0,0:0|0:0,0:0:0:0:
228,320,104047,1,0,0:0:0:0:
64,240,104194,1,0,0:0:0:0:
212,140,104340,6,0,B|251:153|291:153|291:121|339:121|387:137,1,180,4|0,0:0|0:0,0:0:0:0:
464,224,104779,2,0,P|436:260|376:240,1,90
324,204,105072,1,0,0:0:0:0:
296,120,105218,1,0,0:0:0:0:
348,48,105364,1,0,0:0:0:0:
436,40,105511,1,0,0:0:0:0:
504,100,105657,1,0,0:0:0:0:
464,224,105803,6,0,L|444:272,2,45
400,136,106096,1,0,0:0:0:0:
332,304,106242,2,0,L|312:352,2,45
268,216,106535,1,0,0:0:0:0:
268,216,106681,1,0,0:0:0:0:
344,116,106828,1,0,0:0:0:0:
344,116,106901,1,0,0:0:0:0:
344,116,106974,6,0,L|296:116,2,45
260,20,107267,1,0,0:0:0:0:
96,56,107413,2,0,L|144:56,2,45
180,152,107706,1,0,0:0:0:0:
180,152,107779,1,0,0:0:0:0:
180,152,107852,1,0,0:0:0:0:
56,152,107998,1,0,0:0:0:0:
56,152,108072,1,0,0:0:0:0:
56,152,108145,6,0,L|12:188,2,45
128,252,108437,1,0,0:0:0:0:
60,360,108584,2,0,L|16:324,2,45
184,360,108876,1,0,0:0:0:0:
184,360,108950,1,0,0:0:0:0:
184,360,109023,6,0,B|236:332|268:380|336:356,1,135.000005149842,0|0,0:0|0:0,0:0:0:0:
396,320,109462,2,0,P|416:264|352:252,1,135.000005149842
272,272,109901,1,0,0:0:0:0:
264,260,109974,1,0,0:0:0:0:
256,248,110047,6,0,B|244:232|244:212|272:204|272:180|240:164,1,90,4|0,0:0|0:0,0:0:0:0:
246,167,110486,5,0,0:0:0:0:
184,128,110633,1,0,0:0:0:0:
176,56,110779,1,0,0:0:0:0:
176,56,110925,1,0,0:0:0:0:
244,20,111072,1,0,0:0:0:0:
316,32,111218,2,0,P|344:48|348:80,1,67.5000025749208
332,152,111511,6,0,P|352:184|392:188,1,67.5000025749208
448,164,111803,1,0,0:0:0:0:
496,220,111950,2,0,P|504:260|468:296,1,67.5000025749208
424,308,112242,1,0,0:0:0:0:
352,284,112389,2,0,P|312:280|288:296,1,67.5000025749208
232,340,112681,6,0,L|172:384,2,67.5000025749208
176,292,113120,2,0,L|88:312,2,67.5000025749208
196,220,113559,1,0,0:0:0:0:
124,200,113706,1,0,0:0:0:0:
52,176,113852,5,0,0:0:0:0:
104,124,113998,2,0,L|144:84,2,33.7500012874604
32,104,114291,1,0,0:0:0:0:
84,52,114437,2,0,L|124:12,2,33.7500012874604
104,124,114730,1,0,0:0:0:0:
180,124,114876,1,0,0:0:0:0:
244,164,115023,6,0,P|260:196|248:240,2,67.5000025749208
184,208,115462,2,0,P|172:240|176:284,2,67.5000025749208
256,226,115901,1,0,0:0:0:0:
236,296,116047,1,0,0:0:0:0:
288,348,116194,5,0,0:0:0:0:
360,340,116340,2,0,P|392:324|428:288,1,67.5000025749208
420,228,116633,1,0,0:0:0:0:
364,176,116779,2,0,P|340:144|324:96,1,67.5000025749208
376,60,117072,2,0,P|336:44|296:52,1,67.5000025749208
260,100,117364,5,0,0:0:0:0:
260,100,117511,1,0,0:0:0:0:
268,172,117657,1,0,0:0:0:0:
268,172,117803,1,0,0:0:0:0:
212,220,117950,2,0,P|140:204|136:136,1,135.000005149842
176,92,118389,1,0,0:0:0:0:
112,52,118535,6,0,P|80:40|40:44,1,67.5000025749208
68,112,118828,2,0,P|36:124|24:168,1,67.5000025749208
56,220,119120,1,0,0:0:0:0:
52,296,119267,2,0,L|12:320,2,33.7500012874604
124,320,119559,1,0,0:0:0:0:
200,324,119706,5,0,0:0:0:0:
272,208,120145,1,0,0:0:0:0:
336,328,120584,1,0,0:0:0:0:
268,280,120877,5,0,0:0:0:0:
340,164,121316,1,0,0:0:0:0:
404,284,121755,1,0,0:0:0:0:
336,236,122047,5,0,0:0:0:0:
408,120,122486,1,0,0:0:0:0:
472,240,122925,1,0,0:0:0:0:
404,192,123218,5,0,0:0:0:0:
404,192,123657,1,0,0:0:0:0:
404,192,124096,1,0,0:0:0:0:
256,192,124389,12,0,127901,0:0:0:0:
