osu file format v12

[General]
AudioFilename: Lucky Vacuum.mp3
AudioLeadIn: 0
PreviewTime: 40096
Countdown: 0
SampleSet: Soft
StackLeniency: 0.3
Mode: 0
LetterboxInBreaks: 1

[Editor]
Bookmarks: 20040,69357,115023
DistanceSpacing: 0.8
BeatDivisor: 2
GridSize: 4

[Metadata]
Title:Daily Lunch Special
TitleUnicode:Daily Lunch Special
Artist:Lucky Vacuum
ArtistUnicode:Lucky Vacuum
Creator:SnowWhite
Version:Basic
Source:REFLEC BEAT
Tags:colette jubeat saucer csy the corrupt [Kirisame-Marisa] etc
BeatmapID:236369
BeatmapSetID:67905

[Difficulty]
HPDrainRate:3
CircleSize:3
OverallDifficulty:4
ApproachRate:6
SliderMultiplier:1
SliderTickRate:1

[Events]
//Background and Video events
0,0,"BG.jpg",0,0
//Break Periods
2,40296,47241
//Storyboard Layer 0 (Background)
//Storyboard Layer 1 (Fail)
//Storyboard Layer 2 (Pass)
//Storyboard Layer 3 (Foreground)
//Storyboard Sound Samples
//Background Colour Transformations
3,100,163,162,255

[TimingPoints]
1316,292.682926829268,4,1,0,70,1,0
48291,-133.333333333333,4,2,0,70,0,0
58828,-100,4,2,0,70,0,0
61023,-100,4,1,0,40,0,0
62194,-100,4,1,0,45,0,0
63511,-100,4,1,0,50,0,0
64681,-100,4,1,0,55,0,0
65852,-100,4,1,0,60,0,0
66876,-100,4,1,0,65,0,0
69364,-100,4,1,0,70,0,0
110340,-133.333333333333,4,2,0,70,0,0
119998,-133.333333333333,4,2,0,60,0,0
121169,-133.333333333333,4,2,0,50,0,0
122340,-133.333333333333,4,2,0,40,0,0
123511,-133.333333333333,4,2,0,30,0,0
123950,-133.333333333333,4,2,0,20,0,0
124389,-133.333333333333,4,2,0,10,0,0
124828,-100,4,2,0,5,0,0

[Colours]
Combo1 : 255,0,128
Combo2 : 255,255,255
Combo3 : 0,255,255

[HitObjects]
60,100,1316,1,4,0:0:0:0:
60,100,2047,2,0,P|156:124|256:96,2,200
160,224,3803,1,4,0:0:0:0:
252,356,4389,2,0,P|156:332|56:360,2,200
408,320,6145,1,4,0:0:0:0:
444,248,6437,1,0,0:0:0:0:
480,176,6730,2,0,L|480:116,1,50
380,60,7315,5,0,0:0:0:0:
324,116,7608,1,0,0:0:0:0:
272,176,7901,2,0,L|272:228,1,50,0|4,0:0|0:0,0:0:0:0:
176,296,8486,6,0,P|84:284|-32:300,2,200,0|0|4,0:0|0:0|0:0,0:0:0:0:
48,200,10242,1,0,0:0:0:0:
116,156,10535,1,0,0:0:0:0:
180,108,10828,6,0,B|228:136|280:108|280:108|324:84|404:116,2,200,4|0|0,0:0|0:0|0:0,0:0:0:0:
284,228,12584,1,0,0:0:0:0:
240,296,12876,1,0,0:0:0:0:
192,356,13169,2,0,B|144:384|92:356|92:356|48:332|-32:364,2,200,4|0|0,0:0|0:0|0:0,0:0:0:0:
352,368,14925,1,0,0:0:0:0:
352,368,15511,6,0,P|448:296|404:208,1,200,4|0,0:0|0:0,0:0:0:0:
344,100,16681,2,0,P|284:160|340:252,1,200,0|4,0:0|0:0,0:0:0:0:
180,296,17852,1,4,0:0:0:0:
104,276,18145,1,0,0:0:0:0:
28,252,18437,1,0,0:0:0:0:
76,100,19023,6,0,P|176:112|280:96,1,200,4|0,0:0|0:0,0:0:0:0:
428,52,20194,1,4,0:0:0:0:
428,52,20779,1,0,0:0:0:0:
504,192,21364,1,0,0:0:0:0:
504,192,21950,1,0,0:0:0:0:
420,328,22535,1,4,0:0:0:0:
420,328,23120,1,0,0:0:0:0:
260,332,23706,1,0,0:0:0:0:
260,332,24291,1,0,0:0:0:0:
108,280,24876,6,0,P|64:192|132:96,2,200,4|0|0,0:0|0:0|0:0,0:0:0:0:
184,308,26340,1,0,0:0:0:0:
260,332,26633,1,0,0:0:0:0:
336,308,26925,1,0,0:0:0:0:
408,276,27218,6,0,P|452:188|384:92,2,200,4|0|4,0:0|0:0|0:0,0:0:0:0:
268,196,28974,1,4,0:0:0:0:
132,108,29559,2,0,L|96:-4,2,100,4|0|4,0:0|0:0|0:0,0:0:0:0:
148,188,30437,1,0,0:0:0:0:
124,268,30730,2,0,L|88:380,2,100,4|0|4,0:0|0:0|0:0,0:0:0:0:
276,320,31901,6,0,P|368:304|472:324,2,200,4|0|0,0:0|0:0|0:0,0:0:0:0:
180,192,33657,1,0,0:0:0:0:
44,276,34242,1,4,0:0:0:0:
20,200,34535,1,0,0:0:0:0:
44,124,34828,1,0,0:0:0:0:
180,40,35413,6,0,P|232:44|288:40,2,100
44,124,36584,6,0,B|84:180|56:224|56:224|24:264|64:336,1,200,4|0,0:0|0:0,0:0:0:0:
132,304,37462,1,0,0:0:0:0:
204,344,37755,2,0,P|292:304|428:344,2,200
144,196,39511,1,0,0:0:0:0:
200,48,40096,1,4,0:0:0:0:
268,148,48291,6,0,P|340:144|440:152,2,150.000005722046,0|0|4,0:0|0:0|0:0,0:0:0:0:
180,228,50047,2,0,P|196:268|192:308,2,75.0000028610231
268,148,51218,2,0,P|296:124|308:84,2,75.0000028610231
152,120,52389,2,0,P|112:116|60:132,2,75.0000028610231
260,176,53559,1,0,0:0:0:0:
372,132,54145,6,0,B|388:176|376:200|376:200|360:232|380:284,2,150.000005722046
324,96,55608,1,0,0:0:0:0:
276,60,55901,1,0,0:0:0:0:
276,60,56486,2,0,P|216:100|108:88,1,150.000005722046
188,212,57657,2,0,P|248:172|356:184,2,150.000005722046,0|4|4,0:0|0:0|0:0,0:0:0:0:
40,268,59413,5,0,0:0:0:0:
40,268,59998,1,0,0:0:0:0:
188,212,60584,1,0,0:0:0:0:
188,212,61169,1,0,0:0:0:0:
40,152,61755,1,0,0:0:0:0:
40,152,62340,1,0,0:0:0:0:
188,88,62925,1,0,0:0:0:0:
188,88,63511,6,0,B|260:88|260:88|308:120|308:120|424:120,2,200
212,164,64974,1,0,0:0:0:0:
248,236,65267,1,0,0:0:0:0:
248,236,65852,6,0,B|180:240|180:240|128:264|128:264|16:264,2,200
376,332,67608,2,0,L|476:332,2,100
300,312,68486,1,0,0:0:0:0:
216,332,68779,1,0,0:0:0:0:
136,316,69072,1,0,0:0:0:0:
56,332,69364,6,0,P|56:224|40:128,1,200,4|0,0:0|0:0,0:0:0:0:
104,84,70242,1,0,0:0:0:0:
160,24,70535,2,0,P|160:132|176:228,1,200
272,352,71706,6,0,P|272:244|256:148,1,200,4|0,0:0|0:0,0:0:0:0:
320,104,72584,1,0,0:0:0:0:
376,44,72877,2,0,P|376:152|392:248,1,200
248,316,74047,1,4,0:0:0:0:
104,248,74633,2,0,P|52:252|-4:248,2,100
168,196,75511,1,0,0:0:0:0:
228,144,75803,2,0,P|280:140|336:144,2,100,4|0|0,0:0|0:0|0:0,0:0:0:0:
300,284,76974,6,0,B|356:304|428:260|428:260|496:300,2,200,4|4|0,0:0|0:0|0:0,0:0:0:0:
224,312,78437,1,0,0:0:0:0:
148,284,78730,6,0,P|120:244|136:168,2,100,0|0|4,0:0|0:0|0:0,0:0:0:0:
252,164,79901,2,0,P|280:204|264:280,2,100,0|0|4,0:0|0:0|0:0,0:0:0:0:
388,80,81072,6,0,B|388:152|432:200|432:280,2,200,4|0|0,0:0|0:0|0:0,0:0:0:0:
312,52,82535,1,0,0:0:0:0:
236,72,82828,2,0,P|184:72|128:48,1,100
76,100,83413,6,0,P|108:184|56:280,2,200,4|0|0,0:0|0:0|0:0,0:0:0:0:
220,168,85169,1,0,0:0:0:0:
296,192,85462,1,0,0:0:0:0:
372,164,85755,2,0,P|360:252|464:312,2,200,4|0|4,0:0|0:0|0:0,0:0:0:0:
328,96,87218,6,0,L|220:96,1,100
164,144,87803,2,0,L|60:144,1,100,0|4,0:0|0:0,0:0:0:0:
32,216,88389,1,0,0:0:0:0:
60,292,88681,6,0,P|152:284|272:296,1,200
328,248,89559,1,0,0:0:0:0:
364,176,89852,2,0,P|272:184|152:172,2,200,0|4|0,0:0|0:0|0:0,0:0:0:0:
268,48,91608,1,0,0:0:0:0:
164,172,92194,1,0,0:0:0:0:
60,52,92779,6,0,P|72:144|56:256,1,200,4|0,0:0|0:0,0:0:0:0:
112,308,93657,1,0,0:0:0:0:
188,336,93950,2,0,P|236:332|288:340,1,100
364,320,94535,1,0,0:0:0:0:
460,192,95120,6,0,P|444:120|300:128,1,200,4|0,0:0|0:0,0:0:0:0:
252,104,95998,1,0,0:0:0:0:
180,68,96291,2,0,P|188:124|176:168,1,100,4|0,0:0|0:0,0:0:0:0:
120,224,96876,2,0,P|112:280|124:324,2,100
120,224,98047,6,0,P|224:240|348:208,2,200,0|0|4,0:0|0:0|0:0,0:0:0:0:
224,100,99803,6,0,L|328:88,1,100
396,56,100389,1,0,0:0:0:0:
396,56,100681,2,0,P|416:104|416:160,1,100
384,224,101267,2,0,P|336:232|280:268,1,100
236,316,101852,1,0,0:0:0:0:
236,316,102145,6,0,P|148:308|168:192,2,200,4|0|0,0:0|0:0|0:0,0:0:0:0:
388,264,103901,1,0,0:0:0:0:
424,192,104194,1,0,0:0:0:0:
384,124,104486,2,0,P|296:96|188:128,2,200,4|0|0,0:0|0:0|0:0,0:0:0:0:
456,88,105950,5,0,0:0:0:0:
456,88,106242,2,0,L|472:212,1,100
360,304,107120,1,0,0:0:0:0:
360,304,107413,2,0,L|344:180,1,100
196,148,108291,1,0,0:0:0:0:
196,148,108583,2,0,L|212:272,1,100
72,328,109462,1,0,0:0:0:0:
72,328,109755,6,0,B|72:252|72:252|44:208|44:208|44:132,1,200,0|4,0:0|0:0,0:0:0:0:
144,68,110925,1,0,0:0:0:0:
248,128,111511,1,0,0:0:0:0:
352,72,112096,1,0,0:0:0:0:
460,124,112681,6,0,P|488:192|440:276,1,150.000005722046
352,308,113852,1,0,0:0:0:0:
236,344,114437,1,0,0:0:0:0:
124,300,115023,6,0,L|96:124,2,150.000005722046
236,344,116779,2,0,L|312:316,1,75.0000028610231
332,264,117364,2,0,L|508:316,2,150.000005722046
272,160,119120,1,0,0:0:0:0:
176,88,119706,6,0,B|104:96|104:96|24:84,2,150.000005722046
288,40,121462,2,0,L|336:100,1,75.0000028610231
392,120,122047,2,0,B|408:196|408:196|376:284,1,150.000005722046
276,320,123218,1,0,0:0:0:0:
160,288,123803,1,0,0:0:0:0:
48,248,124389,1,0,0:0:0:0:
256,192,124681,12,0,127901,0:0:0:0:
