osu file format v12

[General]
AudioFilename: Lucky Vacuum.mp3
AudioLeadIn: 0
PreviewTime: 40096
Countdown: 0
SampleSet: Normal
StackLeniency: 0.3
Mode: 0
LetterboxInBreaks: 1

[Editor]
Bookmarks: 20040,69357,115023
DistanceSpacing: 1.2
BeatDivisor: 4
GridSize: 4

[Metadata]
Title:Daily Lunch Special
TitleUnicode:Daily Lunch Special
Artist:Lucky Vacuum
ArtistUnicode:Lucky Vacuum
Creator:SnowWhite
Version:Advanced
Source:REFLEC BEAT
Tags:colette jubeat saucer csy the corrupt [Kirisame-Marisa] etc
BeatmapID:232105
BeatmapSetID:67905

[Difficulty]
HPDrainRate:4
CircleSize:4
OverallDifficulty:7
ApproachRate:8
SliderMultiplier:1.4
SliderTickRate:1

[Events]
//Background and Video events
0,0,"BG.jpg",1,1
//Break Periods
2,40296,47541
//Storyboard Layer 0 (Background)
//Storyboard Layer 1 (Fail)
//Storyboard Layer 2 (Pass)
//Storyboard Layer 3 (Foreground)
//Storyboard Sound Samples
//Background Colour Transformations
3,100,163,162,255

[TimingPoints]
1316,292.682926829268,4,1,0,70,1,0
48291,-133.333333333333,4,2,0,70,0,0
58828,-100,4,2,0,70,0,0
61023,-100,4,1,0,40,0,0
62194,-100,4,1,0,45,0,0
63511,-100,4,1,0,50,0,0
64681,-100,4,1,0,55,0,0
65852,-100,4,1,0,60,0,0
66876,-100,4,1,0,65,0,0
69364,-100,4,1,0,70,0,0
110340,-133.333333333333,4,2,0,70,0,0
119998,-133.333333333333,4,2,0,60,0,0
121169,-133.333333333333,4,2,0,50,0,0
122340,-133.333333333333,4,2,0,40,0,0
123511,-133.333333333333,4,2,0,30,0,0
123950,-133.333333333333,4,2,0,20,0,0
124389,-133.333333333333,4,2,0,10,0,0
124828,-100,4,2,0,5,0,0

[Colours]
Combo1 : 255,0,128
Combo2 : 255,255,255
Combo3 : 0,255,255

[HitObjects]
316,76,1316,2,0,P|252:48|176:92,1,140,4|0,0:0|0:0,0:0:0:0:
92,124,1755,2,0,L|8:124,1,70
160,216,2047,2,0,L|212:148,1,70
52,232,2340,2,0,L|44:308,1,70
148,344,2633,6,0,B|200:320|224:352|248:364|312:336,1,140
380,284,3072,1,0,0:0:0:0:
436,188,3218,2,0,L|448:96,2,70,0|4|0,0:0|0:0|0:0,0:0:0:0:
324,128,3657,6,0,P|252:124|216:68,1,140,4|0,0:0|0:0,0:0:0:0:
112,116,4096,2,0,P|108:152|80:184,1,70
64,288,4389,2,0,P|100:280|148:296,1,70
228,344,4681,2,0,P|248:304|244:260,1,70
352,236,4974,6,0,P|420:220|480:180,1,140
416,88,5413,1,0,0:0:0:0:
416,88,5559,2,0,L|424:8,2,70
292,64,5998,6,0,L|144:88,1,140,4|0,0:0|0:0,0:0:0:0:
60,144,6437,1,0,0:0:0:0:
60,144,6584,1,0,0:0:0:0:
160,192,6730,2,0,L|220:152,1,70
176,304,7023,1,0,0:0:0:0:
176,304,7169,1,0,0:0:0:0:
276,328,7315,6,0,P|312:332|352:324,1,70
452,236,7608,2,0,P|416:232|376:240,1,70
324,144,7901,1,0,0:0:0:0:
384,48,8047,1,4,0:0:0:0:
384,48,8340,6,0,P|316:56|228:44,1,140,4|0,0:0|0:0,0:0:0:0:
104,116,8779,2,0,P|139:113|182:118,1,70
300,212,9072,2,0,P|256:216|216:208,1,70
140,260,9364,1,0,0:0:0:0:
44,216,9511,6,0,P|64:284|40:352,1,140,4|0,0:0|0:0,0:0:0:0:
148,340,9950,1,0,0:0:0:0:
148,340,10096,1,0,0:0:0:0:
252,364,10242,1,0,0:0:0:0:
352,332,10389,2,0,L|408:340,2,35
388,232,10681,6,0,P|368:164|396:88,1,140,4|0,0:0|0:0,0:0:0:0:
292,56,11120,2,0,P|264:72|212:76,1,70
120,84,11413,2,0,P|136:124|132:164,1,70
64,228,11706,2,0,P|100:236|140:272,1,70
200,328,11998,6,0,P|248:280|232:208,1,140
172,132,12437,1,0,0:0:0:0:
84,76,12584,2,0,L|-8:88,2,70
172,136,13023,6,0,P|236:108|332:116,1,140,4|0,0:0|0:0,0:0:0:0:
384,176,13462,2,0,P|412:192|476:184,1,70
312,272,13755,2,0,P|320:316|336:344,1,70
192,264,14047,2,0,P|176:304|176:344,1,70
92,264,14340,6,0,P|60:208|72:104,1,140
128,52,14779,1,0,0:0:0:0:
228,28,14925,2,0,L|316:12,2,70
276,120,15364,6,0,B|328:120|348:148|376:172|428:172,1,140,4|0,0:0|0:0,0:0:0:0:
504,136,15803,1,0,0:0:0:0:
504,136,15950,1,0,0:0:0:0:
476,236,16096,2,0,L|496:312,1,70
404,172,16389,1,0,0:0:0:0:
404,172,16535,1,0,0:0:0:0:
312,224,16681,6,0,P|276:228|232:220,1,70
136,132,16974,2,0,P|100:128|56:136,1,70,0|0,0:0|0:0,0:0:0:0:
24,236,17267,1,0,0:0:0:0:
68,340,17413,1,4,0:0:0:0:
68,340,17706,6,0,P|136:320|204:344,1,140,4|0,0:0|0:0,0:0:0:0:
312,324,18145,2,0,L|408:284,1,70
472,160,18437,2,0,L|376:200,1,70
407,186,18657,1,0,0:0:0:0:
407,186,18730,1,0,0:0:0:0:
300,156,18876,6,0,P|328:108|264:56,1,140,4|0,0:0|0:0,0:0:0:0:
164,44,19315,1,0,0:0:0:0:
164,44,19462,1,0,0:0:0:0:
76,112,19608,1,0,0:0:0:0:
76,112,19755,1,0,0:0:0:0:
164,184,19901,1,0,0:0:0:0:
124,288,20047,6,0,P|196:280|284:296,1,140,4|0,0:0|0:0,0:0:0:0:
368,332,20486,2,0,L|452:304,1,70
452,200,20779,2,0,L|524:176,1,70
436,100,21072,2,0,L|356:128,1,70
264,88,21364,1,0,0:0:0:0:
156,124,21511,1,0,0:0:0:0:
156,124,21803,6,0,P|176:188|148:264,1,140
154,255,22169,1,0,0:0:0:0:
154,255,22242,1,0,0:0:0:0:
244,324,22389,6,0,L|416:316,1,140,4|0,0:0|0:0,0:0:0:0:
504,200,22828,2,0,L|428:204,1,70,0|0,0:0|0:0,0:0:0:0:
336,148,23120,1,0,0:0:0:0:
240,88,23267,1,0,0:0:0:0:
240,88,23340,1,0,0:0:0:0:
240,88,23413,2,0,L|164:92,1,70,0|0,0:0|0:0,0:0:0:0:
170,91,23706,1,0,0:0:0:0:
88,168,23852,6,0,P|60:228|100:292,1,140
188,348,24291,2,0,L|204:256,1,70
300,232,24584,1,0,0:0:0:0:
312,240,24657,1,0,0:0:0:0:
324,248,24730,2,0,L|340:156,1,70,0|4,0:0|0:0,0:0:0:0:
404,72,25023,5,0,0:0:0:0:
404,72,25169,2,0,P|448:124|440:208,1,140
336,180,25608,2,0,L|192:204,1,140
156,336,26047,2,0,L|116:268,1,70
20,176,26340,2,0,L|92:184,1,70
220,136,26633,2,0,L|192:224,1,70
198,202,26852,1,0,0:0:0:0:
198,202,26925,1,0,0:0:0:0:
264,296,27072,6,0,P|328:316|400:288,1,140,4|0,0:0|0:0,0:0:0:0:
440,188,27511,2,0,L|512:176,1,70
360,96,27803,2,0,L|460:84,1,70,0|4,0:0|0:0,0:0:0:0:
272,32,28096,1,0,0:0:0:0:
272,32,28242,6,0,L|104:40,1,140,4|0,0:0|0:0,0:0:0:0:
60,124,28681,2,0,P|56:176|68:224,1,70,0|4,0:0|0:0,0:0:0:0:
108,292,28974,1,0,0:0:0:0:
196,364,29120,1,4,0:0:0:0:
308,344,29267,1,0,0:0:0:0:
308,344,29413,6,0,P|328:276|308:200,1,140,4|0,0:0|0:0,0:0:0:0:
220,148,29852,2,0,P|204:116|208:52,1,70
144,240,30145,2,0,P|160:272|156:336,1,70,4|0,0:0|0:0,0:0:0:0:
28,208,30437,1,0,0:0:0:0:
28,208,30583,1,0,0:0:0:0:
28,208,30730,6,0,L|32:120,2,70,4|0|0,0:0|0:0|0:0,0:0:0:0:
88,304,31169,2,0,B|140:272|176:344|232:304,1,140,4|4,0:0|0:0,0:0:0:0:
312,244,31608,1,0,0:0:0:0:
420,276,31755,6,0,P|440:212|420:124,1,140,4|0,0:0|0:0,0:0:0:0:
348,60,32194,2,0,L|256:68,1,70
168,44,32486,2,0,L|92:48,1,70
98,47,32706,1,0,0:0:0:0:
98,47,32779,1,0,0:0:0:0:
32,136,32925,1,0,0:0:0:0:
88,236,33072,6,0,P|92:276|80:328,1,70
180,364,33364,1,0,0:0:0:0:
288,328,33511,2,0,P|360:316|448:344,1,140
480,232,33950,1,0,0:0:0:0:
432,132,34096,1,0,0:0:0:0:
480,232,34242,6,0,L|404:212,1,70,4|0,0:0|0:0,0:0:0:0:
300,220,34535,2,0,P|228:216|136:176,1,140
84,112,34974,1,0,0:0:0:0:
84,112,35267,1,0,0:0:0:0:
16,200,35413,1,0,0:0:0:0:
68,300,35559,2,0,L|52:352,2,35
180,280,35852,1,0,0:0:0:0:
176,168,35998,2,0,L|216:132,2,35
284,196,36291,5,0,0:0:0:0:
284,196,36437,2,0,P|268:280|328:316,1,140,4|0,0:0|0:0,0:0:0:0:
404,364,36876,2,0,P|408:328|400:272,1,70
464,200,37169,2,0,P|460:164|468:108,1,70
392,44,37462,1,0,0:0:0:0:
392,44,37608,1,0,0:0:0:0:
280,68,37755,6,0,L|204:68,1,70
176,76,37974,1,0,0:0:0:0:
140,84,38047,1,0,0:0:0:0:
60,164,38194,1,0,0:0:0:0:
36,272,38340,2,0,L|0:296,2,35
132,328,38633,5,0,0:0:0:0:
132,328,38779,1,0,0:0:0:0:
276,244,39071,5,0,0:0:0:0:
276,244,39218,1,0,0:0:0:0:
132,160,39511,1,0,0:0:0:0:
180,244,39803,5,4,0:0:0:0:
180,244,40096,1,4,0:0:0:0:
88,208,48291,6,0,P|92:176|88:144,1,52.5000020027161,0|0,2:0|2:0,0:0:0:0:
160,260,48584,2,0,P|156:292|160:324,1,52.5000020027161,0|0,2:0|2:0,0:0:0:0:
240,356,48876,2,0,L|304:356,1,52.5000020027161,0|0,2:0|2:0,0:0:0:0:
368,300,49169,2,0,L|440:300,1,52.5000020027161,0|0,2:0|2:0,0:0:0:0:
476,224,49462,6,0,L|496:168,2,52.5000020027161,4|0|0,2:1|0:0|0:0,0:0:0:0:
392,268,49901,2,0,L|320:268,2,52.5000020027161
272,344,50340,6,0,L|212:344,1,52.5000020027161
88,288,50633,2,0,L|164:288,2,52.5000020027161
20,224,51072,2,0,L|0:172,2,52.5000020027161
56,88,51511,6,0,L|84:156,1,52.5000020027161
152,192,51803,2,0,L|160:248,2,52.5000020027161
204,112,52242,2,0,L|196:40,2,52.5000020027161
288,156,52681,1,0,0:0:0:0:
372,116,52828,1,0,0:0:0:0:
456,160,52974,1,0,0:0:0:0:
420,248,53120,6,0,L|420:296,2,26.2500010013581
456,160,53413,1,0,0:0:0:0:
492,72,53559,2,0,L|492:24,2,26.2500010013581
456,160,53852,6,0,P|424:160|384:164,1,52.5000020027161
332,220,54145,2,0,L|304:288,2,52.5000020027161
300,132,54584,2,0,L|328:72,2,52.5000020027161
216,176,55023,6,0,P|188:180|152:172,1,52.5000020027161
64,276,55315,2,0,P|68:312|60:344,2,52.5000020027161
20,192,55755,2,0,P|16:156|24:124,2,52.5000020027161
92,68,56194,6,0,L|104:144,1,52.5000020027161
188,232,56486,2,0,L|200:156,1,52.5000020027161
276,60,56779,2,0,L|300:184,2,105.000004005432
276,60,57511,1,0,0:0:0:0:
424,108,57657,6,0,L|352:120,1,52.5000020027161,0|0,0:0|3:0,0:0:0:0:
316,192,57950,2,0,L|244:204,1,52.5000020027161,0|0,1:0|3:0,0:0:0:0:
192,260,58242,1,4,1:0:0:0:
116,316,58389,1,0,0:0:0:0:
116,316,58462,1,0,0:0:0:0:
116,316,58535,1,4,1:0:0:0:
40,260,58681,1,0,0:0:0:0:
72,152,58828,6,0,L|44:56,1,70,4|0,1:0|0:0,0:0:0:0:
52,84,59047,1,0,0:0:0:0:
52,84,59120,1,0,0:0:0:0:
152,28,59267,1,0,0:0:0:0:
244,88,59413,2,0,B|288:104|312:88|312:88|344:72|392:96,1,140
468,160,59852,1,0,0:0:0:0:
392,240,59998,6,0,L|376:312,1,70
376,308,60218,1,0,0:0:0:0:
376,308,60291,1,0,0:0:0:0:
272,344,60437,1,0,0:0:0:0:
192,268,60584,2,0,B|156:244|120:264|120:264|92:284|32:256,1,140
12,164,61023,1,0,0:0:0:0:
88,80,61169,5,0,0:0:0:0:
88,80,61315,1,0,0:0:0:0:
12,164,61462,1,0,0:0:0:0:
12,164,61608,1,0,0:0:0:0:
88,248,61755,1,0,0:0:0:0:
88,248,61901,1,0,0:0:0:0:
160,164,62047,1,0,0:0:0:0:
160,164,62194,1,0,0:0:0:0:
264,200,62340,5,0,0:0:0:0:
264,200,62486,1,0,0:0:0:0:
376,216,62633,1,0,0:0:0:0:
376,216,62779,1,0,0:0:0:0:
400,108,62925,1,0,0:0:0:0:
400,108,63072,1,0,0:0:0:0:
288,92,63218,1,0,0:0:0:0:
288,92,63364,1,0,0:0:0:0:
264,200,63511,6,0,P|256:244|264:300,1,70,4|0,0:0|0:0,0:0:0:0:
172,340,63803,1,0,0:0:0:0:
172,340,63876,1,0,0:0:0:0:
56,220,64096,6,0,P|64:176|56:120,1,70,4|0,0:0|0:0,0:0:0:0:
20,48,64389,1,0,0:0:0:0:
20,48,64462,1,0,0:0:0:0:
188,68,64681,6,0,P|220:76|284:64,1,70,4|0,0:0|0:0,0:0:0:0:
356,124,64974,1,0,0:0:0:0:
356,124,65047,1,0,0:0:0:0:
404,284,65267,6,0,P|364:280|320:284,1,70,4|0,0:0|0:0,0:0:0:0:
232,324,65559,1,0,0:0:0:0:
232,324,65633,1,0,0:0:0:0:
64,348,65852,6,0,L|44:268,1,70
40,260,66072,1,0,0:0:0:0:
36,240,66145,1,0,0:0:0:0:
100,148,66291,1,0,0:0:0:0:
204,188,66437,1,0,0:0:0:0:
292,120,66584,1,0,0:0:0:0:
392,168,66730,1,0,0:0:0:0:
480,100,66876,1,0,0:0:0:0:
256,192,66950,12,0,68047,2:0:0:0:
256,84,68486,5,0,0:0:0:0:
256,84,68779,1,4,0:0:0:0:
256,84,69072,1,0,0:0:0:0:
256,84,69364,6,0,P|192:96|116:84,1,140,4|0,0:0|0:0,0:0:0:0:
152,192,69803,1,0,0:0:0:0:
112,296,69950,6,0,P|176:284|252:296,1,140
348,352,70389,1,0,0:0:0:0:
452,312,70535,2,0,P|472:276|476:228,1,70
444,140,70828,1,0,0:0:0:0:
444,140,70974,2,0,B|400:140|400:140|364:148|364:148|300:148,1,140
208,92,71413,1,0,0:0:0:0:
136,176,71559,6,0,P|152:244|132:312,1,140,4|0,0:0|0:0,0:0:0:0:
56,228,71998,2,0,P|44:192|52:152,1,70
124,76,72291,2,0,P|156:68|200:76,1,70
192,72,72511,1,0,0:0:0:0:
192,72,72584,1,0,0:0:0:0:
292,124,72730,1,0,0:0:0:0:
388,184,72876,6,0,L|460:136,2,70
316,272,73315,2,0,B|252:292|252:292|176:272,1,140
76,232,73755,1,0,0:0:0:0:
32,128,73901,1,0,0:0:0:0:
120,60,74047,6,0,L|216:60,1,70,4|0,0:0|0:0,0:0:0:0:
360,156,74340,2,0,L|216:156,1,140
136,220,74779,2,0,L|44:220,1,70
100,320,75072,5,0,0:0:0:0:
136,220,75218,1,0,0:0:0:0:
204,300,75364,1,0,0:0:0:0:
100,320,75511,1,0,0:0:0:0:
136,220,75657,1,0,0:0:0:0:
204,300,75803,2,0,P|240:304|280:296,1,70
364,248,76096,1,0,0:0:0:0:
468,224,76242,6,0,P|492:160|476:60,1,140,4|0,0:0|0:0,0:0:0:0:
328,28,76681,2,0,P|316:72|324:116,1,70
204,104,76974,2,0,P|208:144|240:180,1,70,0|4,0:0|0:0,0:0:0:0:
136,240,77267,2,0,P|156:272|200:296,1,70,0|4,0:0|0:0,0:0:0:0:
264,368,77559,6,0,B|228:348|196:368|196:368|165:380|120:356,1,140,0|0,0:0|0:0,0:0:0:0:
36,296,77998,1,0,0:0:0:0:
12,188,78145,2,0,L|-4:152,2,35
120,160,78437,1,0,0:0:0:0:
120,160,78584,6,0,P|176:192|264:168,1,140,4|0,0:0|0:0,0:0:0:0:
336,112,79023,2,0,P|368:128|420:128,1,70
484,208,79315,2,0,P|448:208|400:232,1,70,4|0,0:0|0:0,0:0:0:0:
320,276,79608,2,0,P|352:296|392:300,2,70,0|0|4,0:0|0:0|0:0,0:0:0:0:
212,248,80047,1,0,0:0:0:0:
104,272,80194,2,0,P|52:284|12:276,1,70,0|4,0:0|0:0,0:0:0:0:
4,176,80486,1,0,0:0:0:0:
4,176,80633,1,4,0:0:0:0:
4,176,80779,1,0,0:0:0:0:
4,176,80925,6,0,P|40:120|128:120,1,140,4|0,0:0|0:0,0:0:0:0:
208,168,81364,2,0,P|200:208|220:252,1,70
340,340,81657,2,0,P|348:300|328:256,1,70
339,272,81876,1,0,0:0:0:0:
339,272,81950,1,0,0:0:0:0:
424,196,82096,1,0,0:0:0:0:
424,196,82242,2,0,P|416:156|436:112,1,70
448,20,82535,1,0,0:0:0:0:
448,20,82681,6,0,P|392:56|288:52,1,140
212,28,83120,1,0,0:0:0:0:
104,56,83267,1,0,0:0:0:0:
36,144,83413,6,0,P|44:184|32:224,1,70,4|0,0:0|0:0,0:0:0:0:
80,316,83706,2,0,P|136:276|224:296,1,140
348,196,84145,2,0,P|252:208|216:160,1,140
308,108,84584,2,0,L|340:32,1,70
416,120,84876,2,0,L|492:84,1,70
348,196,85169,2,0,L|416:264,2,70
240,228,85608,6,0,P|172:244|80:212,1,140,4|0,0:0|0:0,0:0:0:0:
4,180,86047,1,0,0:0:0:0:
96,116,86194,1,0,0:0:0:0:
104,228,86340,2,0,P|108:268|100:308,1,70
216,380,86633,2,0,P|212:340|220:300,1,70,0|4,0:0|0:0,0:0:0:0:
216,310,87072,5,0,0:0:0:0:
320,272,87218,1,0,0:0:0:0:
308,160,87364,1,0,0:0:0:0:
200,136,87511,1,0,0:0:0:0:
140,228,87657,1,0,0:0:0:0:
216,312,87803,1,0,0:0:0:0:
320,272,87950,1,4,0:0:0:0:
432,80,88242,5,0,0:0:0:0:
432,80,88315,1,0,0:0:0:0:
432,80,88389,2,0,L|340:92,1,70
300,180,88681,2,0,L|208:192,1,70
140,252,88974,2,0,P|88:192|88:124,1,140
156,48,89413,5,0,0:0:0:0:
224,136,89559,2,0,L|316:148,1,70
396,188,89852,2,0,L|436:148,2,35
344,288,90145,1,0,0:0:0:0:
248,344,90291,1,4,0:0:0:0:
152,284,90437,6,0,P|116:280|64:292,1,70
192,200,90730,2,0,P|228:204|280:192,1,70
168,116,91023,2,0,P|104:100|24:120,2,140
276,80,91755,6,0,P|304:104|360:104,1,70
384,212,92047,2,0,P|360:240|352:276,1,70
244,300,92340,2,0,P|216:276|160:276,1,70,0|0,0:0|0:0,0:0:0:0:
84,320,92633,1,0,0:0:0:0:
68,308,92706,1,0,0:0:0:0:
52,296,92779,6,0,L|32:152,2,140,4|0|0,0:0|0:0|0:0,0:0:0:0:
164,304,93511,2,0,P|171:340|176:376,1,70
256,292,93803,2,0,P|248:255|244:220,1,70
300,124,94096,2,0,P|336:116|372:112,1,70
476,152,94389,1,0,0:0:0:0:
440,256,94535,1,0,0:0:0:0:
440,256,94681,1,0,0:0:0:0:
440,256,94828,1,0,0:0:0:0:
440,256,94974,6,0,P|376:232|304:268,1,140,4|0,0:0|0:0,0:0:0:0:
212,308,95413,2,0,L|124:324,1,70
56,252,95706,2,0,L|144:236,2,70
72,140,96145,1,4,0:0:0:0:
72,140,96437,5,0,0:0:0:0:
164,72,96584,1,0,0:0:0:0:
256,136,96730,1,0,0:0:0:0:
232,244,96876,1,4,0:0:0:0:
336,288,97023,1,4,0:0:0:0:
440,244,97169,1,0,0:0:0:0:
484,140,97315,6,0,P|476:208|520:272,1,140,4|0,0:0|0:0,0:0:0:0:
432,348,97755,2,0,P|396:344|360:348,1,70
272,284,98047,2,0,P|236:288|200:284,1,70
108,344,98340,2,0,P|72:340|36:344,2,70
204,284,98779,1,0,0:0:0:0:
108,228,98925,1,0,0:0:0:0:
204,172,99072,6,0,B|252:172|252:172|296:156|296:156|364:156,1,140,4|0,0:0|0:0,0:0:0:0:
432,92,99511,1,0,0:0:0:0:
432,92,99657,1,0,0:0:0:0:
340,156,99803,6,0,L|260:156,1,70
184,228,100096,2,0,L|92:228,1,70
28,156,100389,1,0,0:0:0:0:
96,68,100535,1,0,0:0:0:0:
96,68,100608,1,0,0:0:0:0:
96,68,100681,1,0,0:0:0:0:
208,72,100828,1,0,0:0:0:0:
280,156,100974,6,0,P|316:164|352:156,1,70
424,240,101267,2,0,P|388:232|352:240,1,70,0|0,0:0|0:0,0:0:0:0:
272,312,101559,2,0,L|232:332,3,35
184,332,101852,2,0,L|144:348,3,35
96,332,102145,6,0,P|80:264|116:176,2,140,4|0|0,0:0|0:0|0:0,0:0:0:0:
200,292,102876,1,0,0:0:0:0:
304,332,103023,1,0,0:0:0:0:
408,296,103169,2,0,P|444:300|492:292,1,70
392,204,103462,2,0,P|356:200|308:208,1,70
248,120,103755,1,0,0:0:0:0:
140,92,103901,5,0,0:0:0:0:
80,188,104047,1,0,0:0:0:0:
132,288,104194,1,0,0:0:0:0:
236,324,104340,2,0,B|288:324|288:324|336:312|336:312|400:312,1,140,4|0,0:0|0:0,0:0:0:0:
460,240,104779,2,0,L|368:224,1,70
300,160,105072,1,0,0:0:0:0:
300,160,105218,1,0,0:0:0:0:
300,160,105364,1,0,0:0:0:0:
300,160,105511,1,0,0:0:0:0:
200,112,105657,6,0,L|120:112,1,70
284,48,105950,1,0,0:0:0:0:
372,120,106096,1,0,0:0:0:0:
372,120,106169,1,0,0:0:0:0:
372,120,106242,2,0,L|468:120,2,70
312,216,106681,2,0,P|308:256|312:288,1,70
320,304,106901,1,0,0:0:0:0:
332,320,106974,6,0,L|432:320,1,70
240,276,107267,1,0,0:0:0:0:
136,320,107413,1,0,0:0:0:0:
136,320,107486,1,0,0:0:0:0:
136,320,107559,2,0,L|60:320,1,70
12,220,107852,2,0,P|16:180|12:148,1,70
8,128,108072,1,0,0:0:0:0:
4,108,108145,6,0,L|80:108,1,70
172,160,108437,1,0,0:0:0:0:
192,152,108511,1,0,0:0:0:0:
212,160,108584,2,0,L|304:160,1,70
376,220,108876,1,0,0:0:0:0:
376,220,109023,6,0,B|400:176|400:176|400:128|400:128|424:92,1,140
480,188,109462,2,0,B|456:232|456:232|456:280|456:280|432:316,1,140
324,340,109901,1,0,0:0:0:0:
324,340,110047,1,4,0:0:0:0:
104,296,110340,6,0,L|120:240,1,52.5000020027161
188,196,110633,2,0,P|240:188|312:204,1,105.000004005432
364,236,111072,2,0,P|416:244|488:228,1,105.000004005432
432,160,111511,6,0,L|444:104,1,52.5000020027161
376,56,111803,2,0,P|328:64|264:52,1,105.000004005432
224,124,112242,2,0,P|176:116|112:128,1,105.000004005432
92,204,112681,2,0,P|100:236|96:276,1,52.5000020027161
60,332,112974,6,0,P|112:336|180:372,1,105.000004005432
244,372,113413,2,0,P|296:368|364:332,1,105.000004005432
392,276,113852,5,0,0:0:0:0:
392,276,113998,2,0,L|388:168,1,105.000004005432
284,196,114437,2,0,L|280:88,1,105.000004005432
204,52,114876,1,0,0:0:0:0:
132,96,115023,6,0,P|100:108|80:108,1,52.5000020027161
20,164,115315,2,0,P|36:212|28:280,1,105.000004005432
84,332,115755,2,0,P|136:328|204:352,1,105.000004005432
232,272,116194,1,0,0:0:0:0:
304,316,116340,1,0,0:0:0:0:
376,276,116486,6,0,P|428:280|496:256,1,105.000004005432
512,156,116925,2,0,P|460:152|392:176,1,105.000004005432
336,128,117364,2,0,P|308:136|264:136,1,52.5000020027161
208,100,117657,6,0,L|180:204,1,105.000004005432
100,228,118096,2,0,L|72:332,1,105.000004005432,0|0,0:0|0:0,0:0:0:0:
148,364,118535,2,0,L|208:364,1,52.5000020027161
272,320,118828,6,0,P|320:304|392:316,1,105.000004005432
436,252,119267,1,0,0:0:0:0:
384,184,119413,2,0,P|336:200|264:188,1,105.000004005432
180,60,119998,5,0,0:0:0:0:
180,60,120145,1,0,0:0:0:0:
296,104,120437,1,0,0:0:0:0:
296,104,120584,1,0,0:0:0:0:
180,60,120876,5,0,0:0:0:0:
208,184,121169,1,0,0:0:0:0:
208,184,121315,1,0,0:0:0:0:
240,308,121608,1,0,0:0:0:0:
240,308,121755,1,0,0:0:0:0:
336,228,122047,5,0,0:0:0:0:
448,288,122340,1,0,0:0:0:0:
448,288,122486,1,0,0:0:0:0:
444,160,122779,1,0,0:0:0:0:
444,160,122925,1,0,0:0:0:0:
336,228,123218,5,0,0:0:0:0:
296,108,123511,1,0,0:0:0:0:
296,108,123657,1,0,0:0:0:0:
336,228,123950,1,0,0:0:0:0:
336,228,124096,1,0,0:0:0:0:
256,192,124389,12,0,127901,0:0:0:0:
