osu file format v12

[General]
AudioFilename: Beatmania IIDX 16 - Colorful Cookie.mp3
AudioLeadIn: 1500
PreviewTime: 79162
Countdown: 0
SampleSet: Soft
StackLeniency: 0.7
Mode: 0
LetterboxInBreaks: 1
WidescreenStoryboard: 1

[Editor]
Bookmarks: 29579,72496,73162,93329
DistanceSpacing: 1.5
BeatDivisor: 4
GridSize: 8
TimelineZoom: 1.8

[Metadata]
Title:Colorful Cookie
TitleUnicode:Colorful Cookie
Artist:Lucky Vacuum
ArtistUnicode:Lucky Vacuum
Creator:StarForYou
Version:Standard
Source:Beatmania IIDX 16: Empress
Tags:DJ Yoshitaka Nishimura 西村宜隆 beatmania IIDX16 EMPRESS -N_a_n_a_k_o- tellertheworld Zillah
BeatmapID:399649
BeatmapSetID:163351

[Difficulty]
HPDrainRate:3
CircleSize:3
OverallDifficulty:3
ApproachRate:5
SliderMultiplier:1.16
SliderTickRate:1

[Events]
//Background and Video events
0,0,"10014911_688474504528229_1433241753_n.jpg",0,0
//Break Periods
2,55362,64629
2,76696,77962
//Storyboard Layer 0 (Background)
//Storyboard Layer 1 (Fail)
//Storyboard Layer 2 (Pass)
//Storyboard Layer 3 (Foreground)
//Storyboard Sound Samples
//Background Colour Transformations
3,100,163,162,255

[TimingPoints]
-837,333.333333333333,4,2,2,60,1,0
496,-133.333333333333,4,2,2,60,0,0
11162,-100,4,1,1,60,0,0
23162,-100,4,1,2,60,0,0
31162,-100,4,2,2,60,0,0
32496,-100,4,1,1,60,0,0
33829,-100,4,1,1,60,0,0
44496,-100,4,1,1,60,0,1
55162,-100,4,1,1,60,0,0
65829,-100,4,2,1,50,0,0
71162,-100,4,1,1,50,0,0
76496,-100,4,2,1,50,0,0
79162,-100,4,1,1,60,0,1
97829,-100,4,1,1,60,0,1
100496,-133.333333333333,4,1,1,50,0,0

[Colours]
Combo1 : 0,255,64
Combo2 : 0,255,255
Combo3 : 255,128,255

[HitObjects]
48,144,496,6,0,P|112:112|216:144,1,174.000006637573
240,264,1496,1,0,0:0:0:0:
296,296,1662,2,0,P|328:248|328:160,1,130.50000497818
264,64,2496,1,0,0:0:0:0:
144,112,2829,1,0,0:0:0:0:
184,240,3162,5,0,0:0:0:0:
440,272,3829,2,0,P|408:312|368:328,1,87.0000033187867
312,320,4329,2,0,P|296:280|320:192,1,130.50000497818
288,72,5162,2,0,P|256:120|216:120,1,87.0000033187867
104,80,5829,6,0,P|88:136|112:184,1,87.0000033187867
104,296,6496,2,0,P|176:312|208:296,1,87.0000033187867
312,296,7162,6,0,P|360:272|384:232,1,87.0000033187867
344,120,7829,2,0,P|296:144|272:184,1,87.0000033187867,0|0,0:0|0:0,0:0:0:0:
160,232,8496,5,0,0:0:0:0:
112,352,8829,1,0,0:0:0:0:
240,344,9162,2,0,P|276:281|262:220,2,130.50000497818
152,248,10496,2,0,L|152:152,1,87.0000033187867
256,88,11162,5,12,0:0:0:0:
448,256,11829,2,0,P|416:280|280:280,2,174,0|0|0,0:0|0:0|0:0,0:0:0:0:
408,136,13162,2,0,P|360:72|352:24,1,116,0|0,0:0|0:0,0:0:0:0:
224,16,13829,5,12,0:0:0:0:
240,272,14496,2,0,P|312:272|368:184,2,174,0|0|0,0:0|0:0|0:0,0:0:0:0:
128,216,15829,2,0,L|128:96,1,116,0|0,0:0|0:0,0:0:0:0:
224,16,16496,5,12,0:0:0:0:
312,104,16829,2,0,L|440:104,1,116
480,216,17496,1,0,0:0:0:0:
384,304,17829,6,0,P|312:336|192:232,2,232,8|0|12,0:0|0:0|0:0,0:0:0:0:
448,192,19496,2,0,P|440:120|432:64,1,116,0|0,0:0|0:0,0:0:0:0:
304,64,20162,1,0,0:0:0:0:
280,120,20329,2,0,P|200:136|104:80,1,174,8|0,0:0|0:0,0:0:0:0:
56,208,21162,1,0,0:0:0:0:
104,328,21496,2,0,P|176:328|216:296,1,116,0|12,0:0|0:0,0:0:0:0:
168,136,23162,6,0,P|256:80|360:136,1,232,8|0,0:0|0:0,0:0:0:0:
264,224,24162,1,0,0:0:0:0:
200,336,24496,2,0,B|312:384|360:280|360:280|448:280,1,232,8|0,0:0|0:0,0:0:0:0:
488,40,25829,5,8,0:0:0:0:
392,120,26162,1,0,0:0:0:0:
264,144,26496,2,0,P|224:104|200:16,1,116
72,40,27162,5,8,0:0:0:0:
88,296,27829,1,0,0:0:0:0:
344,304,28496,6,0,P|408:272|432:224,1,116,8|0,0:0|0:0,0:0:0:0:
304,192,29162,1,0,0:0:0:0:
304,192,29496,1,0,0:0:0:0:
184,224,29829,6,0,P|224:280|304:288,1,116,8|0,0:0|0:0,0:0:0:0:
392,280,30496,1,0,0:0:0:0:
448,168,30829,1,0,0:0:0:0:
256,192,31162,12,0,32496,0:0:0:0:
112,120,33829,6,0,B|192:88|256:192|256:192|336:128,1,232,12|0,0:0|0:0,0:0:0:0:
408,88,34829,1,0,0:0:0:0:
456,128,34996,2,0,L|400:296,1,174,8|0,0:0|0:0,0:0:0:0:
272,320,35829,1,0,0:0:0:0:
112,120,36496,6,0,P|168:72|224:56,2,116,12|0|0,0:0|0:0|0:0,0:0:0:0:
96,248,37496,1,0,0:0:0:0:
128,304,37662,2,0,P|216:280|280:216,1,174,8|0,0:0|0:0,0:0:0:0:
184,136,38496,1,0,0:0:0:0:
272,48,38829,1,0,0:0:0:0:
344,152,39162,6,0,P|408:144|464:32,2,174,12|0|0,0:0|0:0|0:0,0:0:0:0:
240,224,40496,2,0,P|184:192|72:232,2,174,8|0|0,0:0|0:0|0:0,0:0:0:0:
344,296,41829,5,12,0:0:0:0:
496,160,42496,1,0,0:0:0:0:
400,80,42829,1,0,0:0:0:0:
288,136,43162,2,0,P|328:192|392:192,1,116,8|0,0:0|0:0,0:0:0:0:
456,288,43829,1,0,0:0:0:0:
248,320,44496,6,0,P|168:288|136:224,1,116,12|0,0:0|0:0,0:0:0:0:
184,144,45162,1,0,0:0:0:0:
224,96,45329,2,0,L|304:72,1,72.5
384,144,45829,1,8,0:0:0:0:
440,168,45996,2,0,L|456:264,1,72.5
368,320,46496,1,0,0:0:0:0:
240,296,46829,1,0,0:0:0:0:
176,184,47162,6,0,P|232:112|352:96,2,174,12|0|0,0:0|0:0|0:0,0:0:0:0:
224,304,48496,2,0,P|168:328|64:256,2,174,8|0|0,0:0|0:0|0:0,0:0:0:0:
328,224,49829,5,12,0:0:0:0:
448,200,50162,2,0,P|408:136|320:120,2,116
424,328,51162,2,0,P|344:344|280:312,1,116,8|0,0:0|0:0,0:0:0:0:
184,328,51829,2,0,P|144:224|160:184,1,116
200,112,52496,6,0,B|246:58|304:128|304:128|336:128|336:128|390:58|392:56,2,232,12|0|8,0:0|0:0|0:0,0:0:0:0:
96,184,54162,1,0,0:0:0:0:
104,312,54496,2,0,B|160:352|208:320|208:320|208:232|208:232|280:232,1,232,0|12,0:0|0:0,0:0:0:0:
128,136,65829,6,0,P|184:112|248:120,1,116,2|0,0:0|0:0,0:0:0:0:
312,224,66496,1,2,0:0:0:0:
88,344,67162,2,0,P|40:304|40:248,1,116,2|0,0:0|0:0,0:0:0:0:
88,136,67829,1,2,0:0:0:0:
336,80,68496,6,0,L|256:168,2,116,2|0|2,0:0|0:0|0:0,0:0:0:0:
448,144,69496,1,0,0:0:0:0:
392,256,69829,2,0,P|456:272|520:248,2,116,2|0|2,0:0|0:0|0:0,0:0:0:0:
272,304,70829,1,0,0:0:0:0:
200,200,71162,6,0,B|216:136|240:104|304:96|304:96|376:136,2,232,12|8|12,0:0|0:0|0:0,0:0:0:0:
136,312,72829,1,0,0:0:0:0:
72,200,73162,1,8,0:0:0:0:
160,104,73496,1,0,0:0:0:0:
288,96,73829,6,0,L|400:40,1,116,12|0,0:0|0:0,0:0:0:0:
448,160,74496,2,0,L|504:272,1,116,8|0,0:0|0:0,0:0:0:0:
376,304,75162,2,0,L|264:360,1,116,12|0,0:0|0:0,0:0:0:0:
168,288,75829,2,0,L|112:176,1,116,8|0,0:0|0:0,0:0:0:0:
200,88,76496,5,10,0:0:0:0:
112,104,79162,5,12,0:0:0:0:
152,224,79496,2,0,P|224:256|272:240,2,116
224,120,80496,5,8,0:0:0:0:
344,72,80829,1,0,0:0:0:0:
424,168,81162,1,0,0:0:0:0:
384,288,81496,2,0,P|344:344|288:352,1,116,0|12,0:0|0:0,0:0:0:0:
272,232,82162,5,0,0:0:0:0:
296,104,82496,2,0,P|216:112|176:144,2,116,0|0|8,0:0|0:0|0:0,0:0:0:0:
416,152,83496,2,0,P|416:208|384:256,1,116
296,352,84162,1,0,0:0:0:0:
168,328,84496,5,12,0:0:0:0:
120,208,84829,1,0,0:0:0:0:
192,104,85162,2,0,P|272:64|320:72,1,116
376,168,85829,2,0,L|432:128,2,58,8|0|0,0:0|0:0|0:0,0:0:0:0:
328,280,86496,2,0,P|264:320|208:320,2,116,0|0|12,0:0|0:0|0:0,0:0:0:0:
232,192,87496,5,0,0:0:0:0:
128,112,87829,1,0,0:0:0:0:
72,224,88162,1,0,0:0:0:0:
112,272,88329,2,0,P|176:320|288:296,1,174,8|0,0:0|0:0,0:0:0:0:
344,216,89162,1,0,0:0:0:0:
272,112,89496,1,0,0:0:0:0:
160,168,89829,5,12,0:0:0:0:
224,280,90162,1,0,0:0:0:0:
344,320,90496,2,0,B|400:320|400:320|424:240,2,116,8|0|8,0:0|0:0|0:0,0:0:0:0:
224,352,91496,1,0,0:0:0:0:
128,264,91829,2,0,P|96:192|112:136,1,116
216,96,92496,6,0,P|288:120|344:96,1,116,12|0,0:0|0:0,0:0:0:0:
408,16,93162,1,0,0:0:0:0:
496,112,93496,1,0,0:0:0:0:
448,232,93829,2,8,B|400:344|295:286|295:286|261:325,2,232,8|0|12,0:0|0:0|0:0,0:0:0:0:
352,152,95496,5,0,0:0:0:0:
232,120,95829,1,0,0:0:0:0:
168,232,96162,2,0,P|136:304|104:312,2,116,0|8|0,0:0|0:0|0:0,0:0:0:0:
272,152,97162,2,0,P|208:120|152:112,1,116
64,32,97829,5,12,0:0:0:0:
40,160,98162,1,0,0:0:0:0:
152,240,98496,1,4,0:0:0:0:
272,192,98829,1,0,0:0:0:0:
360,288,99162,6,0,P|400:216|384:128,2,174,12|0|8,0:0|0:0|0:0,0:0:0:0:
232,280,100496,1,12,0:0:0:0:
