osu file format v12

[General]
AudioFilename: Beatmania IIDX 16 - Colorful Cookie.mp3
AudioLeadIn: 1500
PreviewTime: 79162
Countdown: 0
SampleSet: Soft
StackLeniency: 0.7
Mode: 0
LetterboxInBreaks: 1
WidescreenStoryboard: 1

[Editor]
Bookmarks: 29579,72496,73162,93329
DistanceSpacing: 1.1
BeatDivisor: 2
GridSize: 4
TimelineZoom: 1.8

[Metadata]
Title:Colorful Cookie
TitleUnicode:Colorful Cookie
Artist:Lucky Vacuum
ArtistUnicode:Lucky Vacuum
Creator:StarForYou
Version:Beginner
Source:Beatmania IIDX 16: Empress
Tags:DJ Yoshitaka Nishimura 西村宜隆 beatmania IIDX16 EMPRESS -N_a_n_a_k_o- tellertheworld Zillah
BeatmapID:401245
BeatmapSetID:163351

[Difficulty]
HPDrainRate:2
CircleSize:3
OverallDifficulty:2
ApproachRate:3
SliderMultiplier:0.86
SliderTickRate:1

[Events]
//Background and Video events
0,0,"10014911_688474504528229_1433241753_n.jpg",0,0
//Break Periods
2,56496,64389
2,76695,77722
//Storyboard Layer 0 (Background)
//Storyboard Layer 1 (Fail)
//Storyboard Layer 2 (Pass)
//Storyboard Layer 3 (Foreground)
//Storyboard Sound Samples
//Background Colour Transformations
3,100,163,162,255

[TimingPoints]
-837,333.333333333333,4,2,2,60,1,0
11162,-100,4,1,1,60,0,0
23162,-100,4,1,2,60,0,0
31162,-100,4,2,2,60,0,0
33829,-100,4,1,1,60,0,0
55162,-100,4,1,1,60,0,0
56496,-100,4,1,1,5,0,0
65829,-100,4,2,1,50,0,0
71162,-100,4,1,1,50,0,0
76496,-100,4,2,1,50,0,0
79162,-100,4,1,1,60,0,1
97829,-100,4,1,1,60,0,1
100496,-100,4,1,1,50,0,0

[Colours]
Combo1 : 0,255,64
Combo2 : 0,255,255
Combo3 : 255,128,255

[HitObjects]
128,112,496,6,0,P|184:88|296:192,2,215,2|0|0,0:0|0:0|0:0,0:0:0:0:
96,200,2496,2,0,P|112:256|216:304,1,172,2|0,0:0|0:0,0:0:0:0:
392,272,3829,6,0,P|424:200|344:96,2,215,2|0|0,0:0|0:0|0:0,0:0:0:0:
304,304,5829,1,2,0:0:0:0:
192,152,6496,1,0,0:0:0:0:
352,56,7162,1,2,0:0:0:0:
464,208,7829,1,0,0:0:0:0:
304,304,8496,6,0,P|256:312|200:200,2,172,2|0|2,0:0|0:0|0:0,0:0:0:0:
432,152,10496,1,2,0:0:0:0:
272,48,11162,6,0,B|144:64|144:64|120:112,1,172,12|0,0:0|0:0,0:0:0:0:
184,176,12162,1,0,0:0:0:0:
224,264,12496,2,0,B|352:248|352:248|376:200,2,172,8|0|12,0:0|0:0|0:0,0:0:0:0:
136,232,14162,1,0,0:0:0:0:
104,144,14496,6,0,B|160:128|200:64|200:64|272:48,2,172,0|8|0,0:0|0:0|0:0,0:0:0:0:
56,224,16162,1,0,0:0:0:0:
96,312,16496,2,0,B|152:304|160:216|160:216|216:192,1,172,12|0,0:0|0:0,0:0:0:0:
288,236,17496,1,0,0:0:0:0:
312,320,17829,2,0,P|372:264|356:172,1,172,8|0,0:0|0:0,0:0:0:0:
300,108,18829,1,0,0:0:0:0:
256,192,19162,12,0,21829,0:0:0:0:
96,112,23162,6,0,B|224:96|224:96|264:112,1,172,8|0,0:0|0:0,0:0:0:0:
336,168,24162,1,0,0:0:0:0:
372,256,24496,2,0,B|308:288|256:224|256:224|204:256,1,172,8|0,0:0|0:0,0:0:0:0:
64,136,25829,6,0,P|72:80|176:32,1,172,8|0,0:0|0:0,0:0:0:0:
168,128,26829,1,0,0:0:0:0:
200,216,27162,2,0,B|272:192|264:112|264:112|328:112,1,172,8|0,0:0|0:0,0:0:0:0:
392,88,28162,1,0,0:0:0:0:
480,112,28496,6,0,B|496:160|456:200|408:192|408:192|408:248,2,172,8|0|8,0:0|0:0|0:0,0:0:0:0:
392,88,30162,1,0,0:0:0:0:
304,120,30496,2,0,P|264:160|200:160,1,86
256,192,31162,12,12,33829,0:0:0:0:
104,112,34496,6,0,P|200:80|280:144,1,172,0|8,0:0|0:0,0:0:0:0:
184,176,35496,1,0,0:0:0:0:
256,240,35829,2,0,B|232:288|160:304|160:304|120:240,1,172,0|12,0:0|0:0,0:0:0:0:
296,168,37162,6,0,B|360:176|400:248|400:248|440:216,1,172,0|8,0:0|0:0,0:0:0:0:
456,136,38162,1,0,0:0:0:0:
392,64,38496,2,0,P|304:48|232:120,1,172,0|12,0:0|0:0,0:0:0:0:
128,248,39829,6,0,P|96:216|112:88,1,172,0|8,0:0|0:0,0:0:0:0:
192,72,40829,1,0,0:0:0:0:
344,184,41496,5,0,0:0:0:0:
440,192,41829,1,12,0:0:0:0:
424,288,42162,2,0,P|376:328|272:312,1,172
224,232,43162,1,8,0:0:0:0:
136,264,43496,1,0,0:0:0:0:
72,192,43829,2,0,P|80:112|160:96,1,172,0|12,0:0|0:0,0:0:0:0:
232,160,44829,5,0,0:0:0:0:
288,240,45162,2,0,P|328:200|336:160,1,86
424,136,45829,2,0,P|408:80|360:56,1,86,8|0,0:0|0:0,0:0:0:0:
296,40,46496,1,0,0:0:0:0:
208,80,46829,1,0,0:0:0:0:
168,168,47162,6,0,L|72:248,1,86,12|0,0:0|0:0,0:0:0:0:
120,320,47829,2,0,L|208:248,1,86
280,264,48496,2,0,B|336:256|328:176|328:176|360:128|360:128|368:88,1,172,8|0,0:0|0:0,0:0:0:0:
312,48,49496,1,0,0:0:0:0:
232,96,49829,1,12,0:0:0:0:
112,240,50496,6,0,P|160:288|256:288,2,129,8|0|8,0:0|0:0|0:0,0:0:0:0:
104,144,51829,1,0,0:0:0:0:
184,88,52162,1,0,0:0:0:0:
272,88,52496,6,0,P|304:144|432:152,1,172,12|0,0:0|0:0,0:0:0:0:
468,96,53496,1,0,0:0:0:0:
376,72,53829,2,0,L|264:240,1,172,8|0,0:0|0:0,0:0:0:0:
260,308,54829,2,0,P|204:284|192:240,1,86,0|12,0:0|0:0,0:0:0:0:
136,144,65829,5,2,0:0:0:0:
304,240,66496,2,0,B|200:296|200:296|176:288,2,129,0|2|0,0:0|0:0|0:0,0:0:0:0:
360,168,67829,1,2,0:0:0:0:
200,72,68496,5,2,0:0:0:0:
208,264,69162,2,0,P|272:272|344:224,2,129,0|2|0,0:0|0:0|0:0,0:0:0:0:
136,200,70496,2,0,P|176:168|232:152,1,86,2|0,0:0|0:0,0:0:0:0:
296,112,71162,6,0,P|224:64|128:64,1,172,12|0,0:0|0:0,0:0:0:0:
48,224,72496,2,0,P|120:272|216:272,1,172,12|0,0:0|0:0,0:0:0:0:
392,280,73829,6,8,L|392:192,1,86,12|8,0:0|0:0,0:0:0:0:
320,136,74496,2,0,L|224:136,1,86,4|0,0:0|0:0,0:0:0:0:
184,216,75162,6,0,P|120:264|48:216,2,172,12|0|10,0:0|0:0|0:0,0:0:0:0:
168,104,79162,6,0,B|248:104|256:176|256:176|304:160,2,172,12|0|12,0:0|0:0|0:0,0:0:0:0:
104,176,80829,1,0,0:0:0:0:
120,272,81162,2,0,P|208:296|312:256,1,172,0|12,0:0|0:0,0:0:0:0:
376,272,82162,2,0,P|352:200|328:168,1,86
416,120,82829,2,0,P|352:88|320:80,1,86,0|8,0:0|0:0,0:0:0:0:
240,88,83496,1,0,0:0:0:0:
176,160,83829,2,0,B|184:256|120:280|120:280|120:344,1,172,0|12,0:0|0:0,0:0:0:0:
200,360,84829,5,0,0:0:0:0:
288,336,85162,2,0,P|320:288|336:224,1,86
392,192,85829,1,8,0:0:0:0:
288,32,86496,1,0,0:0:0:0:
128,136,87162,5,12,0:0:0:0:
88,224,87496,1,0,0:0:0:0:
136,304,87829,2,0,P|224:304|312:232,2,172,0|8|0,0:0|0:0|0:0,0:0:0:0:
88,224,89496,2,0,P|96:160|136:120,1,86,0|12,0:0|0:0,0:0:0:0:
192,96,90162,1,0,0:0:0:0:
272,152,90496,2,0,P|336:144|368:112,1,86
432,80,91162,5,8,0:0:0:0:
488,160,91496,1,0,0:0:0:0:
472,256,91829,2,8,B|440:288|376:240|376:240|336:256,2,129,0|8|0,0:0|0:0|0:0,0:0:0:0:
488,160,93162,2,0,P|440:112|400:104,1,86
336,80,93829,5,12,0:0:0:0:
168,160,94496,1,4,0:0:0:0:
240,336,95162,1,12,0:0:0:0:
336,328,95496,1,0,0:0:0:0:
384,248,95829,2,0,P|352:200|320:176,1,86
256,128,96496,6,0,B|192:136|160:216|160:216|208:264,2,172,12|0|12,0:0|0:0|0:0,0:0:0:0:
432,56,98496,1,0,0:0:0:0:
464,240,99162,1,12,0:0:0:0:
280,296,99829,2,0,P|184:280|128:208,1,172,0|12,0:0|0:0,0:0:0:0:
