osu file format v12

[General]
AudioFilename: colorful cookie.mp3
AudioLeadIn: 1000
PreviewTime: 400
Countdown: 0
SampleSet: Soft
StackLeniency: 0.7
Mode: 0
LetterboxInBreaks: 1

[Editor]
DistanceSpacing: 1.4
BeatDivisor: 4
GridSize: 4

[Metadata]
Title:Colorful Cookie
TitleUnicode:Colorful Cookie
Artist:Lucky Vacuum
ArtistUnicode:Lucky Vacuum
Creator:Jupiter
Version:Another
Source:beatmania IIDX 16 EMPRESS
Tags:HAPPY HARDCORE DJ YOSHITAKA
BeatmapID:238699
BeatmapSetID:87377

[Difficulty]
HPDrainRate:6
CircleSize:4
OverallDifficulty:9
ApproachRate:9
SliderMultiplier:1.8
SliderTickRate:1

[Events]
//Background and Video events
0,0,"bg.jpg",1,1
//Break Periods
//Storyboard Layer 0 (Background)
//Storyboard Layer 1 (Fail)
//Storyboard Layer 2 (Pass)
//Storyboard Layer 3 (Foreground)
//Storyboard Sound Samples
//Background Colour Transformations
3,100,163,162,255

[TimingPoints]
400,333.333333333333,4,2,1,70,1,0
21733,-200,4,2,1,70,0,0
21816,-200,4,1,1,60,0,0
22399,-100,4,1,1,60,0,0
23066,-100,4,2,1,70,0,0
32483,-100,4,2,1,50,0,0
33733,-100,4,2,1,70,0,0
53733,-76.9230769230769,4,2,1,70,0,0
54399,-100,4,2,1,70,0,0
79066,-100,4,2,1,70,0,1
79149,-100,4,2,1,70,0,0
99066,-76.9230769230769,4,2,1,70,0,0
99399,-100,4,2,1,70,0,0

[Colours]
Combo1 : 255,210,77
Combo2 : 30,255,30
Combo3 : 70,153,255
Combo4 : 245,80,104

[HitObjects]
56,188,400,2,0,P|56:248|68:296,1,90,4|0,0:0|0:0,0:0:0:0:
112,96,733,2,0,P|52:88|0:92,1,90,2|0,0:0|0:0,0:0:0:0:
164,192,1066,2,0,P|240:232|312:180,1,180,2|0,0:0|0:0,0:0:0:0:
352,104,1566,6,0,L|336:56,2,45,2|0|0,0:0|0:0|0:0,0:0:0:0:
236,144,1899,1,2,0:0:0:0:
352,252,2066,2,0,P|408:248|456:248,1,90,0|2,0:0|0:0,0:0:0:0:
276,332,2399,1,2,0:0:0:0:
188,320,2566,1,0,0:0:0:0:
100,308,2733,1,2,0:0:0:0:
100,332,3066,6,0,L|92:232,1,90,2|0,0:0|0:0,0:0:0:0:
12,64,3399,2,0,L|0:156,1,90,2|0,0:0|0:0,0:0:0:0:
132,124,3733,2,0,P|212:84|292:124,1,180,2|2,0:0|0:0,0:0:0:0:
396,124,4233,6,0,L|384:176,2,45,2|0|0,0:0|0:0|0:0,0:0:0:0:
472,76,4566,1,2,0:0:0:0:
472,76,4733,1,0,0:0:0:0:
512,192,4899,1,2,0:0:0:0:
408,260,5066,2,0,P|360:252|316:252,1,90,2|0,0:0|0:0,0:0:0:0:
256,316,5399,1,2,0:0:0:0:
284,168,5566,1,0,0:0:0:0:
184,252,5733,6,0,P|108:296|20:248,1,180,2|2,0:0|0:0,0:0:0:0:
268,348,6233,1,0,0:0:0:0:
296,344,6316,1,0,0:0:0:0:
324,340,6399,2,0,P|372:336|420:340,1,90,2|0,0:0|0:0,0:0:0:0:
500,368,6733,1,2,0:0:0:0:
392,244,6899,5,2,0:0:0:0:
456,180,7066,2,0,P|460:128|452:84,1,90,0|2,0:0|0:0,0:0:0:0:
508,20,7399,1,0,0:0:0:0:
368,136,7566,2,0,L|168:124,1,180,2|2,0:0|0:0,0:0:0:0:
32,64,8066,1,2,0:0:0:0:
84,168,8233,5,2,0:0:0:0:
84,168,8316,1,0,0:0:0:0:
84,168,8399,2,0,B|76:204|88:228|80:264,1,90,2|0,0:0|0:0,0:0:0:0:
200,356,8733,2,0,L|300:344,1,90,2|0,0:0|0:0,0:0:0:0:
464,360,9066,2,0,P|408:292|444:200,1,180,2|2,0:0|0:0,0:0:0:0:
496,276,9566,1,2,0:0:0:0:
508,292,9899,6,0,L|412:284,1,90,2|2,0:0|0:0,0:0:0:0:
320,352,10233,1,0,0:0:0:0:
260,200,10399,1,2,0:0:0:0:
260,200,10733,1,2,0:0:0:0:
241,240,10816,1,0,0:0:0:0:
200,260,10899,1,0,0:0:0:0:
154,262,10983,1,0,0:0:0:0:
115,239,11066,6,0,P|104:193|109:142,1,90,12|0,0:0|0:0,0:0:0:0:
196,36,11399,1,10,0:0:0:0:
280,120,11566,1,0,0:0:0:0:
340,52,11733,2,0,P|392:48|452:48,1,90,10|0,0:0|0:0,0:0:0:0:
500,108,12066,1,10,0:0:0:0:
392,176,12233,5,10,0:0:0:0:
376,172,12316,1,8,0:0:0:0:
360,168,12399,1,8,0:0:0:0:
444,248,12566,1,2,0:0:0:0:
444,248,12733,1,8,0:0:0:0:
500,320,12899,2,0,L|496:372,2,45,2|0|8,0:0|0:0|0:0,0:0:0:0:
356,252,13233,2,0,L|360:344,1,90,2|10,0:0|0:0,0:0:0:0:
220,316,13566,2,0,L|220:361,1,45,10|8,0:0|0:0,0:0:0:0:
256,292,13733,6,0,L|152:280,1,90,10|0,0:0|0:0,0:0:0:0:
36,344,14066,2,0,L|28:236,1,90,10|0,0:0|0:0,0:0:0:0:
0,104,14399,1,10,0:0:0:0:
100,204,14566,1,0,0:0:0:0:
164,76,14733,1,10,0:0:0:0:
84,120,14899,6,0,L|32:112,2,45,10|8|8,0:0|0:0|0:0,0:0:0:0:
224,188,15233,2,0,P|280:180|332:176,1,90,2|8,0:0|0:0,0:0:0:0:
448,248,15566,1,2,0:0:0:0:
412,144,15733,2,0,L|412:96|412:40,1,90,8|2,0:0|0:0,0:0:0:0:
324,280,16066,2,0,L|324:328|324:384,1,90,10|10,0:0|0:0,0:0:0:0:
236,320,16316,6,0,L|248:264,1,45,8|10,0:0|0:0,0:0:0:0:
328,180,16566,1,0,0:0:0:0:
408,320,16733,2,0,P|464:328|500:316,1,90,10|0,0:0|0:0,0:0:0:0:
324,368,17066,1,10,0:0:0:0:
236,236,17233,1,0,0:0:0:0:
140,360,17399,2,0,P|84:368|40:356,1,90,10|10,0:0|0:0,0:0:0:0:
20,280,17649,6,0,L|24:228,1,45,8|8,0:0|0:0,0:0:0:0:
116,48,17899,2,0,L|128:152,1,90,2|8,0:0|0:0,0:0:0:0:
36,136,18233,1,2,0:0:0:0:
224,208,18399,2,0,L|232:104,1,90,8|2,0:0|0:0,0:0:0:0:
292,52,18733,1,10,0:0:0:0:
400,180,18899,2,0,L|444:170,1,45,10|8,0:0|0:0,0:0:0:0:
356,144,19066,5,10,0:0:0:0:
347,178,19149,1,0,0:0:0:0:
353,213,19233,1,0,0:0:0:0:
373,242,19316,1,0,0:0:0:0:
385,275,19399,1,10,0:0:0:0:
370,308,19483,1,0,0:0:0:0:
339,327,19566,1,0,0:0:0:0:
303,321,19649,1,0,0:0:0:0:
281,292,19733,1,10,0:0:0:0:
254,267,19816,1,0,0:0:0:0:
218,267,19899,1,0,0:0:0:0:
186,284,19983,1,0,0:0:0:0:
173,317,20066,2,0,P|175:346|183:369,3,45,10|0|2|0,0:0|0:0|0:0|0:0,0:0:0:0:
32,276,20399,5,8,0:0:0:0:
72,196,20566,2,0,L|64:168,4,22.5,2|0|0|0|10,0:0|0:0|0:0|0:0|0:0,0:0:0:0:
140,96,20899,2,0,L|144:128,4,22.5,0|0|0|0|10,0:0|0:0|0:0|0:0|0:0,0:0:0:0:
228,172,21233,2,0,L|228:140,3,22.5
256,96,21399,1,10,0:0:0:0:
289,126,21483,1,0,0:0:0:0:
333,133,21566,1,0,0:0:0:0:
376,121,21649,1,0,0:0:0:0:
403,85,21733,6,0,P|410:36|405:-5,1,90,4|8,0:0|0:0,0:0:0:0:
512,264,22399,1,8,0:0:0:0:
440,316,22566,2,0,L|448:364,2,45,8|8|8,0:0|0:0|0:0,0:0:0:0:
336,208,22899,1,8,0:0:0:0:
256,344,23066,6,0,P|208:340|152:340,1,90,4|0,0:0|0:0,0:0:0:0:
80,360,23399,1,8,0:0:0:0:
4,276,23566,2,0,L|12:136,1,135
11,141,23899,1,0,0:0:0:0:
140,52,24066,2,0,L|144:156,1,90,8|0,0:0|0:0,0:0:0:0:
44,56,24399,5,0,0:0:0:0:
232,192,24566,2,0,L|244:96,1,90,0|8,0:0|0:0,0:0:0:0:
152,240,24899,2,0,P|224:280|296:256,1,135
272,271,25233,1,0,0:0:0:0:
356,152,25399,2,0,L|344:56,1,90,8|0,0:0|0:0,0:0:0:0:
272,184,25733,5,0,0:0:0:0:
388,256,25899,1,0,0:0:0:0:
460,140,26066,1,8,0:0:0:0:
320,50,26233,2,0,L|340:196,1,135,0|0,0:0|0:0,0:0:0:0:
338,184,26566,1,0,0:0:0:0:
216,36,26733,2,0,L|228:132,1,90,8|0,0:0|0:0,0:0:0:0:
116,232,27066,5,0,0:0:0:0:
28,212,27233,1,0,0:0:0:0:
48,124,27399,1,8,0:0:0:0:
136,144,27566,1,0,0:0:0:0:
52,296,27733,2,0,P|100:316|152:308,1,90,2|2,0:0|0:0,0:0:0:0:
180,296,27983,2,0,L|200:240,1,45,2|2,0:0|0:0,0:0:0:0:
320,340,28233,2,0,L|323:384,1,45
336,300,28399,6,0,P|396:296|432:296,1,90,4|0,0:0|0:0,0:0:0:0:
492,360,28733,1,8,0:0:0:0:
368,212,28899,2,0,L|384:64,1,135
382,77,29233,1,0,0:0:0:0:
244,36,29399,2,0,L|248:136,1,90,8|0,0:0|0:0,0:0:0:0:
124,204,29733,6,0,L|108:108,1,90
28,80,30066,1,8,0:0:0:0:
228,192,30233,2,0,L|204:344,1,135
206,325,30566,1,0,0:0:0:0:
92,276,30733,1,8,0:0:0:0:
184,116,30899,1,0,0:0:0:0:
320,244,31066,6,0,L|304:340,1,90
456,352,31399,1,8,0:0:0:0:
392,196,31566,2,0,P|372:136|392:64,1,135
389,68,31899,1,0,0:0:0:0:
512,176,32066,1,8,0:0:0:0:
396,288,32233,1,0,0:0:0:0:
272,184,32399,5,12,0:0:0:0:
244,207,32483,1,0,0:0:0:0:
209,218,32566,1,0,0:0:0:0:
173,211,32649,1,0,0:0:0:0:
146,185,32733,1,0,0:0:0:0:
113,169,32816,1,0,0:0:0:0:
78,178,32899,1,0,0:0:0:0:
58,208,32983,1,0,0:0:0:0:
65,243,33066,6,0,L|65:296,1,45
216,344,33233,2,0,L|216:299,1,45
0,308,33399,2,0,L|0:361,1,45
288,296,33566,2,0,L|288:251,1,45
208,124,33733,6,0,L|208:32,1,90,4|0,0:0|0:0,0:0:0:0:
372,232,34066,2,0,L|372:324,1,90,10|0,0:0|0:0,0:0:0:0:
296,160,34399,2,0,P|372:124|464:168,1,180,2|10,0:0|0:0,0:0:0:0:
480,244,34899,1,2,0:0:0:0:
384,352,35066,6,0,P|328:352|272:344,1,90,0|2,0:0|0:0,0:0:0:0:
124,340,35399,1,8,0:0:0:0:
224,272,35566,1,2,0:0:0:0:
80,176,35733,2,0,P|76:132|80:76,1,90,2|0,0:0|0:0,0:0:0:0:
136,252,36066,2,0,P|96:264|40:264,1,90,10|0,0:0|0:0,0:0:0:0:
180,168,36399,6,0,P|268:204|344:164,1,180,2|10,0:0|0:0,0:0:0:0:
300,24,36899,1,0,0:0:0:0:
284,28,36983,1,0,0:0:0:0:
268,32,37066,2,0,L|168:28,1,90,2|0,0:0|0:0,0:0:0:0:
400,0,37399,1,10,0:0:0:0:
304,120,37566,1,2,0:0:0:0:
420,224,37733,6,0,L|520:220,1,90,0|2,0:0|0:0,0:0:0:0:
392,132,38066,1,8,0:0:0:0:
328,312,38233,2,0,L|224:300,1,90,2|2,0:0|0:0,0:0:0:0:
56,352,38566,1,0,0:0:0:0:
81,326,38649,1,0,0:0:0:0:
92,291,38733,1,10,0:0:0:0:
85,255,38816,1,0,0:0:0:0:
58,230,38899,2,0,L|9:220,1,45
100,152,39066,6,0,P|90:99|92:58,1,90,4|0,0:0|0:0,0:0:0:0:
212,236,39399,2,0,P|208:284|196:332,1,90,10|0,0:0|0:0,0:0:0:0:
288,160,39733,2,0,P|360:212|448:168,1,180,2|10,0:0|0:0,0:0:0:0:
368,68,40233,6,0,L|368:124,2,45,2|0|0,0:0|0:0|0:0,0:0:0:0:
480,200,40566,2,0,L|464:300,1,90,2|8,0:0|0:0,0:0:0:0:
352,348,40899,2,0,L|164:328,1,180,2|2,0:0|0:0,0:0:0:0:
173,328,41316,1,0,0:0:0:0:
173,328,41399,1,10,0:0:0:0:
0,356,41566,1,2,0:0:0:0:
68,268,41733,6,0,L|60:176,1,90,2|0,0:0|0:0,0:0:0:0:
8,72,42066,1,10,0:0:0:0:
184,120,42233,2,0,L|176:220,2,90,0|2|0,0:0|0:0|0:0,0:0:0:0:
284,24,42733,1,10,0:0:0:0:
316,108,42899,6,0,P|400:140|476:84,1,180,2|2,0:0|0:0,0:0:0:0:
260,196,43399,1,10,0:0:0:0:
260,196,43733,2,0,L|253:244,3,45,2|0|0|0,0:0|0:0|0:0|0:0,0:0:0:0:
287,337,44066,1,10,0:0:0:0:
321,308,44149,1,0,0:0:0:0:
365,300,44233,1,0,0:0:0:0:
408,309,44316,1,0,0:0:0:0:
446,332,44399,6,0,P|436:273|438:232,1,90,4|0,0:0|0:0,0:0:0:0:
460,44,44733,2,0,P|456:104|464:156,1,90,10|0,0:0|0:0,0:0:0:0:
512,208,45066,1,2,0:0:0:0:
360,168,45233,2,0,P|308:172|264:172,1,90,0|10,0:0|0:0,0:0:0:0:
180,64,45566,5,2,0:0:0:0:
236,176,45733,1,0,0:0:0:0:
124,228,45899,1,2,0:0:0:0:
64,116,46066,1,8,0:0:0:0:
236,176,46233,2,0,L|228:288,1,90,2|0,0:0|0:0,0:0:0:0:
64,116,46566,2,0,L|60:172,2,45,2|0|10,0:0|0:0|0:0,0:0:0:0:
120,296,46899,2,0,L|116:340,1,45,2|0,0:0|0:0,0:0:0:0:
120,296,47066,6,0,L|216:288,1,90,2|0,0:0|0:0,0:0:0:0:
280,236,47399,1,10,0:0:0:0:
364,348,47566,1,0,0:0:0:0:
444,232,47733,2,0,P|440:184|440:136,1,90,2|0,0:0|0:0,0:0:0:0:
500,76,48066,1,10,0:0:0:0:
332,40,48233,5,2,0:0:0:0:
332,40,48399,1,0,0:0:0:0:
296,168,48566,1,2,0:0:0:0:
296,168,48733,1,8,0:0:0:0:
240,88,48899,2,0,L|144:96,1,90,2|0,0:0|0:0,0:0:0:0:
48,192,49233,1,2,0:0:0:0:
75,214,49316,1,0,0:0:0:0:
90,246,49399,1,10,0:0:0:0:
86,282,49483,1,0,0:0:0:0:
67,312,49566,2,0,P|42:320|12:318,1,45,2|0,0:0|0:0,0:0:0:0:
168,356,49733,6,0,P|216:348|276:352,1,90,4|0,0:0|0:0,0:0:0:0:
392,380,50066,1,10,0:0:0:0:
448,308,50233,2,0,L|432:212,1,90,0|2,0:0|0:0,0:0:0:0:
436,80,50566,1,0,0:0:0:0:
504,192,50733,1,10,0:0:0:0:
352,248,50899,6,0,L|352:156,1,90,2|4,0:0|0:0,0:0:0:0:
296,56,51233,1,2,0:0:0:0:
228,156,51399,1,8,0:0:0:0:
148,64,51566,2,0,P|96:60|48:64,1,90,2|0,0:0|0:0,0:0:0:0:
0,192,51899,1,2,0:0:0:0:
0,192,51983,1,0,0:0:0:0:
0,192,52066,2,0,L|12:292,1,90,10|2,0:0|0:0,0:0:0:0:
68,356,52399,5,4,0:0:0:0:
180,224,52566,1,0,0:0:0:0:
44,116,52733,2,0,L|56:216,1,90,10|0,0:0|0:0,0:0:0:0:
0,32,53066,1,4,0:0:0:0:
144,144,53233,1,0,0:0:0:0:
288,32,53399,2,0,P|340:28|396:28,1,90,10|2,0:0|0:0,0:0:0:0:
512,144,53733,6,0,L|488:272,1,116.999994644165,12|12,0:0|0:0,0:0:0:0:
256,376,54399,5,2,0:0:0:0:
168,368,54733,5,2,0:0:0:0:
80,356,55066,5,4,0:0:0:0:
128,280,55233,2,0,L|112:188,1,90,2|2,0:0|0:0,0:0:0:0:
40,68,55733,2,0,P|116:104|168:76,1,135,2|2,0:0|0:0,0:0:0:0:
8,176,56233,1,2,0:0:0:0:
256,32,56566,6,0,L|248:136,1,90,2|2,0:0|0:0,0:0:0:0:
368,72,57066,2,0,L|352:212,1,135,2|2,0:0|0:0,0:0:0:0:
472,40,57566,1,2,0:0:0:0:
256,32,57899,6,0,L|248:136,1,90,2|2,0:0|0:0,0:0:0:0:
152,200,58399,2,0,L|-4:188,1,135,2|2,0:0|0:0,0:0:0:0:
92,76,58899,1,2,0:0:0:0:
268,240,59233,6,0,L|260:344,1,90,2|2,0:0|0:0,0:0:0:0:
368,180,59733,2,0,P|428:208|496:200,1,135,2|2,0:0|0:0,0:0:0:0:
396,40,60233,1,2,0:0:0:0:
396,40,60316,1,0,0:0:0:0:
280,156,60566,6,0,P|232:160|190:157,1,90,2|2,0:0|0:0,0:0:0:0:
40,104,61066,2,0,P|88:180|56:228,1,135,2|2,0:0|0:0,0:0:0:0:
148,52,61566,1,2,0:0:0:0:
0,176,61733,5,0,0:0:0:0:
128,320,61899,2,0,P|172:315|224:312,1,90,2|2,0:0|0:0,0:0:0:0:
391,344,62399,2,0,L|368:208,1,135,2|2,0:0|0:0,0:0:0:0:
296,384,62899,1,2,0:0:0:0:
468,260,63066,5,0,0:0:0:0:
272,180,63233,2,0,L|276:84,1,90,2|2,0:0|0:0,0:0:0:0:
116,40,63733,2,0,L|123:174,1,135,2|2,0:0|0:0,0:0:0:0:
144,308,64233,1,2,0:0:0:0:
28,188,64399,5,0,0:0:0:0:
224,132,64566,2,0,L|228:232,1,90,2|2,0:0|0:0,0:0:0:0:
292,336,64899,1,0,0:0:0:0:
384,220,65066,2,0,P|448:200|516:220,1,135,2|2,0:0|0:0,0:0:0:0:
511,217,65399,1,0,0:0:0:0:
456,304,65566,1,2,0:0:0:0:
340,132,65733,6,0,P|344:80|348:36,1,90,12|0,0:0|0:0,0:0:0:0:
424,88,66066,1,10,0:0:0:0:
304,208,66233,1,0,0:0:0:0:
204,72,66399,2,0,P|160:68|112:64,1,90,10|0,0:0|0:0,0:0:0:0:
24,52,66733,1,10,0:0:0:0:
120,188,66899,5,10,0:0:0:0:
136,184,66983,1,8,0:0:0:0:
152,180,67066,1,8,0:0:0:0:
32,156,67233,2,0,P|28:212|48:260,1,90,2|8,0:0|0:0,0:0:0:0:
36,352,67566,2,0,L|84:344,2,45,2|0|8,0:0|0:0|0:0,0:0:0:0:
156,264,67899,1,2,0:0:0:0:
204,340,68066,1,10,0:0:0:0:
248,260,68233,1,10,0:0:0:0:
264,264,68316,1,8,0:0:0:0:
280,268,68399,6,0,L|388:264,1,90,10|0,0:0|0:0,0:0:0:0:
336,348,68733,1,10,0:0:0:0:
312,184,68899,1,0,0:0:0:0:
468,240,69066,2,0,P|472:300|468:344,1,90,10|0,0:0|0:0,0:0:0:0:
512,120,69399,1,10,0:0:0:0:
452,52,69566,1,10,0:0:0:0:
434,49,69649,1,8,0:0:0:0:
416,45,69733,6,0,L|428:140,1,90,8|2,0:0|0:0,0:0:0:0:
304,32,70066,2,0,L|316:127,2,90,8|2|8,0:0|0:0|0:0,0:0:0:0:
112,24,70566,1,2,0:0:0:0:
188,152,70733,1,10,0:0:0:0:
276,32,70899,1,2,0:0:0:0:
92,120,71066,6,0,L|-8:108,1,90,12|0,0:0|0:0,0:0:0:0:
188,68,71399,1,10,0:0:0:0:
116,208,71566,1,0,0:0:0:0:
268,244,71733,2,0,L|368:224,1,90,10|0,0:0|0:0,0:0:0:0:
488,312,72066,1,10,0:0:0:0:
344,372,72233,1,8,0:0:0:0:
328,368,72316,1,8,0:0:0:0:
312,364,72399,6,0,L|220:344,1,90,12|0,0:0|0:0,0:0:0:0:
80,360,72733,1,10,0:0:0:0:
176,264,72899,1,0,0:0:0:0:
16,224,73066,2,0,L|24:128,1,90,10|0,0:0|0:0,0:0:0:0:
0,12,73399,1,10,0:0:0:0:
136,120,73566,1,8,0:0:0:0:
152,116,73649,1,8,0:0:0:0:
168,112,73733,5,12,0:0:0:0:
184,108,73816,1,0,0:0:0:0:
200,104,73899,1,0,0:0:0:0:
216,100,73983,1,0,0:0:0:0:
232,96,74066,2,0,L|228:152,3,45,10|0|0|0,0:0|0:0|0:0|0:0,0:0:0:0:
312,196,74399,5,12,0:0:0:0:
315,178,74483,1,0,0:0:0:0:
317,160,74566,1,0,0:0:0:0:
320,142,74649,1,0,0:0:0:0:
323,124,74733,2,0,L|329:73,3,45,10|0|0|0,0:0|0:0|0:0|0:0,0:0:0:0:
424,48,75066,6,0,L|432:104,1,45,12|0,0:0|0:0,0:0:0:0:
496,196,75233,2,0,L|512:140,1,45,2|0,0:0|0:0,0:0:0:0:
400,228,75399,2,0,L|412:280,1,45,12|0,0:0|0:0,0:0:0:0:
504,348,75566,2,0,L|512:304,1,45,2|0,0:0|0:0,0:0:0:0:
312,272,75733,6,0,L|324:324,1,45,12|0,0:0|0:0,0:0:0:0:
168,384,75899,2,0,L|170:339,1,45,2|0,0:0|0:0,0:0:0:0:
184,143,76066,2,0,L|188:188,1,45,12|0,0:0|0:0,0:0:0:0:
32,300,76233,2,0,L|41:255,1,45,2|0,0:0|0:0,0:0:0:0:
16,80,76399,5,4,0:0:0:0:
108,76,76733,5,2,0:0:0:0:
196,68,77066,5,2,0:0:0:0:
284,60,77399,5,2,0:0:0:0:
248,144,77566,1,2,0:0:0:0:
360,284,77899,5,2,0:0:0:0:
424,116,78233,5,2,0:0:0:0:
348,188,78566,5,2,0:0:0:0:
256,184,78733,1,2,0:0:0:0:
168,180,78899,1,2,0:0:0:0:
80,176,79066,6,0,L|100:276,1,90,4|0,0:0|0:0,0:0:0:0:
128,104,79399,1,10,0:0:0:0:
8,256,79566,1,2,0:0:0:0:
180,348,79733,2,0,P|240:340|280:336,1,90,2|0,0:0|0:0,0:0:0:0:
444,364,80066,1,10,0:0:0:0:
368,272,80233,1,0,0:0:0:0:
372,244,80316,1,0,0:0:0:0:
376,216,80399,6,0,B|376:184|392:164|388:120,1,90,2|0,0:0|0:0,0:0:0:0:
304,96,80733,1,10,0:0:0:0:
468,60,80899,1,2,0:0:0:0:
304,96,81066,2,0,L|208:88,1,90,0|2,0:0|0:0,0:0:0:0:
56,44,81399,1,8,0:0:0:0:
152,160,81566,1,2,0:0:0:0:
8,196,81733,6,0,P|0:244|16:296,1,90,0|2,0:0|0:0,0:0:0:0:
228,200,82066,2,0,P|236:152|220:100,1,90,10|2,0:0|0:0,0:0:0:0:
140,244,82399,2,0,P|208:296|292:272,1,180,2|10,0:0|0:0,0:0:0:0:
340,144,82899,1,0,0:0:0:0:
332,116,82983,1,0,0:0:0:0:
324,92,83066,6,0,P|280:80|216:76,1,90,2|0,0:0|0:0,0:0:0:0:
420,188,83399,2,0,P|472:188|516:180,1,90,10|2,0:0|0:0,0:0:0:0:
456,108,83733,1,0,0:0:0:0:
340,228,83899,1,2,0:0:0:0:
340,228,84066,1,8,0:0:0:0:
492,300,84233,2,0,L|536:292,1,45,2|0,0:0|0:0,0:0:0:0:
416,348,84399,6,0,P|372:340|316:336,1,90,4|0,0:0|0:0,0:0:0:0:
148,364,84733,2,0,P|160:316|156:268,1,90,10|0,0:0|0:0,0:0:0:0:
0,192,85066,1,2,0:0:0:0:
80,308,85233,1,0,0:0:0:0:
152,188,85399,2,0,P|208:180|256:180,1,90,10|0,0:0|0:0,0:0:0:0:
76,108,85733,5,12,0:0:0:0:
224,264,85899,1,12,0:0:0:0:
316,68,86066,1,2,0:0:0:0:
140,40,86233,2,0,P|168:120|116:196,1,180,12|2,0:0|0:0,0:0:0:0:
40,236,86649,2,0,L|-8:228,1,45,2|12,0:0|0:0,0:0:0:0:
168,344,86899,1,2,0:0:0:0:
196,336,86983,1,0,0:0:0:0:
220,328,87066,6,0,P|260:320|312:320,1,90,4|0,0:0|0:0,0:0:0:0:
464,368,87399,1,10,0:0:0:0:
320,292,87566,1,0,0:0:0:0:
456,204,87733,2,0,L|448:104,1,90,2|0,0:0|0:0,0:0:0:0:
508,12,88066,1,10,0:0:0:0:
348,128,88233,6,0,L|160:112,1,180,2|2,0:0|0:0,0:0:0:0:
168,112,88649,1,0,0:0:0:0:
168,112,88733,1,8,0:0:0:0:
288,16,88899,1,2,0:0:0:0:
196,220,89066,2,0,L|76:208,1,90,0|2,0:0|0:0,0:0:0:0:
66,233,89316,1,0,0:0:0:0:
44,272,89399,1,10,0:0:0:0:
46,317,89483,1,0,0:0:0:0:
81,344,89566,1,2,0:0:0:0:
125,347,89649,1,0,0:0:0:0:
162,321,89733,6,0,L|256:316,1,90,4|2,0:0|0:0,0:0:0:0:
456,276,90066,2,0,P|395:273|351:273,1,90,10|0,0:0|0:0,0:0:0:0:
396,356,90399,1,2,0:0:0:0:
504,192,90566,1,0,0:0:0:0:
308,168,90733,2,0,P|312:112|316:72,1,90,10|0,0:0|0:0,0:0:0:0:
208,132,91066,6,0,P|140:168|44:132,1,180,2|10,0:0|0:0,0:0:0:0:
47,135,91483,1,0,0:0:0:0:
47,135,91566,1,2,0:0:0:0:
128,52,91733,1,0,0:0:0:0:
240,216,91899,1,2,0:0:0:0:
240,216,92066,1,8,0:0:0:0:
64,312,92233,2,0,L|12:308,1,45,2|0,0:0|0:0,0:0:0:0:
144,352,92399,6,0,P|196:340|256:336,1,90,0|2,0:0|0:0,0:0:0:0:
400,368,92733,2,0,P|384:304|380:272,1,90,10|2,0:0|0:0,0:0:0:0:
428,204,93066,1,2,0:0:0:0:
300,324,93233,1,2,0:0:0:0:
172,204,93399,1,10,0:0:0:0:
288,72,93566,1,2,0:0:0:0:
376,100,93733,6,0,P|304:160|216:120,1,180,2|8,0:0|0:0,0:0:0:0:
344,20,94233,1,2,0:0:0:0:
372,20,94316,1,0,0:0:0:0:
400,20,94399,2,0,B|428:16|464:32|496:20,1,90,0|2,0:0|0:0,0:0:0:0:
192,64,94733,1,8,0:0:0:0:
116,108,94899,6,0,B|88:104|52:120|20:108,1,90,2|4,0:0|0:0,0:0:0:0:
24,20,95233,1,2,0:0:0:0:
192,152,95399,2,0,P|196:204|192:248,1,90,10|2,0:0|0:0,0:0:0:0:
32,232,95733,1,2,0:0:0:0:
112,352,95899,1,2,0:0:0:0:
212,248,96066,2,0,P|268:240|324:240,1,90,10|2,0:0|0:0,0:0:0:0:
336,324,96399,6,0,P|392:248|344:164,1,180,4|10,0:0|0:0,0:0:0:0:
362,176,96816,1,0,0:0:0:0:
362,176,96899,1,2,0:0:0:0:
272,156,97066,1,0,0:0:0:0:
484,80,97233,2,0,L|472:192,1,90,2|10,0:0|0:0,0:0:0:0:
496,352,97566,1,2,0:0:0:0:
424,296,97733,6,0,L|376:296|324:296,1,90,4|2,0:0|0:0,0:0:0:0:
156,332,98066,1,10,0:0:0:0:
264,272,98233,1,2,0:0:0:0:
200,168,98399,1,0,0:0:0:0:
88,220,98566,1,2,0:0:0:0:
80,244,98649,1,0,0:0:0:0:
72,268,98733,2,0,L|84:364,1,90,10|2,0:0|0:0,0:0:0:0:
0,104,99066,6,0,L|136:92,1,116.999994644165,4|4,0:0|0:0,0:0:0:0:
256,24,99399,1,2,0:0:0:0:
236,200,99566,1,2,0:0:0:0:
408,140,99733,2,0,P|412:96|408:48,1,90,2|2,0:0|0:0,0:0:0:0:
312,124,99983,2,0,L|324:184,1,45,2|2,0:0|0:0,0:0:0:0:
284,336,100233,1,0,0:0:0:0:
460,288,100399,5,4,0:0:0:0:
