osu file format v13

[General]
AudioFilename: Nande Dattakke Idol (Short ver.).mp3
AudioLeadIn: 1500
PreviewTime: 32232
Countdown: 0
SampleSet: Normal
StackLeniency: 0.7
Mode: 0
LetterboxInBreaks: 1
WidescreenStoryboard: 0

[Editor]
DistanceSpacing: 0.8
BeatDivisor: 2
GridSize: 8
TimelineZoom: 1

[Metadata]
Title:Nande Dattakke Idol? (Short Ver.)
TitleUnicode:Nande Dattakke Idol? (Short Ver.)
Artist:Lucky Star Cast
ArtistUnicode:Lucky Star Cast
Creator:Meowcenaries
Version:Easy
Source:Lucky Star
Tags:lucky star girls meow cast konata winber1 [tsukasa] kuronumasawako
BeatmapID:141268
BeatmapSetID:45208

[Difficulty]
HPDrainRate:3
CircleSize:3
OverallDifficulty:2
ApproachRate:3
SliderMultiplier:0.7
SliderTickRate:1

[Events]
//Background and Video events
Video,0,"PSP Lucky Star Net Idol Meister ED Ending HD (HQ)~1.avi"
0,0,"lucky-star.jpg",0,0
//Break Periods
//Storyboard Layer 0 (Background)
//Storyboard Layer 1 (Fail)
//Storyboard Layer 2 (Pass)
//Storyboard Layer 3 (Foreground)
//Storyboard Sound Samples
//Background Colour Transformations
3,100,163,162,255

[TimingPoints]
1350,352.941176470588,4,1,0,65,1,0
32408,-100,4,1,0,75,0,1
57820,-100,4,1,0,65,0,0

[Colours]
Combo1 : 128,0,255
Combo2 : 255,0,255
Combo3 : 0,128,255
Combo4 : 200,0,200
Combo5 : 0,128,192

[HitObjects]
208,80,644,6,0,B|208:224,1,140,0|4,0:0|0:0,0:0:0:0:
296,296,2055,1,0,0:0:0:0:
400,240,2761,1,0,0:0:0:0:
480,160,3467,6,0,B|344:80,1,140
352,200,4879,2,0,B|272:288,1,105
216,328,5938,1,4,0:0:0:0:
384,248,6997,6,0,B|384:88,1,140,4|0,0:0|0:0,0:0:0:0:
288,48,8408,2,0,B|192:48,1,70
120,104,9467,2,0,B|72:200|136:248,1,140
200,312,10879,2,0,B|248:240|192:184,1,140
304,72,12644,6,0,B|152:72,1,140,0|8,0:0|0:0,0:0:0:0:
128,184,14055,2,0,B|276:184,1,140
344,272,15467,6,0,B|344:120,2,140,0|0|0,0:0|0:0|0:0,0:0:0:0:
232,288,17585,1,8,0:0:0:0:
264,184,18291,5,4,0:0:0:0:
376,184,18997,1,8,0:0:0:0:
376,72,19702,1,0,0:0:0:0:
264,72,20408,1,8,0:0:0:0:
152,72,21114,5,0,0:0:0:0:
256,120,21820,2,2,B|416:80,1,140
400,208,23232,1,0,0:0:0:0:
296,160,23938,5,12,0:0:0:0:
184,160,24644,1,0,0:0:0:0:
224,56,25349,1,8,0:0:0:0:
128,112,26055,1,0,0:0:0:0:
176,216,26761,5,8,0:0:0:0:
288,232,27467,1,0,0:0:0:0:
384,168,28173,2,0,B|384:40|232:56,1,210,0|2,0:0|0:0,0:0:0:0:
256,192,29585,12,4,32408,0:0:0:0:
256,192,33114,5,0,0:0:0:0:
312,96,33820,2,0,B|416:144,1,105
376,216,34879,1,0,0:0:0:0:
320,200,35232,2,2,B|160:344,1,210
128,296,36644,1,2,0:0:0:0:
208,208,37349,1,8,0:0:0:0:
320,192,38055,5,4,0:0:0:0:
392,288,38761,2,0,B|144:288,1,245,0|2,0:0|0:0,0:0:0:0:
80,168,40879,1,0,0:0:0:0:
176,120,41585,1,0,0:0:0:0:
256,192,41938,12,4,43702,0:0:0:0:
144,192,44408,5,0,0:0:0:0:
256,192,45114,1,0,0:0:0:0:
368,192,45820,1,8,0:0:0:0:
368,80,46526,5,0,0:0:0:0:
256,80,47232,1,0,0:0:0:0:
144,80,47938,2,8,B|104:152|160:224,1,140
248,272,49349,6,0,B|296:200|232:136,1,140
336,80,50761,2,0,B|392:88|432:168,2,105
280,80,52173,5,0,0:0:0:0:
208,160,52879,2,0,B|219:271|283:303|347:271|344:144,1,280
256,192,54997,12,4,57820,0:0:0:0:
384,128,58526,5,0,0:0:0:0:
480,192,59232,1,0,0:0:0:0:
368,208,59938,2,0,B|224:208,1,140
120,160,61349,2,0,B|48:104|112:56,2,105,0|0|4,0:0|0:0|0:0,0:0:0:0:
