osu file format v7

[General]
AudioFilename: Kaeshite! Knee Socks.mp3
AudioLeadIn: 0
PreviewTime: 62403
Countdown: 1
SampleSet: Normal
StackLeniency: 0.4
Mode: 0
LetterboxInBreaks: 1
SkinPreference:LuckyStar

[Editor]
Bookmarks: 25236,35903,52069,62736
DistanceSpacing: 1
BeatDivisor: 4
GridSize: 8

[Metadata]
Title:Kaeshite! Knee Socks
Artist:Lucky Star Cast
Creator:ztrot
Version:Insane
Source:Lucky Star
Tags:anime Larto cute

[Difficulty]
HPDrainRate:7
CircleSize:4
OverallDifficulty:8
SliderMultiplier:2
SliderTickRate:1

[Events]
//Background and Video events
0,0,"BG.jpg"
//Break Periods
2,83936,93819
2,153269,162986
2,205270,214986
//Storyboard Layer 0 (Background)
//Storyboard Layer 1 (Fail)
//Storyboard Layer 2 (Pass)
//Storyboard Layer 3 (Foreground)
//Storyboard Sound Samples
//Background Colour Transformations
3,100,163,162,255

[TimingPoints]
9070,333.333333333333,4,1,0,100,1,0
62403,-100,4,1,0,100,0,1
83736,-100,4,1,0,100,0,0
131736,-100,4,1,0,100,0,1
153069,-100,4,1,0,100,0,0
182403,-100,4,1,0,100,0,1
203403,-100,4,1,0,100,0,0
237153,-100,4,1,0,0,0,0

[Colours]
Combo1 : 255,89,89
Combo2 : 0,117,234
Combo3 : 163,70,255
Combo4 : 21,255,138

[HitObjects]
72,64,25236,1,0
8,144,25403,1,8
72,224,25569,1,0
168,192,25736,1,0
256,152,25903,1,0
344,192,26069,1,8
440,224,26236,1,0
504,144,26403,2,2,B|504:8|376:8,1,200
326,91,26903,2,2,B|439:90|439:226,1,200
256,304,27569,1,2
56,312,27903,5,0
152,280,28069,1,8
152,176,28236,1,0
56,144,28403,1,0
56,48,28569,2,0,B|152:16|256:56,1,200
344,96,29069,5,2
64,312,29403,1,2
256,360,29736,5,0
352,336,29903,1,0
424,272,30069,1,8
424,168,30236,2,0,B|432:96|384:32|304:32,1,200
208,32,30736,1,8
64,312,31236,5,0
152,264,31403,1,8
64,224,31569,1,0
152,176,31736,2,0,B|264:176|288:304,2,200,0|8|0
176,80,32569,1,0
256,16,32736,1,8
336,80,32903,2,0,B|408:160|336:272,1,200
340,264,33403,1,8
56,112,33903,5,0
56,208,34069,1,8
152,160,34236,2,0,B|360:160,2,200
352,160,35236,5,0
448,120,35403,1,8
480,160,35486,1,0
448,200,35569,1,0
256,32,35903,5,0
168,80,36069,2,2,B|104:184|200:264,1,200,8|0
344,80,36736,2,2,B|408:184|312:264,1,200,8|0
256,72,37403,1,8
256,168,37569,2,0,B|256:384,2,200
448,112,38569,5,0
352,72,38736,2,8,B|256:16|152:72,1,200,8|0
96,144,39236,1,0
136,232,39403,1,8
216,296,39570,1,0
136,352,39736,5,2
384,48,40070,1,2
376,232,40403,5,0
296,296,40570,1,0
256,208,40736,1,8
256,104,40903,2,0,B|136:104|136:240,1,200
56,168,41403,1,8
352,104,41903,5,0
440,144,42070,1,8
440,248,42236,1,0
352,304,42403,2,0,B|248:352|160:264,2,200,0|8|0
352,200,43236,1,0
248,200,43403,1,8
144,200,43570,2,0,B|24:200|24:64,1,200
128,72,44070,1,4
432,48,44570,5,2
496,128,44736,1,0
432,208,44903,1,2
256,304,45236,1,2
208,216,45403,1,0
304,216,45570,1,2
256,24,45903,1,0
256,72,45986,1,0
256,120,46070,1,0
256,224,46236,1,0
256,224,46403,1,4
408,96,46736,5,8
104,96,47070,1,0
384,288,47570,5,0
320,216,47736,1,0
256,288,47903,1,0
192,216,48070,1,8
128,288,48236,1,0
192,216,48403,1,0
256,288,48570,2,0,B|256:176,1,100,0|8
80,88,49070,6,0,B|0:176|80:280,1,200,4|8
120,184,49570,2,0,B|8:184|8:312|8:328,1,200,4|0
120,320,50070,2,0,B|248:320|248:192,1,200,12|0
144,200,50570,2,0,B|143:320|280:320,1,200,4|0
368,320,51070,1,8
440,136,51403,1,0
256,56,51736,1,0
112,192,52070,5,2
400,192,52403,1,2
136,48,52903,5,2
200,128,53070,1,0
256,48,53236,1,2
312,128,53403,1,8
376,48,53570,1,2
312,128,53736,1,2
256,48,53903,2,2,B|256:160,1,100,2|10
128,288,54736,5,8
384,96,55070,1,0
96,192,55403,1,8
416,192,55736,1,0
128,96,56070,1,8
384,288,56403,1,0
256,72,56736,1,8
456,56,57070,6,0,B|456:176|320:176,1,200,4|8
368,80,57570,2,0,B|440:176|376:272,1,200,4|0
328,176,58070,2,0,B|456:152|496:280,1,200,4|8
380,266,58570,2,0,B|380:138|484:106,1,200,4|0
424,24,59070,1,2
264,144,59403,5,0
232,104,59486,1,0
272,80,59570,1,0
256,32,59653,1,0
256,192,59736,12,0,61070
256,192,61736,12,0,62403
256,48,62736,5,8
392,192,63070,1,0
256,336,63403,1,8
160,304,63570,2,0,B|32:304|32:176,1,200
96,104,64070,1,8
152,184,64236,1,0
96,104,64403,1,0
392,192,64903,5,0
392,192,65070,1,0
256,336,65403,1,0
256,336,65570,2,2,B|136:336|136:200,2,200
256,136,66570,1,2
344,88,66736,1,2
256,40,66903,1,2
168,88,67070,1,2
360,320,67570,5,0
360,320,67736,2,2,B|472:320|472:176,2,200,2|10|2
256,152,68736,1,8
256,152,68903,2,2,B|256:264|112:264,2,200
64,104,69903,5,2
152,152,70070,1,0
152,56,70236,1,2
256,224,70570,1,2
328,152,70736,1,0
352,248,70903,1,2
168,328,71236,1,2
80,288,71403,1,0
160,224,71570,1,2
256,48,71903,5,4
256,48,72070,1,0
448,104,72403,5,0
384,184,72570,1,0
448,264,72736,1,8
384,344,72903,1,0
326,268,73070,2,2,B|256:120|192:272,2,200,2|10|2
88,264,74070,5,8
192,264,74236,2,2,B|256:128|328:272,1,200
384,344,74736,1,2
448,264,74903,1,0
384,184,75070,1,2
448,104,75236,1,0
408,72,75320,1,0
360,48,75403,1,0
256,48,75570,5,0
256,48,75736,2,2,B|256:160|104:160,1,200
256,48,76236,2,2,B|256:160|408:160,1,200
160,264,76903,6,2,B|256:328|352:264,1,200
256,224,77403,1,2
256,120,77570,1,0
256,24,77736,1,2
160,56,77903,1,0
128,96,77986,1,0
104,136,78070,1,0
104,232,78236,5,0
176,304,78403,1,0
256,120,78736,1,8
336,304,79069,1,0
448,136,79403,1,8
448,136,79569,1,0
256,120,79903,1,0
256,24,80069,1,8
256,120,80236,1,0
128,272,80569,5,2
72,192,80736,1,0
32,288,80903,1,2
232,272,81236,1,2
208,176,81403,1,0
304,208,81569,1,2
472,96,81903,1,2
376,80,82069,1,0
408,176,82236,1,2
256,48,82569,5,0
152,48,82736,1,0
208,136,82903,1,0
112,168,83069,1,0
208,136,83236,1,0
296,168,83403,1,0
448,296,83736,1,4
440,320,94569,5,0
504,240,94736,1,8
440,160,94903,1,0
344,192,95069,1,0
256,232,95236,1,0
168,192,95403,1,8
72,160,95569,1,0
8,240,95736,2,2,B|8:376|136:376,1,200
186,293,96236,2,2,B|73:294|73:158,1,200
256,80,96903,1,2
456,72,97236,5,0
360,104,97403,1,8
360,208,97569,1,0
456,240,97736,1,0
456,336,97903,2,0,B|360:368|256:328,1,200
168,288,98403,5,2
448,72,98736,1,2
256,24,99069,5,0
160,48,99236,1,0
88,112,99403,1,8
88,216,99569,2,0,B|80:288|128:352|208:352,1,200
304,352,100069,1,8
448,72,100569,5,0
360,120,100736,1,8
448,160,100903,1,0
360,208,101069,2,0,B|248:208|224:80,2,200,0|8|0
336,304,101903,1,0
256,368,102069,1,8
176,304,102236,2,0,B|104:224|176:112,1,200
172,120,102736,1,8
456,272,103236,5,0
456,176,103403,1,8
360,224,103569,2,0,B|152:224,2,200
160,224,104569,5,0
64,264,104736,1,8
32,224,104819,1,0
64,184,104903,1,0
256,352,105236,5,0
344,304,105403,2,2,B|408:200|312:120,1,200,8|0
168,304,106069,2,2,B|104:200|200:120,1,200,8|0
256,312,106736,1,10
256,216,106903,2,2,B|256:0,2,200
64,272,107903,5,0
160,312,108069,2,8,B|256:368|360:312,1,200,8|0
416,240,108569,1,0
376,152,108736,1,8
296,88,108903,1,0
376,32,109069,5,2
128,336,109403,1,2
136,152,109736,5,0
216,88,109903,1,0
256,176,110069,1,8
256,280,110236,2,0,B|376:280|376:144,1,200
456,216,110736,1,8
160,280,111236,5,0
72,240,111403,1,8
72,136,111569,1,0
160,80,111736,2,0,B|264:32|352:120,2,200,0|8|0
160,184,112569,1,0
264,184,112736,1,8
368,184,112903,2,0,B|488:184|488:320,1,200
384,312,113403,1,4
80,336,113903,5,2
16,256,114069,1,0
80,176,114236,1,2
256,80,114569,1,2
304,168,114736,1,0
208,168,114903,1,2
256,360,115236,1,0
256,312,115319,1,0
256,264,115403,1,0
256,160,115569,1,0
256,160,115736,1,4
104,288,116069,5,8
408,288,116403,1,0
128,96,116903,5,0
192,168,117069,1,0
256,96,117236,1,0
320,168,117403,1,8
384,96,117569,1,0
320,168,117736,1,0
256,96,117903,2,0,B|256:208,1,100,0|8
432,296,118403,6,0,B|512:208|432:104,1,200,4|8
392,200,118903,2,0,B|504:200|504:72|504:56,1,200,4|0
392,64,119403,2,0,B|264:64|264:192,1,200,12|0
368,184,119903,2,0,B|369:64|232:64,1,200,4|0
144,64,120403,1,8
72,248,120736,1,0
256,328,121069,1,0
400,192,121403,5,2
112,192,121736,1,2
376,336,122236,5,2
312,256,122403,1,0
256,336,122569,1,2
200,256,122736,1,8
136,336,122903,1,2
200,256,123069,1,2
256,336,123236,2,2,B|256:224,1,100,2|10
384,96,124069,5,8
128,288,124403,1,0
416,192,124736,1,8
96,192,125069,1,0
384,288,125403,1,8
128,96,125736,1,0
256,312,126069,1,8
56,328,126403,6,0,B|56:208|192:208,1,200,4|8
144,304,126903,2,0,B|72:208|136:112,1,200,4|0
184,208,127403,2,0,B|56:232|16:104,1,200,4|8
132,118,127903,2,0,B|132:246|28:278,1,200,4|0
88,360,128403,1,2
248,240,128736,5,0
280,280,128819,1,0
240,304,128903,1,0
256,352,128986,1,0
256,192,129069,12,0,130403
256,192,131069,12,0,131736
256,336,132069,5,8
120,192,132403,1,0
256,48,132736,1,8
352,80,132903,2,0,B|480:80|480:208,1,200
416,280,133403,1,8
360,200,133569,1,0
416,280,133736,1,0
120,192,134236,5,0
120,192,134403,1,0
256,48,134736,1,0
256,48,134903,2,2,B|376:48|376:184,2,200
256,248,135903,1,2
168,296,136069,1,2
256,344,136236,1,2
344,296,136403,1,2
152,64,136903,5,0
152,64,137069,2,2,B|40:64|40:208,2,200,2|10|2
256,232,138069,1,8
256,232,138236,2,2,B|256:120|400:120,2,200
448,280,139236,5,2
360,232,139403,1,0
360,328,139569,1,2
256,160,139903,1,2
184,232,140069,1,0
160,136,140236,1,2
344,56,140569,1,2
432,96,140736,1,0
352,160,140903,1,2
256,336,141236,5,4
256,336,141403,1,0
64,280,141736,5,0
128,200,141903,1,0
64,120,142069,1,8
128,40,142236,1,0
186,116,142403,2,2,B|256:264|320:112,2,200,2|10|2
424,120,143403,5,8
320,120,143569,2,2,B|256:256|184:112,1,200
128,40,144069,1,2
64,120,144236,1,2
128,200,144403,1,2
64,280,144569,1,0
104,312,144653,1,0
152,336,144736,1,0
256,336,144903,5,0
256,336,145069,2,2,B|256:224|408:224,1,200
256,336,145569,2,2,B|256:224|104:224,1,200
352,120,146236,6,2,B|256:56|160:120,1,200
256,160,146736,1,2
256,264,146903,1,0
256,360,147069,1,2
352,328,147236,1,0
384,288,147319,1,0
408,248,147403,1,0
408,152,147569,5,0
336,80,147736,1,0
256,264,148069,1,8
176,80,148403,1,0
64,248,148736,1,8
64,248,148903,1,0
256,264,149236,1,0
256,360,149403,1,8
256,264,149569,1,0
384,112,149903,5,2
440,192,150069,1,0
480,96,150236,1,2
280,112,150569,1,2
304,208,150736,1,0
208,176,150903,1,2
40,288,151236,1,2
136,304,151403,1,0
104,208,151569,1,2
256,336,151903,5,0
360,336,152069,1,0
304,248,152236,1,0
400,216,152403,1,0
304,248,152569,1,0
216,216,152736,1,0
64,88,153069,1,4
176,56,163736,6,0,B|64:72|64:208,1,200
167,199,164236,2,0,B|167:72|55:56,1,200
56,160,164736,2,0,B|168:144|168:16,1,200
56,56,165236,2,0,B|64:152|216:152,1,200
253,341,165736,5,0
256,40,166070,1,0
48,336,166736,5,0
48,136,167070,2,0,B|144:80|240:136,1,200
144,184,167570,2,0,B|144:64|280:64,2,200
144,288,168403,1,0
368,288,168736,1,0
336,56,169070,6,0,B|448:72|448:208,1,200
345,199,169570,2,0,B|344:72|456:56,1,200
456,160,170070,2,0,B|344:144|344:16,1,200
456,56,170570,2,0,B|448:152|296:152,1,200
256,336,171070,5,0
256,40,171403,1,0
152,304,172070,5,0
360,304,172403,1,0
96,192,172736,1,0
416,192,173070,1,0
32,96,173403,1,0
480,96,173736,1,0
256,280,174070,1,0
256,56,174403,6,2,B|48:56,1,200
256,128,174903,2,2,B|472:128,1,200
256,200,175403,2,2,B|48:200,1,200
256,272,175903,2,2,B|464:272,1,200
256,344,176403,2,2,B|120:344|64:272,1,200
72,184,176903,1,0
256,192,177070,12,0,179736
480,336,181736,5,0
480,232,181903,1,0
416,152,182070,1,0
312,152,182236,1,0
208,152,182403,2,0,B|104:152|40:272,2,200,0|8|0
256,344,183403,5,8
352,344,183570,2,0,B|472:344|472:208,1,200
472,112,184070,1,8
392,56,184236,1,0
288,56,184403,1,4
64,256,184903,5,0
152,208,185070,2,2,B|41:208|40:64,1,200
128,112,185570,2,2,B|240:112|240:256,1,200
416,336,186236,2,2,B|520:336|520:240|472:192,1,200
416,120,186736,1,2
352,200,186903,1,2
416,120,187070,1,2
256,240,187403,5,0
256,144,187570,1,0
176,80,187736,2,2,B|48:80|48:208,2,200,0|8|0
176,280,188736,1,8
176,280,188903,2,2,B|302:280|304:144,2,200
256,96,189903,5,2
344,48,190070,1,0
432,96,190236,2,2,B|512:184|440:280,1,200
344,312,190736,1,0
256,264,190903,2,2,B|160:208|56:272,1,200
64,168,191403,1,0
136,104,191570,2,2,B|232:56|336:112,1,200,2|2
416,64,192070,1,0
464,152,192236,1,0
400,232,192403,5,0
312,192,192570,1,8
360,280,192736,1,0
272,240,192903,1,0
320,328,193070,2,0,B|216:328|152:232,2,200,0|8|0
256,136,194070,1,0
256,32,194236,2,0,B|144:32|80:128,1,200
32,208,194736,1,8
32,312,194903,1,0
128,352,195070,1,4
424,320,195570,5,0
480,232,195736,2,0,B|480:96|344:96,1,200
392,192,196236,2,0,B|488:136|488:16,2,200
256,336,197236,1,0
256,232,197403,1,0
160,232,197570,1,0
72,280,197736,1,0
256,56,198070,5,4
256,336,198403,6,0,B|392:336|392:216,2,200,0|8|0
256,136,199403,1,8
256,40,199570,2,0,B|144:40|144:184,2,200
256,240,200570,5,2
200,328,200736,1,0
312,328,200903,2,2,B|424:328|424:184,1,200
424,96,201403,1,0
336,144,201570,2,2,B|256:48|168:152,1,200
256,200,202070,1,0
256,304,202236,2,2,B|160:360|64:304,1,200
64,208,202736,1,0
24,112,202903,1,0
104,56,203070,1,0
208,56,203236,1,0
288,112,203403,1,4
256,192,203736,12,0,205070
256,336,215736,6,2,B|336:336|336:336|392:368|432:336|400:288,1,200,4|2
256,32,216570,1,0
440,120,216903,1,0
368,192,217070,2,2,B|288:264|160:232,1,200
88,64,217736,2,2,B|144:160|272:160,1,200
184,344,218403,6,2,B|104:344|104:344|48:376|8:344|40:296,1,200
256,32,219236,5,0
72,120,219570,1,0
144,192,219736,2,2,B|224:264|352:232,1,200
424,64,220403,2,2,B|368:160|240:160,1,200
328,344,221070,6,2,B|408:344|408:344|464:376|504:344|472:296,1,200
256,32,221903,5,0
72,120,222236,1,0
144,192,222403,2,2,B|224:264|352:232,1,200
424,64,223070,2,2,B|368:160|240:160,1,200
328,344,223736,6,2,B|408:344|408:344|464:376|504:344|472:296,1,200
256,96,224570,1,0
256,296,224903,1,0
160,264,225070,1,0
96,184,225236,1,0
96,80,225403,1,0
256,200,225736,2,0,B|368:200|440:112,1,200
256,24,226403,6,2,B|256:128|256:128|296:168|256:224|216:176,1,200
496,344,227236,1,0
496,144,227570,1,0
424,72,227736,2,2,B|304:64|272:176,1,200
88,72,228403,2,2,B|208:64|240:176,1,200
256,376,229070,6,2,B|120:296|392:296|256:264,1,200
16,344,229903,1,0
16,144,230236,1,0
88,72,230403,2,2,B|208:64|240:176,1,200
424,72,231070,2,2,B|304:64|272:176,1,200
256,376,231736,6,2,B|392:296|120:296|256:264,1,200
456,40,232570,1,0
456,240,232903,1,0
360,240,233070,1,0
360,40,233403,1,0
160,40,233736,1,0
160,240,234070,1,0
360,240,234403,6,2,B|304:328|304:328|256:360|208:312|264:272,1,200
56,56,235236,2,2,B|144:112|32:176|152:216,2,200
160,56,236070,2,2,B|264:56|264:208,2,200
256,192,237070,12,0,239736
