osu file format v7

[General]
AudioFilename: Kaeshite! Knee Socks.mp3
AudioLeadIn: 0
PreviewTime: 62403
Countdown: 1
SampleSet: Normal
StackLeniency: 0.4
Mode: 0
LetterboxInBreaks: 1
SkinPreference:LuckyStar

[Editor]
Bookmarks: 25236,35903,52069,62736
DistanceSpacing: 0.800000011920929
BeatDivisor: 2
GridSize: 8

[Metadata]
Title:Kaeshite! Knee Socks
Artist:Lucky Star Cast
Creator:ztrot
Version:Hard
Source:Lucky Star
Tags:anime Larto cute

[Difficulty]
HPDrainRate:6
CircleSize:3
OverallDifficulty:7
SliderMultiplier:1.6
SliderTickRate:1

[Events]
//Background and Video events
0,0,"BG.jpg"
//Break Periods
2,83603,93836
2,152936,162836
2,205269,214836
//Storyboard Layer 0 (Background)
//Storyboard Layer 1 (Fail)
//Storyboard Layer 2 (Pass)
//Storyboard Layer 3 (Foreground)
//Storyboard Sound Samples
//Background Colour Transformations
3,100,163,162,255

[TimingPoints]
9070,333.333333333333,4,1,0,100,1,0
60070,-100,4,1,0,0,0,0
61570,-100,4,1,0,100,0,0
62403,-100,4,1,0,100,0,1
83736,-100,4,1,0,100,0,0
131736,-100,4,1,0,100,0,1
153069,-100,4,1,0,100,0,0
182403,-100,4,1,0,100,0,1
203403,-100,4,1,0,100,0,0
237153,-100,4,1,0,0,0,0

[Colours]
Combo1 : 255,89,89
Combo2 : 0,117,234
Combo3 : 163,70,255
Combo4 : 21,255,138

[HitObjects]
256,344,25403,1,8
128,344,25736,1,0
40,248,26070,1,8
40,120,26403,2,0,B|120:56|208:56,1,160,0|8
184,120,26903,2,2,B|184:224|288:224,2,160
40,248,28070,1,8
256,112,28736,1,8
256,240,29070,5,2
256,112,29403,1,10
368,56,29736,2,0,B|464:56,1,80
448,120,30070,1,8
448,184,30236,2,0,B|448:272|336:272,1,160
272,272,30736,1,8
88,336,31236,5,0
88,272,31403,1,8
88,144,31736,1,0
200,208,32070,1,8
256,328,32403,1,0
312,208,32736,1,8
312,208,32903,1,0
256,96,33236,1,0
256,96,33403,1,8
496,192,34070,5,8
448,312,34403,1,0
400,192,34736,1,8
360,312,35070,1,0
256,232,35403,1,8
64,64,36070,6,10,B|24:176|64:296|160:360,1,320
256,120,37403,1,8
256,184,37570,1,0
256,312,37903,1,0
256,184,38236,1,0
448,64,38736,6,2,B|488:176|448:296|352:360,1,320,8|8
256,280,39736,1,2
256,280,40069,1,10
320,168,40403,1,0
288,112,40569,1,0
224,112,40736,1,8
192,168,40903,1,0
256,280,41236,1,0
256,280,41403,1,8
56,56,42069,6,8,B|32:224|176:344,1,320
256,96,43403,1,8
256,160,43569,1,0
256,288,43903,1,8
256,224,44069,1,0
64,56,44736,5,8
184,104,45069,1,0
64,152,45403,1,2
184,200,45736,1,0
64,248,46069,1,10
184,296,46403,1,0
304,344,46736,6,2,B|392:352|464:280,1,160,10|2
432,40,47736,1,0
432,168,48069,1,8
320,104,48403,2,10,B|320:208|208:208,1,160
96,208,49069,6,0,B|96:376|240:376,1,240,2|0
415,210,50069,2,0,B|416:376|285:375,1,240,2|0
256,184,51069,1,0
256,184,51403,1,8
40,192,52069,6,2,B|104:248|104:136|192:216,1,160,10|2
440,192,53069,1,0
384,72,53403,1,8
256,64,53736,2,2,B|160:64|120:160,1,160,2|10
256,168,54403,5,0
256,296,54736,1,8
136,336,55069,1,0
56,232,55403,1,8
176,184,55736,2,2,B|256:248|256:104|344:208,1,160,2|10
408,88,56403,1,0
480,192,56736,1,8
480,320,57069,5,4
288,320,57569,1,0
96,320,58069,1,4
104,128,58569,1,0
296,128,59069,1,4
424,128,59403,1,0
360,240,59736,1,4
256,192,59903,12,0,61403
72,64,61736,5,0
184,128,62069,1,0
72,184,62403,1,0
72,312,62736,1,8
184,256,63069,1,0
256,360,63403,1,8
328,256,63736,1,0
440,312,64069,1,8
440,184,64403,1,0
256,144,64903,5,0
256,144,65069,1,2
256,16,65403,1,0
256,16,65569,1,0
144,80,65903,1,0
144,208,66236,2,2,B|144:328|272:328|272:208,1,240
400,208,67069,1,10
320,32,67569,5,0
320,32,67736,1,2
400,128,68069,1,8
400,256,68403,1,0
320,360,68736,1,8
320,360,68903,1,0
192,360,69236,1,0
112,256,69569,1,0
112,128,69903,5,0
224,192,70236,1,0
256,320,70569,1,0
288,192,70903,1,0
256,72,71236,1,0
384,80,71569,1,0
448,192,71903,1,2
448,192,72069,1,2
448,320,72403,1,0
192,320,73069,5,2
64,320,73403,1,8
64,192,73736,1,0
64,64,74069,1,8
64,64,74236,2,2,B|144:32|224:64,1,160
280,88,74736,2,2,B|336:168|272:256,1,160,8|8
128,352,75569,5,0
128,288,75736,2,2,B|296:288,1,160
288,224,76236,2,2,B|120:224,1,160
208,128,76903,1,0
336,128,77236,1,0
336,128,77403,1,0
432,208,77736,1,8
256,288,78236,5,2
256,288,78403,1,2
256,160,78736,1,8
256,32,79070,1,0
144,96,79403,1,8
144,96,79570,1,0
40,176,79903,1,0
80,296,80236,1,0
208,296,80570,5,2
256,176,80903,1,0
304,296,81236,1,2
256,176,81570,1,0
208,296,81903,1,2
256,176,82236,1,0
256,48,82570,1,0
256,48,82736,1,0
168,144,83070,1,0
80,232,83403,1,2
256,40,94736,5,8
384,40,95070,1,0
472,136,95403,1,8
472,264,95736,2,2,B|392:328|304:328,1,160,2|10
328,264,96236,2,2,B|328:160|224:160,2,160
472,136,97403,1,8
256,272,98070,1,8
256,144,98403,5,2
256,272,98736,1,10
144,328,99070,2,0,B|48:328,1,80
64,264,99403,1,8
64,200,99570,2,2,B|64:112|176:112,1,160
240,112,100070,1,10
424,48,100570,5,0
424,112,100736,1,8
424,240,101070,1,0
312,176,101403,1,8
256,56,101736,1,0
200,176,102070,1,8
200,176,102236,1,0
256,288,102570,1,0
256,288,102736,1,8
16,192,103403,5,8
64,72,103736,1,0
112,192,104070,1,8
152,72,104403,1,0
256,152,104736,1,8
448,320,105403,6,10,B|488:208|448:88|352:24,1,320
256,264,106736,1,8
256,200,106903,1,0
256,72,107236,1,0
256,200,107570,1,0
64,320,108070,6,2,B|24:208|64:88|160:24,1,320,10|10
256,104,109070,1,2
256,104,109403,1,10
192,216,109736,1,0
224,272,109903,1,0
288,272,110070,1,8
320,216,110236,1,0
256,104,110570,1,0
256,104,110736,1,8
456,328,111403,6,10,B|480:160|336:40,1,320
256,288,112736,1,8
256,224,112903,1,0
256,96,113236,1,8
256,160,113403,1,0
448,328,114070,5,8
328,280,114403,1,0
448,232,114736,1,2
328,184,115070,1,0
448,136,115403,1,8
328,88,115736,1,0
208,40,116070,6,2,B|120:32|48:104,1,160,10|0
80,344,117070,1,0
80,216,117403,1,8
192,280,117736,2,10,B|192:176|304:176,1,160
416,176,118403,6,0,B|416:8|272:8,1,240,2|0
96,173,119403,2,0,B|96:8|226:8,1,240,2|0
256,200,120403,1,2
256,328,120736,1,10
472,192,121403,6,2,B|408:136|408:248|320:168,1,160,8|0
72,192,122403,1,0
128,312,122736,1,8
256,320,123070,2,2,B|352:320|392:224,1,160,2|8
256,216,123736,5,0
256,88,124070,1,8
376,48,124403,1,0
456,152,124736,1,8
336,200,125070,2,2,B|256:136|256:280|168:176,1,160,2|10
104,296,125736,1,0
32,192,126070,1,8
32,64,126403,5,4
224,64,126903,1,0
416,64,127403,1,4
480,240,127903,1,0
288,248,128403,1,4
160,248,128736,1,0
224,136,129070,1,4
256,192,129236,12,0,130736
440,320,131070,5,0
328,256,131403,1,0
440,200,131736,1,0
440,72,132070,1,8
328,128,132403,1,0
256,24,132736,1,8
184,128,133070,1,0
72,72,133403,1,8
72,200,133736,1,0
256,240,134236,5,0
256,240,134403,1,2
256,368,134736,1,0
256,368,134903,1,0
368,304,135236,1,0
368,176,135570,2,2,B|368:56|240:56|240:176,1,240
112,176,136403,1,10
192,352,136903,5,0
192,352,137070,1,2
112,256,137403,1,8
112,128,137736,1,0
192,24,138070,1,8
192,24,138236,1,2
320,24,138570,1,0
400,128,138903,1,0
400,256,139236,5,0
288,192,139570,1,2
256,64,139903,1,0
224,192,140236,1,2
256,312,140570,1,0
128,304,140903,1,2
64,192,141236,1,2
64,192,141403,1,2
64,64,141736,1,2
320,64,142403,5,2
448,64,142736,1,8
448,192,143070,1,0
448,320,143403,1,8
448,320,143570,2,2,B|368:352|288:320,1,160
232,296,144070,2,2,B|176:216|240:128,1,160,8|8
384,32,144903,5,0
384,96,145070,2,2,B|216:96,1,160
224,160,145570,2,2,B|392:160,1,160
304,256,146236,1,0
176,256,146570,1,2
176,256,146736,1,2
80,176,147070,1,8
256,96,147570,5,0
256,96,147736,1,0
256,224,148070,1,8
256,352,148403,1,0
368,288,148736,1,8
368,288,148903,1,0
472,208,149236,1,0
432,88,149570,1,0
304,88,149903,5,0
256,208,150236,1,2
208,88,150570,1,0
256,208,150903,1,2
304,88,151236,1,0
256,208,151570,1,2
256,336,151903,1,0
256,336,152070,1,0
344,240,152403,1,0
432,152,152736,1,2
48,112,163736,6,0,B|136:184|8:264|72:344,1,240
256,328,164736,2,0,B|198:256|326:176|238:104,1,240
432,120,165736,1,0
432,120,166069,1,0
256,64,166736,5,0
256,64,167069,2,0,B|160:64|88:128|88:216,1,240
64,328,167903,2,0,B|160:360|232:320|256:224,1,240
384,240,168736,1,0
480,152,169069,6,0,B|392:80|376:208|256:112,1,240
36,152,170069,2,0,B|124:80|140:208|260:112,1,240
256,304,171069,1,0
256,176,171403,1,0
24,40,172069,5,0
152,40,172403,1,0
88,152,172736,1,0
216,152,173069,1,0
280,40,173403,1,0
344,152,173736,1,0
408,40,174069,1,0
472,152,174403,5,0
344,296,174903,1,0
256,128,175403,1,0
168,296,175903,1,0
256,128,176403,1,0
256,128,176736,1,0
256,256,177069,1,0
256,192,177236,12,0,179736
440,320,181736,5,0
328,256,182069,1,0
440,200,182403,1,0
440,72,182736,1,8
328,128,183069,1,0
256,24,183403,1,8
184,128,183736,1,0
72,72,184069,1,8
72,200,184403,1,0
256,240,184903,5,0
256,240,185069,1,2
256,368,185403,1,0
256,368,185569,1,0
368,304,185903,1,0
368,176,186236,2,2,B|368:56|240:56|240:176,1,240
112,176,187069,1,10
192,352,187569,5,0
192,352,187736,1,2
112,256,188069,1,8
112,128,188403,1,0
192,24,188736,1,8
192,24,188903,1,2
320,24,189236,1,0
400,128,189569,1,0
400,256,189903,5,0
288,192,190236,1,2
256,64,190569,1,0
224,192,190903,1,2
256,312,191236,1,0
128,304,191569,1,2
64,192,191903,1,0
64,192,192069,1,0
64,64,192403,1,2
320,64,193069,5,2
448,64,193403,1,8
448,192,193736,1,0
448,320,194069,1,8
448,320,194236,2,2,B|368:352|288:320,1,160
232,296,194736,2,2,B|176:216|240:128,1,160,8|8
384,32,195569,5,0
384,96,195736,2,2,B|216:96,1,160
224,160,196236,2,2,B|392:160,1,160
304,256,196903,1,2
176,256,197236,1,0
176,256,197403,1,0
80,176,197736,1,10
256,96,198236,5,0
256,96,198403,1,0
256,224,198736,1,8
256,352,199069,1,0
368,288,199403,1,8
368,288,199569,1,0
472,208,199903,1,0
432,88,200236,1,0
304,88,200569,5,0
256,208,200903,1,2
208,88,201236,1,0
256,208,201569,1,2
304,88,201903,1,0
256,208,202236,1,2
256,336,202569,5,0
256,336,202736,1,0
344,240,203069,1,0
168,240,203403,1,2
256,192,203736,12,0,205069
256,48,215736,5,10
256,176,216069,1,10
72,112,216569,6,0,B|48:200|96:296|176:312,1,240
256,224,217403,1,8
348,308,217736,1,0
256,224,218069,1,8
320,112,218403,5,2
192,112,218736,1,2
440,112,219236,6,0,B|464:200|416:296|336:312,1,240,0|0
256,224,220069,1,8
164,308,220403,1,0
256,224,220736,1,8
160,136,221069,5,2
32,136,221403,1,2
88,320,221903,2,0,B|200:224|192:352|320:280,1,240
256,168,222736,1,8
256,40,223069,1,0
256,168,223403,1,8
352,136,223736,5,2
480,136,224069,1,2
424,320,224569,1,0
311,284,224903,2,0,B|192:352|200:224|88:320,1,240
24,208,225736,1,8
24,80,226069,1,8
144,40,226403,5,2
256,104,226736,2,0,B|432:104|432:256|216:256,2,320,2|0|2
152,176,228403,1,0
152,304,228736,1,0
256,48,229069,5,2
256,176,229403,1,2
72,112,229903,6,0,B|48:200|96:296|176:312,1,240
256,224,230736,1,8
348,308,231069,1,0
256,224,231403,1,8
320,112,231736,5,2
192,112,232069,1,2
440,112,232569,6,0,B|464:200|416:296|336:312,1,240
256,224,233403,1,8
164,308,233736,1,0
256,224,234069,1,8
160,136,234403,5,2
32,136,234736,1,2
88,320,235236,2,0,B|200:224|192:352|240:296,1,160
256,248,235736,1,8
256,184,235903,1,0
256,120,236069,1,8
344,32,236403,1,0
432,120,236736,1,0
256,192,237069,12,0,239736
