osu file format v5

[General]
AudioFilename: Kaeshite! Knee Socks.mp3
AudioLeadIn: 0
PreviewTime: -1
Countdown: 0
SampleSet: Normal
StackLeniency: 0.7
Mode: 0

[Metadata]
Title:Kaeshite! Knee Socks
Artist:Lucky Star Cast
Creator:Mafiamaster
Version:Easy

[Difficulty]
HPDrainRate:5
CircleSize:3
OverallDifficulty:2
SliderMultiplier:1.1
SliderTickRate:2

[Events]
//Background and Video events
0,0,"lucky-star-152-prev.jpg"
//Break Periods
2,13950,23858
2,83617,93191
//Storyboard Layer 0 (Background)
//Storyboard Layer 1 (Failing)
//Storyboard Layer 2 (Passing)
//Storyboard Layer 3 (Foreground)
//Storyboard Sound Samples
//Background Colour Transformations
3,100,0,0,0

[TimingPoints]
14418,666.666666666667,4,1,0,100

[HitObjects]
256,32,3751,1,4
392,240,6417,5,4
88,240,9084,5,4
64,128,11751,6,2,C|288:128,1,220
368,128,13751,1,2
64,256,25417,5,0
128,192,26084,1,0
192,256,26751,2,2,B|224:288|224:288|256:224,1,110
296,152,28084,1,0
352,224,28751,1,2
408,296,29417,2,2,B|345:373|280:296,1,110
232,280,30751,5,0
176,352,31417,1,0
264,336,32084,2,0,B|322:365|354:301,2,110
224,256,34084,1,0
240,168,34751,2,2,B|242:182|242:150|339:214,1,110
408,264,36084,5,0
440,184,36751,1,0
456,96,37417,2,2,B|488:64|488:64|424:32,1,110
344,40,38751,1,0
264,80,39417,1,2
328,144,40084,2,2,B|391:221|456:144,1,110
448,88,41418,5,4
368,120,42084,1,0
304,184,42751,2,0,B|246:155|214:219,2,110
352,256,44751,1,4
288,312,45418,2,2,B|193:250|193:282|191:268,1,110
256,208,46751,6,0,C|321:144|257:80|196:140,1,275
144,208,49084,1,2
184,288,49751,2,2,B|188:310|284:246,1,110
240,168,51084,2,4,B|123:198|151:208,1,110
152,208,52084,5,2
152,208,52418,1,2
224,256,53084,1,4
312,256,53751,1,4
424,184,54751,5,0
456,104,55418,1,0
384,48,56084,1,0
304,88,56751,1,0
256,192,57084,12,0,59751
32,224,62418,5,4
96,168,63084,1,2
168,216,63751,1,0
240,168,64418,1,2
312,224,65084,1,4
376,160,65751,1,2
432,224,66418,1,0
488,152,67084,1,2
488,240,67751,5,4
432,168,68418,1,2
360,216,69084,1,0
296,152,69751,1,2
232,216,70418,1,4
168,160,71084,1,2
272,80,72084,2,2,B|304:48|336:48|368:80|400:112,1,110
368,88,73084,5,2
368,176,73751,1,4
288,208,74418,1,2
208,168,75084,1,4
256,88,75751,5,2
320,144,76418,1,4
344,232,77084,1,2
256,240,77751,1,6
256,240,78084,1,6
264,280,78418,6,4,B|360:280|392:280,1,110
416,280,79417,1,2
456,280,79751,2,4,B|456:152,1,110
416,144,80751,1,2
376,168,81084,2,0,B|241:361|113:169,1,330
88,144,83417,1,6
256,32,94751,5,0
216,112,95417,1,0
272,176,96084,1,0
224,248,96751,1,0
256,328,97417,1,0
336,296,98084,2,0,B|368:296|368:264|368:232|368:200,2,110
264,352,100084,5,0
232,264,100751,1,0
288,200,101417,1,0
216,144,102084,1,0
280,88,102751,1,0
192,112,103417,2,0,B|160:112|160:144|160:176|160:208,2,110
280,96,105417,5,0
352,144,106084,1,0
408,216,106751,1,0
368,296,107417,1,0
424,360,108084,1,0
336,360,108751,1,0
336,360,109084,2,0,B|208:360,1,110
224,360,110084,1,0
136,360,110751,1,0
64,312,111417,1,0
64,224,112084,1,0
64,136,112751,1,0
120,72,113417,1,0
208,72,114084,1,0
192,32,116417,5,0
272,64,117084,1,0
200,120,117751,1,0
280,152,118417,1,0
208,200,119084,1,0
288,232,119751,1,0
368,272,120417,1,0
368,272,120751,1,0
304,320,121418,6,0,C|288:256,1,55
192,224,122417,5,0
160,128,123084,1,0
184,40,124084,5,0
272,48,124751,1,0
224,120,125417,1,0
296,168,126084,1,0
296,168,126417,6,0,B|328:136|360:168|328:200|296:232|264:200|232:168|264:136|296:104|328:72|360:104|392:136|424:168|392:200|360:232|328:264|296:296|264:264|232:232|200:200|168:168|200:136|232:104|264:72|296:40|328:8|360:40|392:72|424:104|456:136|488:168|456:200|424:232|392:264|360:296|328:328|296:360,1,880
224,360,132417,1,4
176,352,132751,1,4
128,352,133084,2,4,B|128:224,1,110
216,240,134417,1,4
256,240,134751,1,4
296,240,135084,2,4,B|-31:240,1,220
72,328,137084,5,4
112,248,137751,1,4
144,216,138084,1,4
184,200,138417,2,4,B|184:72,1,110
264,56,139751,1,4
344,96,140417,1,4
376,128,140751,1,4
400,160,141084,2,4,B|400:288,1,110
160,224,142417,5,0
224,280,143084,1,0
304,312,143751,1,0
384,280,144417,1,0
400,192,145084,5,0
344,120,145751,1,0
264,88,146417,1,0
184,120,147084,1,0
144,200,147751,2,2,C|320:200,1,165
320,240,149084,2,2,C|147:240,1,165
112,240,150417,1,0
128,152,151084,1,0
200,96,151751,1,0
288,96,152417,1,0
288,96,152751,1,4
