osu file format v5

[General]
AudioFilename: Motteke! Sailor Fuku (REDALiCE R2emix)v2.mp3
AudioLeadIn: 0
PreviewTime: -1
Countdown: 1
SampleSet: Normal
StackLeniency: 0.7
Mode: 0
LetterboxInBreaks: 1
EditorBookmarks: 49810,61213,72266

[Metadata]
Title:Motteke! Sailor Fuku (REDALiCE Remix)
Artist:Lucky Star
Creator:happy30
Version:Normal
Source:
Tags:

[Difficulty]
HPDrainRate:2
CircleSize:3
OverallDifficulty:5
SliderMultiplier:1.2
SliderTickRate:2

[Events]
//Background and Video events
0,0,"1221453422322.jpg"
//Break Periods
2,99792,105052
2,116985,122026
//Storyboard Layer 0 (Background)
//Storyboard Layer 1 (Failing)
//Storyboard Layer 2 (Passing)
//Storyboard Layer 3 (Foreground)
//Storyboard Sound Samples
//Background Colour Transformations
3,100,0,0,0

[TimingPoints]
4871,350.877192982456,4,1,0,100,1,0
150820,-100,4,1,0,100,0,1
171873,-100,4,1,0,100,0,0

[Colours]
Combo1 : 210,0,0
Combo2 : 128,0,128
Combo3 : 128,0,0
Combo4 : 0,128,0

[HitObjects]
256,80,4870,2,0,B|80:272,1,240,0|0
256,80,6274,2,0,B|440:280,1,240,0|0
418,256,7151,1,2
256,344,7678,6,0,B|192:248|192:248|152:304|152:304|88:224,1,240,0|0
256,344,9081,2,0,B|320:248|320:248|360:304|360:304|424:224,1,240,0|0
394,260,9958,1,2
392,136,10309,5,0
392,136,10485,1,4
392,136,10660,1,0
272,136,11011,1,0
272,136,11186,1,4
272,136,11362,1,0
152,136,11713,1,0
152,136,11888,1,4
152,136,12063,1,2
152,136,12239,2,2,B|152:288,1,120
320,192,13116,5,0
320,192,13292,1,4
496,192,13818,1,0
496,192,13993,1,4
272,96,14695,2,0,B|192:88,1,60,2|0
160,120,15046,2,0,B|112:176,1,60,0|2
104,224,15397,2,0,B|144:280,1,60,2|0
192,288,15748,1,2
256,184,16099,5,8
376,184,16449,1,0
496,184,16800,1,10
496,184,16976,1,0
496,184,17151,1,2
416,272,17502,1,8
296,272,17853,1,0
176,264,18204,1,10
176,264,18379,1,0
176,264,18555,1,2
80,192,18906,6,0,B|80:120,1,60,8|0
80,72,19256,1,2
168,152,19607,2,0,B|232:104,1,60,8|0
264,72,19958,1,2
248,192,20309,2,8,B|328:192,1,60,8|2
288,248,20660,2,0,B|344:296,1,60,8|2
272,288,21011,2,8,B|272:352,1,60,8|10
208,360,21362,1,2
120,280,21713,5,8
120,160,22063,1,0
120,40,22414,1,10
120,40,22590,1,0
120,40,22765,1,2
216,112,23116,1,8
336,112,23467,1,0
456,112,23818,1,10
456,112,23993,1,0
456,112,24169,1,2
408,224,24520,6,0,B|320:224,1,60,0|2
288,224,24870,2,0,B|216:224,1,60,8|2
168,224,25221,2,0,B|104:224,1,60,0|2
48,224,25572,1,8
112,120,25923,2,2,B|176:64|288:48|360:80|400:112|432:160,1,360,2|6
432,280,27327,5,8
312,280,27678,1,0
192,280,28028,1,10
128,280,28204,1,0
64,280,28379,1,10
56,160,28730,1,8
176,160,29081,1,0
296,160,29432,1,10
352,160,29607,1,0
408,160,29783,1,10
352,264,30134,6,0,B|304:304,1,60,8|0
256,336,30485,1,4
264,216,30835,2,0,B|208:176,1,60,8|0
160,152,31186,1,4
264,104,31537,2,0,B|288:48,1,60,8|2
336,88,31888,2,0,B|408:56,1,60,8|2
384,120,32239,2,0,B|464:160,1,60,8|10
488,176,32590,1,4
440,328,32941,5,4
72,320,34344,1,4
256,48,35748,5,4
256,168,36099,1,4
256,288,36449,1,4
136,288,36800,1,4
136,168,37151,2,4,B|72:168,6,60
256,168,38555,5,2
376,168,38906,1,8
376,288,39256,1,2
256,288,39607,1,8
256,168,39958,1,2
256,48,40309,1,8
136,48,40660,1,2
136,168,41011,1,2
256,168,41362,5,8
256,168,41537,1,8
312,168,41713,1,2
312,168,41888,1,2
368,168,42063,2,8,B|440:168,1,60
488,168,42414,1,2
488,168,42590,1,2
488,224,42765,6,0,B|488:296|488:296|392:296,1,120,8|2
320,296,43467,2,0,B|248:296|248:296|248:240,1,120,2|10
256,128,44169,1,4
88,304,44870,1,4
80,64,45572,1,4
320,64,46274,5,4
440,64,46625,1,4
440,184,46976,1,8
320,184,47327,1,0
320,304,47678,1,8
200,312,48028,1,0
80,312,48379,1,8
80,192,48730,1,8
200,192,49081,2,2,B|272:192,2,60
352,104,49958,5,0
352,104,50134,1,0
376,216,50485,1,2
312,280,50748,1,8
224,304,51011,1,2
128,232,51362,1,0
128,232,51537,1,0
128,112,51888,1,2
208,72,52151,1,8
296,72,52414,1,2
384,152,52765,5,0
384,152,52940,1,2
272,208,53291,1,2
224,288,53555,1,8
296,336,53818,1,2
416,336,54169,1,0
416,336,54344,1,0
416,216,54695,1,2
416,128,54958,1,8
416,40,55221,1,2
296,40,55572,5,4
128,112,56099,1,2
184,184,56362,1,8
128,256,56625,1,2
248,256,56976,1,0
304,256,57151,1,8
424,256,57502,1,2
392,168,57765,1,8
424,80,58028,1,2
360,80,58204,6,0,B|232:80,1,120,2|8
144,152,58906,2,0,B|280:152,1,120,2|8
360,224,59607,2,2,B|280:224,2,60,2|2|10
272,304,60309,2,2,B|200:304,2,60,2|10|10
256,112,61186,5,0
256,112,61362,1,8
256,112,61537,1,0
256,112,61713,2,0,B|192:112|192:112|176:176,1,120,2|8
160,224,62239,2,0,B|144:296|144:296|256:296,1,180,10|8
312,296,62941,1,0
368,296,63116,2,0,B|440:296|440:296|408:248,1,120,10|0
376,208,63642,2,2,B|288:112,1,120,10|2
232,112,64169,6,2,B|160:112,2,60,10|10|2
232,168,64695,2,2,B|232:232,2,60,2|10|14
112,168,65397,1,4
288,328,66099,6,0,B|352:312|360:232|360:216,1,120,0|2
208,152,66976,2,0,B|152:208|232:240,1,60,0|10
360,256,67678,2,0,B|400:208|352:168,1,60,8|2
352,80,68204,1,0
280,176,68555,1,4
160,312,69081,1,2
96,208,69432,1,8
96,88,69783,1,0
96,88,69958,1,4
392,88,70835,5,12
392,208,71186,1,4
272,208,71537,1,12
272,208,71713,1,4
272,208,71888,1,6
152,192,72239,5,14
208,296,72590,1,0
328,296,72941,1,10
392,192,73292,1,0
328,96,73642,1,10
208,96,73993,1,0
152,192,74344,1,10
48,216,74695,5,8
48,216,74870,1,2
112,112,75221,1,8
112,112,75397,1,10
112,112,75572,1,10
112,112,75748,1,2
136,232,76099,1,0
136,232,76274,1,10
136,352,76625,2,2,B|336:352,1,180
376,352,77327,5,4
376,352,77502,1,4
376,352,77678,1,12
376,168,78204,1,0
376,168,78379,1,10
192,168,78906,1,8
192,168,79081,2,2,B|96:168|96:168|64:256,1,180
144,336,79958,1,8
264,336,80309,1,10
384,336,80660,1,0
296,256,81011,5,0
296,256,81186,2,0,B|488:184|456:-8|376:104|376:104|280:0|192:176|496:256,1,660
400,312,83467,5,4
400,312,83642,1,4
400,312,83818,1,12
400,312,83993,1,4
336,312,84169,2,0,B|192:312,1,120,2|8
152,304,84695,2,0,B|56:200,1,120,2|0
56,152,85221,1,8
56,152,85397,1,0
56,152,85572,1,2
152,80,85923,1,8
152,80,86099,1,2
256,144,86449,5,0
256,144,86625,1,8
256,144,86800,2,0,B|304:168|312:200,1,60,0|2
368,280,87327,1,8
368,280,87502,2,0,B|248:336,1,120,0|2
56,192,88555,5,0
56,192,88730,1,8
56,192,88906,2,0,B|104:56,1,120,2|0
152,56,89432,2,0,B|224:56,1,60,8|2
392,56,90134,1,8
392,56,90309,1,2
328,152,90660,1,0
408,240,91011,1,2
248,320,91537,1,2
176,224,91888,6,2,B|104:112,1,120,10|2
112,64,92414,2,2,B|128:16|192:0|232:32|232:104,1,180,2|10
288,88,93116,2,2,B|289:24|329:-16|457:8|401:120,1,240,10|2
368,160,93993,2,4,B|280:264,1,120
192,184,94695,5,0
312,184,95046,1,0
256,80,95397,1,0
256,80,95572,1,0
256,200,95923,2,4,B|256:240,2,30
256,320,96449,2,4,B|256:360,2,30
360,256,96976,5,4
360,136,97327,1,0
360,72,97502,1,0
296,72,97678,1,2
296,128,97853,1,2
232,136,98028,5,0
168,136,98204,1,0
168,192,98379,1,2
232,192,98555,1,2
296,192,98730,5,0
360,192,98906,2,6,B|424:192,4,60
408,88,105923,5,2
408,208,106274,1,8
408,328,106625,1,2
280,328,106976,1,8
216,328,107151,2,2,B|128:328,2,60
216,264,107678,1,8
216,144,108028,2,2,B|216:72,2,60,2|2|10
272,144,108555,1,0
328,144,108730,6,0,B|400:144,1,60,2|0
384,200,109081,2,0,B|312:200,1,60,10|0
296,256,109432,2,2,B|296:328,1,60
232,312,109783,2,2,B|232:240,1,60,10|2
232,192,110134,2,0,B|168:56|168:56|312:56|312:56|264:144,1,360,0|4
344,216,111537,5,0
344,336,111888,1,0
224,336,112239,1,0
224,216,112590,1,2
288,112,112941,5,8
288,232,113292,1,0
168,232,113642,1,8
168,112,113993,1,2
96,200,114344,6,0,B|96:272,1,60,8|0
96,320,114695,2,2,B|160:320,1,60
216,320,115046,2,0,B|288:320,1,60,8|0
336,320,115397,2,2,B|336:248,1,60,2|10
336,200,115748,1,8
216,200,116099,1,2
96,200,116449,2,4,B|56:200,4,30
128,96,122941,5,0
104,152,123116,1,0
160,256,123467,1,2
240,288,123730,1,8
304,224,123993,1,2
312,104,124344,1,0
368,104,124520,1,0
448,192,124870,1,2
416,280,125134,1,8
336,328,125397,1,2
232,272,125748,5,0
176,240,125923,1,0
104,144,126274,1,2
128,56,126537,1,8
192,120,126800,1,2
312,128,127151,1,0
336,184,127327,1,0
376,296,127678,1,2
288,272,127941,1,8
208,312,128204,1,2
104,232,128555,5,0
208,88,129081,1,2
272,152,129344,1,8
328,80,129607,1,2
408,168,129958,1,0
408,224,130134,1,0
320,304,130485,1,2
232,312,130748,1,8
152,264,131011,1,2
88,264,131186,6,0,B|88:192,3,60,8|0|8|0
88,144,131888,2,4,B|88:72,3,60,12|4|12|4
88,24,132590,2,2,B|224:24,1,120
296,112,133292,2,4,B|160:112,1,120,12|4
232,280,134169,5,0
232,280,134344,1,8
232,280,134520,1,0
232,280,134695,2,0,B|344:280|360:232,1,120,10|0
384,208,135221,2,0,B|400:144|352:72,1,120,2|0
312,64,135748,2,0,B|264:40|240:56|240:48,1,60,8|2
192,48,136099,2,0,B|136:64|88:128,1,120,10|0
80,176,136625,2,0,B|72:248|112:288|144:296,1,120,0|2
176,304,137151,6,0,B|248:328,2,60,8|0|8
184,240,137678,2,2,B|184:160,1,60
184,120,138028,2,2,B|320:120,1,120
416,328,139081,5,0
416,328,139256,1,8
416,328,139432,2,0,B|288:328,1,120,2|0
248,296,139958,1,0
200,256,140134,2,0,B|64:256,1,120,10|2
48,200,140660,1,0
80,144,140835,2,0,B|208:144,1,120,10|0
320,144,141537,5,10
496,144,142063,1,2
496,264,142414,1,2
376,264,142765,1,0
376,264,142941,1,4
256,192,143467,12,4,145221
256,192,145923,5,4
16,192,146625,1,4
256,192,147327,1,4
496,192,148028,1,4
256,192,148730,1,4
104,248,149432,5,6
160,248,149607,1,4
216,248,149783,1,6
272,248,149958,5,4
328,248,150134,1,6
384,248,150309,1,6
440,248,150485,1,6
440,128,150835,5,0
392,88,151011,1,0
336,56,151186,2,0,B|296:48|256:48|216:48|192:56,1,120,10|8
104,96,151888,2,0,B|72:136|64:176,1,60,0|2
112,256,152414,1,0
224,288,152765,1,8
280,304,152941,6,0,B|336:312|360:304,2,60,0|0|8
280,240,153467,2,0,B|272:192|320:136|344:120,1,120,2|0
368,96,153993,2,0,B|400:56|424:48,2,60,0|0|2
440,192,154695,1,8
440,192,154870,2,0,B|392:224|352:208|312:184,1,120,2|8
112,80,155923,5,0
96,136,156099,1,0
112,192,156274,2,0,B|120:248|160:280|208:288,1,120,14|0
240,304,156800,2,0,B|304:304,1,60,0|2
440,208,157502,5,0
440,208,157678,2,0,B|480:144|448:80,1,120,10|0
344,48,158379,2,0,B|256:32|184:40|160:56,1,180,0|2
120,160,159256,1,12
192,256,159607,1,4
248,256,159783,2,0,B|344:248|352:168|336:120|272:104|224:120,1,240,2|8
256,192,160660,12,4,161713
344,296,162063,6,0,B|384:264|384:240,1,60,10|0
400,192,162414,2,0,B|416:136|400:120,1,60,8|2
384,80,162765,2,0,B|328:16|264:32,1,120,10|8
216,32,163292,2,0,B|168:24|128:64|104:88,1,120,2|8
112,200,163993,6,0,B|72:232|32:232,2,60,8|0|8
168,192,164520,1,0
224,192,164695,2,0,B|360:192,1,120,10|0
400,192,165221,2,0,B|440:192|456:216,2,60,0|0|10
304,272,165923,1,0
304,272,166099,2,0,B|216:304|184:264,1,120,10|0
80,56,167151,6,0,B|80:136,1,60,0|8
80,176,167502,2,0,B|224:176,1,120,2|8
256,176,168028,1,8
288,224,168204,2,0,B|160:224,1,120,2|8
104,224,168730,1,8
144,272,168906,6,0,B|272:272,1,120,2|0
384,272,169607,2,0,B|440:200|424:120|392:88,1,180,2|2
280,96,170485,1,0
160,96,170835,2,4,B|80:96,1,60
256,192,171537,12,4,172941
320,200,173292,5,0
200,200,173643,1,0
256,304,173994,1,0
256,304,174169,1,0
256,184,174520,2,4,B|256:144,2,30
256,64,175046,2,4,B|256:24,2,30
152,128,175573,5,4
152,248,175924,1,0
152,312,176099,1,0
216,312,176275,1,2
216,256,176450,1,2
280,248,176625,5,0
344,248,176801,1,0
344,192,176976,1,2
280,192,177152,1,2
216,192,177327,5,0
152,192,177503,2,6,B|88:192,4,60
