osu file format v7

[General]
AudioFilename: Motteke! Sailor Fuku (REDALiCE R2emix)v2.mp3
AudioLeadIn: 0
PreviewTime: -1
Countdown: 1
SampleSet: Normal
StackLeniency: 0.7
Mode: 0
LetterboxInBreaks: 1
EpilepsyWarning: 1

[Editor]
Bookmarks: 27312,49810,61213,72266
DistanceSpacing: 1.20000004768372
BeatDivisor: 4
GridSize: 8

[Metadata]
Title:Motteke! Sailor Fuku (REDALiCE Remix)
Artist:Lucky Star
Creator:happy30
Version:Crazy
Source:
Tags:

[Difficulty]
HPDrainRate:5
CircleSize:5
OverallDifficulty:7
SliderMultiplier:1.8
SliderTickRate:2

[Events]
//Background and Video events
0,0,"1221453422322.jpg"
//Break Periods
2,99807,105023
2,117000,122041
//Storyboard Layer 0 (Background)
//Storyboard Layer 1 (Fail)
//Storyboard Layer 2 (Pass)
//Storyboard Layer 3 (Foreground)
Sprite,Foreground,Centre,"white.png",320,240 M,0,150733,,320,240 F,0,150733,151698,1,0 F,0,151698,,0
Sprite,Foreground,Centre,"white.png",320,240 M,0,148013,,320,240 F,0,148013,148101,1,0 F,0,148101,148189,0,1 F,0,148189,148277,1,0 F,0,148277,148364,0,1 F,0,148364,148452,1,0 F,0,148452,148540,0,1 F,0,148540,148627,1,0 F,0,148627,148715,0,1 F,0,148715,148803,1,0 F,0,148803,148891,0,1 F,0,148891,148978,1,0 F,0,148978,149066,0,1 F,0,149066,149154,1,0 F,0,149154,149241,0,1 F,0,149241,149329,1,0 F,0,149329,149417,0,1 F,0,149417,149505,1,0.1400001 F,0,149505,149592,0.1400001,1 F,0,149592,149680,1,0 F,0,149680,149768,0,1 F,0,149768,149855,1,0 F,0,149855,149943,0,1 F,0,149943,150031,1,0 F,0,150031,150119,0,1 F,0,150119,150206,1,0 F,0,150206,150294,0,1 F,0,150294,150382,1,0 F,0,150382,150470,0,1
Sprite,Foreground,Centre,"white.png",320,240 M,0,145206,,320,240 F,0,145206,145382,1,0
Sprite,Foreground,Centre,"white.png",320,240 F,0,147312,147487,1,0
Sprite,Foreground,Centre,"white.png",320,240 F,0,146610,146785,1,0
Sprite,Foreground,Centre,"white.png",320,240 F,0,145908,146084,1,0
//Storyboard Sound Samples
//Background Colour Transformations
3,100,0,0,0

[TimingPoints]
4871,350.877192982456,4,1,0,100,1,0
150835,-100,4,1,0,100,0,1
173292,-100,4,1,0,100,0,0

[Colours]
Combo1 : 191,0,0
Combo2 : 128,0,128
Combo3 : 128,0,0
Combo4 : 0,128,0

[HitObjects]
120,304,4870,2,0,B|344:304,1,180
480,304,5572,1,0
480,304,5748,1,0
392,144,6099,1,0
312,104,6274,2,0,B|264:136|320:200|400:240|304:272|240:248|200:176|152:120|160:80,1,360
72,56,7151,1,0
72,232,7502,5,0
72,320,7678,2,0,B|264:320,1,180
384,320,8292,1,0
384,320,8379,1,0
384,184,8642,1,0
384,48,8906,1,0
296,48,9081,2,0,B|296:136|272:176|224:152|208:88|224:24|144:16|112:64|128:168|136:184,1,360
152,272,9958,1,0
328,248,10309,5,0
328,160,10485,1,4
328,72,10660,1,0
152,112,11011,1,0
152,200,11186,1,4
152,288,11362,1,0
32,152,11713,1,0
104,200,11888,1,4
176,152,12063,1,0
248,208,12239,1,0
320,152,12414,1,0
384,208,12590,1,0
456,40,12941,5,0
368,40,13116,2,0,B|368:136,1,90,0|4
192,104,13642,1,0
104,104,13818,2,0,B|104:208,1,90,0|4
264,312,14344,5,0
352,312,14520,1,0
432,312,14695,2,0,B|480:328,4,45
432,224,15221,1,0
352,224,15397,2,0,B|352:176,2,45
264,224,15748,1,0
256,40,16099,5,8
336,72,16274,1,0
336,72,16362,1,0
336,72,16449,1,8
416,40,16625,1,0
448,120,16800,1,0
448,120,16888,1,0
448,120,16976,2,0,B|384:208,1,90,8|8
288,328,17502,5,8
208,288,17678,1,0
208,288,17765,1,0
208,288,17853,1,8
128,328,18028,1,0
48,288,18204,1,0
48,288,18292,1,0
48,288,18379,2,0,B|72:176,1,90,8|8
184,64,18906,5,8
272,64,19081,1,0
272,64,19169,1,0
272,64,19256,1,8
232,144,19432,1,0
320,144,19607,1,8
368,64,19783,1,0
368,64,19870,1,0
368,64,19958,1,8
408,144,20134,1,8
448,224,20309,5,0
384,288,20485,1,0
384,288,20572,1,0
384,288,20660,1,8
296,288,20835,1,0
296,288,20923,1,0
296,288,21011,1,8
208,288,21186,2,0,B|176:248|256:224|176:184,1,90,8|8
80,72,21713,5,8
136,136,21888,1,0
136,136,21976,1,0
136,136,22063,1,8
80,208,22239,1,0
168,216,22414,1,8
168,216,22502,1,0
168,216,22590,2,0,B|168:320,1,90,0|8
312,184,23116,5,8
368,112,23292,1,0
368,112,23379,1,0
368,112,23467,1,8
424,184,23642,1,0
480,256,23818,1,8
480,256,23906,1,0
480,256,23993,2,0,B|368:256,1,90,0|8
208,288,24520,5,8
120,288,24695,1,0
120,288,24783,1,0
120,288,24870,1,8
32,288,25046,1,0
80,216,25221,1,8
168,216,25397,1,0
168,216,25485,1,0
168,216,25572,1,8
128,136,25748,1,8
64,80,25923,2,0,B|144:-32|208:88,1,180
248,160,26449,2,0,B|272:200,6,45,0|0|8|0|0|0|8
352,304,27327,5,8
392,224,27502,1,0
392,224,27590,1,0
392,224,27678,1,8
432,144,27853,1,8
408,56,28028,1,0
408,56,28116,1,0
408,56,28204,2,8,B|352:136,1,90
240,272,28730,5,8
152,240,28906,1,0
152,240,28993,1,0
152,240,29081,1,8
64,208,29256,1,8
144,168,29432,1,0
144,168,29520,1,0
144,168,29607,2,8,B|48:120,1,90
240,80,30134,6,0,B|240:32,2,45,8|0|0
312,128,30485,1,8
312,128,30572,1,0
312,128,30660,1,0
392,88,30835,2,0,B|392:40,2,45,8|0|0
392,176,31186,1,8
392,176,31274,1,0
392,176,31362,1,0
464,232,31537,2,0,B|520:232,2,45,8|0|0
392,288,31888,2,0,B|392:344,2,45,0|8|8
320,224,32239,1,8
232,224,32414,1,0
208,136,32590,1,4
376,48,32941,6,0,B|432:80|440:120,1,90
448,200,33292,2,0,B|448:256|384:288,1,90
320,296,33642,2,0,B|312:344|352:352,2,45,8|0|8
232,264,33993,1,0
152,224,34169,1,0
80,168,34344,6,0,B|24:120|24:64,1,90
104,48,34695,2,0,B|168:80|184:120,1,90
256,64,35046,2,0,B|312:40|280:16,2,45,8|0|8
344,88,35397,1,0
264,136,35572,1,0
200,192,35748,6,0,B|160:240|192:288,1,90,8|0
272,296,36099,2,0,B|312:256|288:208,1,90
248,136,36449,2,0,B|232:80|280:56,1,90,8|0
360,96,36800,2,0,B|360:152|304:168,1,90
224,160,37151,2,0,B|144:144,8,45,8|0|0|0|0|0|8|8|8
152,104,38028,1,8
88,40,38204,1,0
80,192,38555,5,4
256,320,38906,1,0
432,192,39256,1,2
256,64,39607,1,0
136,128,39870,1,0
136,128,39958,1,2
176,208,40134,1,0
256,192,40309,1,2
344,216,40485,1,2
304,296,40660,1,0
256,304,40748,1,0
216,304,40835,1,0
128,280,41011,1,2
40,264,41186,1,2
80,344,41362,5,8
352,344,41713,1,0
352,72,42063,1,10
80,72,42414,1,0
280,256,42765,1,2
312,168,42941,1,0
224,184,43116,1,8
304,224,43292,1,2
264,144,43467,1,8
232,232,43642,1,0
160,288,43818,1,4
64,136,44169,6,0,B|48:72|88:24|144:72|128:136,1,180,0|2
304,136,44870,2,0,B|288:72|328:24|384:72|368:136,1,180,0|2
288,296,45572,2,0,B|256:360|232:288,1,90
192,208,45923,1,2
352,128,46274,2,0,B|384:168,2,45
296,56,46625,1,2
56,64,46976,5,4
104,136,47151,1,0
184,96,47327,1,2
208,184,47502,1,0
296,160,47678,1,0
312,248,47853,1,0
400,216,48028,1,2
432,296,48204,1,2
480,216,48379,2,0,B|480:120,3,90,2|0|0|2
392,120,49081,5,0
344,120,49169,1,0
296,120,49256,1,0
248,120,49344,1,0
200,120,49432,1,4
360,336,49958,5,0
224,336,50134,1,0
88,104,50485,1,2
88,304,50748,1,0
288,304,51011,1,0
152,56,51362,1,0
288,56,51537,1,0
80,232,51888,1,2
280,232,52151,1,0
480,232,52414,1,0
256,72,52765,5,0
392,72,52941,1,0
360,336,53292,1,2
160,336,53555,1,0
256,160,53818,1,0
56,344,54169,1,0
56,208,54344,1,0
328,208,54695,1,2
192,56,54958,1,0
56,208,55221,1,0
256,24,55572,5,4
24,352,56099,1,2
224,352,56362,1,0
424,352,56625,1,2
320,96,56976,1,0
184,96,57151,1,2
88,352,57502,1,2
256,240,57765,1,0
424,352,58028,2,0,B|424:256,1,90,2|0
424,168,58379,5,0
424,80,58555,1,0
336,80,58730,1,0
336,128,58818,1,0
336,168,58906,1,2
336,256,59081,1,0
248,256,59256,1,0
248,168,59432,1,0
248,80,59607,2,0,B|136:80,1,90,2|0
64,80,59958,2,0,B|104:176,1,90,2|2
64,248,60309,1,2
80,288,60397,1,0
112,368,60572,1,4
480,48,61011,5,0
472,344,61713,1,0
48,336,62414,1,0
48,40,63116,1,0
224,40,63467,1,0
312,40,63642,1,8
256,208,63993,5,2
192,272,64169,1,0
280,288,64344,1,0
344,224,64520,1,10
312,136,64695,1,0
224,128,64870,1,8
160,192,65046,1,10
48,336,65397,1,0
480,48,66099,5,0
392,64,66274,1,0
456,128,66449,2,0,B|464:232|424:288|376:312,1,180,8|0
312,312,66976,1,8
224,312,67151,2,0,B|168:280|144:240,1,90,8|8
96,184,67502,1,0
88,96,67678,1,0
160,48,67853,2,0,B|248:120|328:88,1,180,0|8
416,96,68379,2,0,B|464:144|432:192,1,90,0|8
416,256,68730,2,0,B|344:304|288:288|256:232,1,180,8|0
160,88,69432,1,0
352,88,69783,1,0
256,136,69958,1,0
256,192,70309,12,4,71888
256,80,72239,5,4
336,112,72414,1,0
272,176,72590,1,8
352,216,72765,1,0
280,272,72941,1,8
216,336,73116,1,8
160,264,73292,1,8
80,304,73467,1,0
32,224,73642,5,0
96,160,73818,1,0
56,80,73993,1,8
136,48,74169,1,0
208,96,74344,1,0
288,56,74520,1,8
312,144,74695,1,8
400,152,74870,1,8
376,240,75046,5,0
424,312,75221,1,0
336,336,75397,1,0
248,304,75572,1,8
224,216,75748,1,8
136,216,75923,1,0
96,136,76099,1,8
152,64,76274,6,0,B|240:56|296:64|344:80,1,180,8|0
408,120,76800,1,0
368,200,76976,1,0
424,272,77151,1,8
344,312,77327,1,8
280,248,77502,1,8
232,320,77678,5,0
144,312,77853,1,0
80,248,78028,1,0
136,176,78204,1,8
88,96,78379,1,0
168,56,78555,1,0
256,72,78730,1,0
344,48,78906,1,8
416,96,79081,6,0,B|472:200|400:280,1,180,0|8
328,304,79607,1,0
240,320,79783,2,0,B|280:232|232:144|136:120|80:136,1,270,8|0
72,216,80485,1,0
56,304,80660,6,0,B|152:296,1,90,8|0
192,216,81011,1,0
280,192,81186,2,0,B|376:184,1,90,8|0
376,96,81537,1,0
288,64,81713,2,0,B|176:72,1,90,8|0
120,112,82063,1,8
56,176,82239,2,0,B|80:280,1,90,0|8
160,224,82590,2,0,B|216:304,1,90,8|0
304,304,82941,2,0,B|376:304,2,45,8|0|8
408,152,83467,5,4
336,96,83642,1,0
248,128,83818,1,8
176,64,83993,1,0
104,112,84169,1,8
152,184,84344,1,8
80,240,84520,1,0
104,328,84695,5,8
184,296,84870,1,0
264,336,85046,1,0
320,264,85221,1,0
400,304,85397,1,8
448,224,85572,1,8
400,144,85748,1,0
424,56,85923,1,8
336,48,86099,5,8
264,104,86274,1,0
176,72,86449,1,0
144,160,86625,1,8
72,208,86800,1,8
56,296,86976,2,0,B|136:312|184:304,1,90
232,304,87327,1,8
312,272,87502,2,0,B|384:240|400:184|400:144|392:112,1,180,8|0
328,64,88028,5,0
248,112,88204,1,0
296,184,88379,1,8
208,200,88555,1,0
128,152,88730,1,8
72,224,88906,2,0,B|128:304,1,90,8|0
208,328,89256,1,0
296,328,89432,2,0,B|368:272,1,90,8|0
408,192,89783,1,8
384,104,89958,1,0
304,64,90134,1,0
216,64,90309,6,0,B|112:96,1,90,0|8
80,168,90660,1,0
152,224,90835,2,0,B|240:184,1,90,8|0
304,240,91186,1,0
328,328,91362,1,0
392,264,91537,1,8
424,344,91713,1,0
480,272,91888,6,0,B|480:160,1,90,8|0
480,88,92239,1,0
392,88,92414,2,0,B|296:88,1,90,8|0
208,88,92765,1,0
208,176,92941,2,0,B|208:272,1,90,8|0
120,272,93292,2,0,B|120:176,1,90,8|0
32,184,93642,2,0,B|32:288,1,90,8|0
72,352,93993,2,0,B|16:368,2,45,8|0|8
160,352,94344,1,0
336,344,94695,5,4
344,160,95046,1,0
184,248,95397,1,0
272,248,95572,1,0
448,248,95923,1,0
448,248,96011,1,0
448,248,96099,1,4
360,248,96274,1,0
272,248,96449,1,0
272,248,96537,1,0
272,248,96625,1,0
88,248,96976,1,0
88,64,97327,5,0
176,64,97502,1,4
240,128,97678,1,0
328,128,97853,1,0
280,200,98028,1,0
192,200,98204,1,4
144,272,98379,1,0
232,272,98555,1,0
304,320,98730,1,0
352,248,98906,1,4
408,320,99081,1,0
456,248,99256,1,0
408,168,99432,1,0
464,96,99607,1,0
64,56,105923,5,0
456,56,106274,1,0
464,344,106625,1,0
64,344,106976,1,0
160,152,107327,1,0
376,152,107678,1,0
256,352,108028,1,0
256,352,108116,1,0
256,352,108204,1,0
256,264,108379,1,0
256,176,108555,1,0
224,88,108730,5,8
296,136,108906,1,0
224,192,109081,1,8
296,248,109256,1,0
224,304,109432,1,8
304,352,109607,1,0
376,296,109783,1,0
296,248,109958,1,0
352,176,110134,2,0,B|320:128|384:96,1,90,8|0
464,112,110485,2,0,B|520:152|440:192,1,90,0|8
464,272,110835,1,0
384,312,111011,2,0,B|360:360|280:336,1,90,8|0
216,32,111537,5,4
288,88,111713,1,0
208,136,111888,1,0
280,192,112063,1,0
208,248,112239,1,0
280,304,112414,1,0
216,368,112590,1,2
64,264,112941,5,4
104,184,113116,1,0
192,208,113292,1,0
232,128,113467,1,0
320,152,113642,1,0
360,72,113818,1,2
448,96,113993,1,2
368,256,114344,6,0,B|288:312,1,90,4|0
288,216,114695,2,0,B|208:272,1,90,4|0
120,280,115046,2,0,B|64:192,1,90,0|0
160,200,115397,2,0,B|104:120,1,90,0|0
200,120,115748,1,4
288,120,115923,1,0
376,120,116099,1,0
336,200,116274,1,0
376,280,116449,5,0
328,280,116537,1,0
280,280,116625,1,0
232,280,116713,1,0
184,280,116800,1,0
88,56,122941,5,0
224,56,123117,1,0
344,112,123292,1,8
456,192,123468,1,2
256,192,123731,1,0
56,192,123994,1,2
288,336,124345,1,0
424,336,124520,1,0
336,232,124695,1,8
256,128,124871,1,2
144,296,125134,1,0
344,296,125397,1,2
96,192,125748,5,0
96,56,125924,1,0
232,56,126099,1,8
368,56,126275,1,2
504,192,126538,1,0
368,344,126801,1,2
144,192,127152,1,0
280,192,127327,1,0
168,120,127502,1,8
48,56,127678,1,2
48,256,127941,1,0
248,256,128204,1,2
472,104,128555,5,4
72,192,129082,1,2
272,192,129345,1,0
472,192,129608,1,2
248,344,129959,1,0
384,344,130134,1,0
432,216,130309,1,8
472,88,130485,1,2
272,112,130748,1,0
80,48,131011,2,0,B|80:152,1,90,2|0
80,224,131362,5,0
80,312,131538,1,2
168,312,131713,1,0
168,264,131800,1,0
168,224,131889,1,2
168,136,132064,1,0
256,136,132239,1,2
256,224,132415,1,2
256,264,132502,1,0
256,312,132590,1,2
344,312,132765,1,2
344,264,132853,1,0
344,216,132941,1,2
344,128,133116,1,2
432,128,133292,2,2,B|504:200|440:296,1,180
88,240,134169,5,8
88,152,134344,1,0
160,200,134520,1,0
248,192,134695,1,8
328,232,134870,1,0
328,144,135046,1,0
248,192,135221,5,8
424,192,135572,1,0
400,280,135748,1,0
312,312,135923,1,0
224,312,136099,1,8
144,272,136274,1,0
104,192,136449,1,8
192,192,136625,5,0
368,192,136976,1,0
296,136,137151,1,0
296,224,137327,1,0
208,192,137502,1,8
136,136,137678,1,0
136,224,137853,1,0
208,192,138028,5,8
384,192,138379,1,8
192,168,139081,5,0
272,128,139256,1,0
296,40,139432,2,0,B|40:16|-8:208|16:312|176:352|256:344|320:336,1,630,4|0
416,320,140835,6,0,B|472:272|504:216|488:128|416:80|312:64|232:88|160:128|136:200|216:256|280:248|344:240,1,630,4|4
472,136,142414,6,0,B|416:88|352:64|184:80|120:112|80:176|136:264|200:320|280:312|352:328,1,630,4|0
424,328,143818,6,0,B|472:312|504:256|504:216|456:176|416:136|352:120|304:120|264:112|208:128|176:168|176:224|184:256|232:280|280:288|344:304|392:296|416:272|432:216|312:200,1,720,4|2
72,192,145923,5,4
432,192,146625,5,2
104,40,147327,5,4
456,112,148028,5,2
392,176,148204,1,4
456,232,148379,1,4
392,304,148555,1,4
320,352,148730,5,2
256,288,148906,1,4
192,352,149081,1,0
120,304,149256,1,4
56,232,149432,5,6
120,176,149607,1,4
56,112,149783,5,2
128,56,149958,1,0
192,120,150134,1,2
256,56,150309,1,2
256,56,150485,1,2
256,336,150835,5,4
336,304,151010,1,0
272,240,151186,1,8
352,200,151361,1,0
280,144,151537,1,8
216,80,151712,1,8
160,152,151888,1,8
80,112,152063,1,0
32,192,152238,5,0
96,256,152414,1,0
56,336,152589,1,8
136,368,152765,1,0
208,320,152940,1,0
288,360,153116,1,8
312,272,153291,1,8
400,264,153466,1,8
376,176,153642,5,0
424,104,153817,1,0
336,80,153993,1,0
248,112,154168,1,8
224,200,154344,1,8
136,200,154519,1,0
96,280,154695,1,8
152,352,154870,6,0,B|240:360|296:352|344:336,1,180,8|0
408,296,155396,1,0
368,216,155572,1,0
424,144,155747,1,8
344,104,155923,1,8
280,168,156098,1,8
232,96,156274,5,0
144,104,156449,1,0
80,168,156624,1,0
136,240,156800,1,8
88,320,156975,1,0
168,360,157151,1,0
256,344,157326,1,0
344,368,157502,1,8
416,320,157677,6,0,B|472:216|400:136,1,180,0|8
328,112,158203,1,0
240,96,158379,2,0,B|280:184|232:272|136:296|80:280,1,270,8|0
72,200,159081,1,0
56,112,159256,6,0,B|152:120,1,90,10|0
192,200,159607,1,0
280,224,159782,2,0,B|376:232,1,90,10|0
376,320,160133,1,0
288,352,160309,2,0,B|176:344,1,90,10|0
120,304,160659,1,10
56,240,160835,2,0,B|80:136,1,90,0|10
160,192,161186,2,0,B|216:112,1,90,8|2
304,112,161537,2,0,B|376:112,2,45,8|0|10
408,264,162063,5,4
336,320,162238,1,0
248,288,162414,1,8
176,352,162589,1,0
104,304,162765,1,8
152,232,162940,1,8
80,176,163116,1,0
104,88,163291,5,8
184,120,163466,1,0
264,80,163642,1,0
320,152,163817,1,0
400,112,163993,1,8
448,192,164168,1,8
400,272,164344,1,0
424,360,164519,1,8
336,368,164695,5,8
264,312,164870,1,0
176,344,165045,1,0
144,256,165221,1,8
72,208,165396,1,8
56,120,165572,2,0,B|136:104|184:112,1,90
232,112,165923,1,8
312,144,166098,2,0,B|384:176|400:232|400:272|392:304,1,180,8|0
328,352,166624,5,0
248,304,166800,1,0
296,232,166975,1,8
208,216,167151,1,0
128,264,167326,1,8
72,192,167502,2,0,B|128:112,1,90,8|0
208,88,167852,1,0
296,88,168028,2,0,B|368:144,1,90,8|0
408,224,168379,1,8
384,312,168554,1,0
304,352,168730,1,0
216,352,168905,6,0,B|112:320,1,90,0|8
80,248,169256,1,0
152,192,169431,2,0,B|240:232,1,90,8|0
304,176,169782,1,0
328,88,169958,1,0
392,152,170133,1,8
424,72,170309,1,0
480,144,170484,6,0,B|480:256,1,90,10|0
480,328,170835,1,0
392,328,171010,2,0,B|296:328,1,90,10|0
208,328,171361,1,0
208,240,171537,2,0,B|208:144,1,90,10|0
120,144,171888,2,0,B|120:240,1,90,10|0
32,232,172238,2,0,B|32:128,1,90,10|2
72,64,172589,2,0,B|16:48,2,45,8|0|8
160,64,172940,1,0
336,72,173291,5,4
344,256,173642,1,0
184,168,173993,1,0
272,168,174168,1,0
448,168,174519,1,0
448,168,174607,1,0
448,168,174695,1,4
360,168,174870,1,0
272,168,175045,1,0
272,168,175133,1,0
272,168,175221,1,0
88,168,175572,1,0
88,352,175923,5,0
176,352,176098,1,4
240,288,176274,1,0
328,288,176449,1,0
280,216,176624,1,0
192,216,176800,1,4
144,144,176975,1,0
232,144,177151,1,0
304,96,177326,1,0
352,168,177502,1,4
408,96,177677,1,0
456,168,177852,1,0
408,248,178028,1,0
464,320,178203,1,0
