osu file format v14

[General]
AudioFilename: anime size.mp3
AudioLeadIn: 0
PreviewTime: 51636
Countdown: 0
SampleSet: Soft
StackLeniency: 0.7
Mode: 0
LetterboxInBreaks: 0
WidescreenStoryboard: 0

[Editor]
Bookmarks: 66312
DistanceSpacing: 1.1
BeatDivisor: 4
GridSize: 4
TimelineZoom: 1.4

[Metadata]
Title:Naru (TV Size)
TitleUnicode:Naru (TV Size)
Artist:Luck Life
ArtistUnicode:ラックライフ
Creator:Sinnoh
Version:Hard
Source:ツルネ ―風舞高校弓道部―
Tags:tsurune archery kazemai koukou kyuudoubu anime op japanese
BeatmapID:1884043
BeatmapSetID:902392

[Difficulty]
HPDrainRate:5
CircleSize:3.5
OverallDifficulty:7
ApproachRate:7.5
SliderMultiplier:1.8
SliderTickRate:1

[Events]
//Background and Video events
0,0,"ty croll.jpg",0,0
//Break Periods
//Storyboard Layer 0 (Background)
//Storyboard Layer 1 (Fail)
//Storyboard Layer 2 (Pass)
//Storyboard Layer 3 (Foreground)
//Storyboard Sound Samples

[TimingPoints]
1565,431.654676258993,4,2,1,70,1,0
15377,-83.3333333333333,4,2,1,80,0,0
22284,-100,4,2,1,60,0,0
25737,-90.9090909090909,4,2,1,70,0,0
36097,-125,4,2,1,60,0,0
43003,-100,4,2,1,70,0,0
50773,431.654676258993,4,2,1,70,1,0
50988,-100,4,2,1,75,0,0
51204,-100,4,2,1,80,0,0
51420,-100,4,2,1,85,0,0
51636,-133.333333333333,4,2,1,70,0,0
52499,-83.3333333333333,4,2,1,80,0,1
80125,-83.3333333333333,4,2,1,70,0,0
87031,-83.3333333333333,4,2,1,61,0,0
87247,-83.3333333333333,4,2,1,55,0,0
87463,-83.3333333333333,4,2,1,50,0,0
87679,-83.3333333333333,4,2,1,45,0,0
87895,-83.3333333333333,4,2,1,40,0,0
88111,-83.3333333333333,4,2,1,35,0,0
88326,-83.3333333333333,4,2,1,30,0,0
88542,-83.3333333333333,4,2,1,25,0,0
88758,-83.3333333333333,4,2,1,5,0,0

[Colours]
Combo1 : 255,128,128
Combo2 : 176,176,176
Combo3 : 0,128,255

[HitObjects]
371,66,1565,6,0,L|515:52,2,135,4|4|8,1:2|0:3|0:3,0:0:0:0:
173,82,2644,1,4,0:3:0:0:
152,178,2860,2,0,P|145:246|146:289,1,90,4|0,0:3|0:0,0:0:0:0:
235,308,3291,6,0,L|379:322,2,135,4|4|8,0:3|0:3|0:3,0:0:0:0:
52,229,4371,1,8,0:3:0:0:
50,130,4586,1,4,0:3:0:0:
194,35,5018,6,0,P|198:120|192:198,2,135,4|4|8,0:3|0:3|0:3,0:0:0:0:
290,14,5881,2,0,P|361:12|396:19,1,90,0|4,0:0|0:3,0:0:0:0:
413,108,6313,1,8,0:3:0:0:
363,193,6529,1,4,0:3:0:0:
445,245,6744,6,0,P|458:304|431:386,2,135,4|4|8,0:3|0:3|0:3,0:0:0:0:
268,150,7823,1,8,0:3:0:0:
241,245,8039,1,4,0:3:0:0:
69,343,8471,6,0,L|54:186,1,135,4|4,1:2|0:3,0:0:0:0:
124,76,9118,2,0,P|176:51|310:61,1,180,8|4,0:3|0:3,0:0:0:0:
305,154,9766,1,4,0:3:0:0:
317,351,10198,6,0,P|391:369|479:367,1,135,4|4,1:2|0:3,0:0:0:0:
470,223,10845,2,0,L|461:24,1,180,8|4,0:3|0:3,0:0:0:0:
364,27,11492,1,4,0:3:0:0:
254,192,11924,6,0,P|188:205|94:203,1,135,4|4,1:2|0:3,0:0:0:0:
124,57,12572,2,0,P|202:43|311:36,1,180,8|4,0:3|0:3,0:0:0:0:
375,102,13219,1,4,0:3:0:0:
263,265,13651,5,4,0:3:0:0:
147,165,13975,1,4,0:3:0:0:
109,310,14297,1,6,0:3:0:0:
109,310,15377,6,0,B|217:282|217:282|264:306,1,161.999995056153,4|0,1:2|3:0,0:0:0:0:
319,338,15809,1,0,1:0:0:0:
443,275,16025,2,0,P|470:215|395:61,1,215.999993408203,4|4,0:3|0:3,0:0:0:0:
308,19,16672,1,0,1:0:0:0:
258,150,16888,6,0,P|172:135|199:14,1,215.999993408203,4|4,1:2|0:3,0:0:0:0:
308,19,17535,1,0,1:0:0:0:
365,135,17752,2,0,P|353:246|344:352,1,215.999993408203,4|4,0:3|0:3,0:0:0:0:
226,293,18400,1,0,1:0:0:0:
114,358,18615,5,4,0:3:0:0:
114,358,18723,1,4,0:3:0:0:
114,358,18831,2,0,P|90:277|104:193,1,161.999995056153,4|0,1:2|3:0,0:0:0:0:
129,142,19262,1,0,1:0:0:0:
229,224,19478,2,0,P|301:236|434:149,1,215.999993408203,4|4,0:3|0:3,0:0:0:0:
352,52,20125,1,0,1:0:0:0:
214,31,20341,6,0,P|170:78|165:241,1,215.999993408203,0|4,1:2|0:3,0:0:0:0:
279,267,20989,1,0,1:0:0:0:
122,321,21205,2,0,P|59:263|119:128,1,215.999993408203,4|0,1:2|1:0,0:0:0:0:
201,88,21852,1,8,1:3:0:0:
201,88,21960,1,8,0:3:0:0:
201,88,22068,1,4,0:3:0:0:
295,156,22284,6,0,P|347:162|440:159,2,135,4|4|8,1:2|0:3|0:3,0:0:0:0:
120,61,23363,1,8,0:3:0:0:
122,159,23578,1,4,0:3:0:0:
126,258,23795,1,4,0:3:0:0:
221,312,24011,2,0,P|329:327|364:327,2,135,4|4|8,0:3|0:3|0:3,0:0:0:0:
221,312,25737,6,0,P|135:302|78:262,1,148.50000453186,4|0,1:2|3:0,0:0:0:0:
72,209,26169,1,0,1:0:0:0:
118,101,26385,2,0,P|197:88|337:96,1,198.000006042481,4|4,0:3|0:3,0:0:0:0:
426,132,27032,1,0,1:0:0:0:
356,353,27464,6,4,P|287:348|237:256,1,148.50000453186,4|0,0:3|3:0,0:3:0:0:
242,230,27895,1,0,1:0:0:0:
150,154,28111,2,0,P|69:181|68:291,1,198.000006042481,4|4,0:3|0:3,0:0:0:0:
167,336,28759,1,0,1:0:0:0:
244,111,29190,6,0,P|307:82|409:75,1,148.50000453186,4|0,1:2|3:0,0:0:0:0:
432,108,29622,1,0,1:0:0:0:
434,226,29838,2,0,B|393:267|393:267|240:249,1,198.000006042481,4|4,0:3|0:3,0:0:0:0:
155,184,30485,2,0,P|104:218|87:268,1,99.0000030212403,0|0,1:0|0:0,0:0:0:0:
170,338,30917,6,0,P|253:346|329:332,1,148.50000453186,4|0,0:3|3:0,0:0:0:0:
329,276,31349,1,0,1:0:0:0:
281,166,31565,2,0,P|302:57|407:33,1,198.000006042481,4|4,0:3|0:3,0:0:0:0:
458,106,32212,2,0,P|467:161|450:227,1,99.0000030212403,0|0,1:0|0:0,0:0:0:0:
329,276,32644,6,0,P|249:271|175:234,1,148.50000453186,4|0,1:2|3:0,0:0:0:0:
167,187,33075,1,0,1:0:0:0:
187,49,33291,2,0,P|74:79|37:168,1,198.000006042481,4|4,1:2|0:3,0:0:0:0:
159,169,33939,2,0,P|220:181|274:218,1,99.0000030212403,0|0,1:0|0:0,0:0:0:0:
156,314,34370,6,0,P|135:254|144:157,1,148.50000453186,4|0,1:2|3:0,0:0:0:0:
169,117,34803,1,0,1:0:0:0:
276,217,35018,2,0,P|357:211|375:81,1,198.000006042481,4|4,1:2|0:3,0:0:0:0:
309,49,35664,1,4,0:3:0:0:
309,49,36097,6,0,L|215:61,1,72,4|0,1:2|0:0,0:0:0:0:
230,101,36421,2,0,L|136:113,1,72,4|0,0:3|0:0,0:0:0:0:
140,149,36744,1,4,0:3:0:0:
163,237,36960,1,0,0:0:0:0:
163,237,37068,2,0,L|160:322,1,72
131,341,37392,2,0,P|92:355|51:357,1,72,0|0,1:0|0:0,0:0:0:0:
241,292,37823,6,4,P|303:308|349:336,2,108,4|4|4,0:3|0:3|0:3,0:3:0:0:
158,147,38903,1,4,0:3:0:0:
181,64,39118,2,0,P|220:38|255:25,1,72,0|0,1:0|0:0,0:0:0:0:
348,46,39550,6,0,L|360:142,1,72,4|0,0:3|0:0,0:0:0:0:
318,138,39874,2,0,L|330:234,1,72,4|0,0:3|0:0,0:0:0:0:
287,228,40198,1,4,0:3:0:0:
205,220,40413,1,0,0:0:0:0:
205,220,40521,2,0,L|123:232,1,72
109,194,40845,2,0,P|104:141|123:104,1,72,0|0,1:0|0:0,0:0:0:0:
170,37,41277,6,4,P|223:34|279:51,2,108,4|4|4,0:3|0:3|0:3,0:3:0:0:
205,220,42356,1,4,0:3:0:0:
192,302,42573,2,0,P|135:325|106:332,1,72,0|0,1:0|0:0,0:0:0:0:
300,268,43003,6,0,P|372:268|436:281,2,135,4|0|4,1:2|0:0|0:3,0:0:0:0:
279,365,43867,1,4,1:2:0:0:
185,250,44190,1,0,1:0:0:0:
282,138,44514,1,0,1:0:0:0:
206,73,44730,6,0,P|133:73|70:86,2,135,4|4|4,1:2|0:3|0:3,0:0:0:0:
182,169,45593,1,0,1:0:0:0:
247,243,45809,2,0,P|311:256|372:163,1,180,4|4,1:2|0:3,0:0:0:0:
355,75,46457,6,0,P|402:60|500:57,2,135,4|0|4,1:2|0:0|0:3,0:0:0:0:
275,133,47320,1,4,1:2:0:0:
372,245,47644,1,0,1:0:0:0:
278,360,47967,1,0,1:0:0:0:
199,299,48183,6,0,P|145:291|56:297,2,135,4|4|4,1:2|0:3|0:3,0:0:0:0:
264,224,49047,1,4,1:2:0:0:
264,224,49262,1,4,0:3:0:0:
197,150,49478,1,0,1:0:0:0:
197,150,49693,1,4,0:3:0:0:
273,78,49910,1,0,1:0:0:0:
273,78,50125,1,4,0:3:0:0:
195,16,50341,1,0,1:0:0:0:
195,16,50556,1,4,0:3:0:0:
273,78,50773,5,4,0:3:0:0:
197,150,50987,1,0,1:0:0:0:
264,224,51205,1,0,1:0:0:0:
199,299,51420,1,4,0:3:0:0:
282,351,51636,2,0,P|358:351|426:327,1,135.000005149842
414,334,52499,6,0,B|405:226|405:226|353:194,1,161.999995056153,4|0,1:2|1:1,0:0:0:0:
307,168,52932,1,4,0:3:0:0:
204,105,53148,1,0,1:0:0:0:
107,171,53362,2,0,P|103:244|157:333,1,161.999995056153,4|0,0:3|1:0,0:0:0:0:
143,320,53794,2,0,P|228:312|269:312,1,107.999996704102,4|0,0:3|1:0,0:0:0:0:
283,195,54226,6,0,P|380:211|447:239,2,161.999995056153,4|0|0,0:3|1:0|1:0,0:0:0:0:
166,219,55089,1,4,0:3:0:0:
166,219,55197,2,0,L|156:94,1,107.999996704102,0|0,1:0|1:0,0:0:0:0:
182,59,55521,1,4,0:3:0:0:
292,14,55737,1,0,1:0:0:0:
389,80,55952,6,0,P|418:128|341:233,1,161.999995056153,4|0,0:3|1:0,0:0:0:0:
324,240,56384,1,4,0:3:0:0:
259,339,56600,1,0,1:0:0:0:
375,360,56816,2,0,P|434:326|441:216,1,161.999995056153,4|0,0:3|1:0,0:0:0:0:
451,238,57247,2,0,L|439:95,1,107.999996704102,4|0,0:3|1:0,0:0:0:0:
345,48,57679,6,0,P|273:31|185:34,2,161.999995056153,4|0|4,0:3|1:0|0:3,0:0:0:0:
326,165,58542,1,4,0:3:0:0:
326,165,58650,2,0,P|234:187|189:182,1,107.999996704102,0|0,1:0|1:0,0:0:0:0:
162,177,58974,1,4,0:3:0:0:
71,117,59190,5,8,0:3:0:0:
71,117,59298,1,4,0:3:0:0:
71,117,59406,2,0,B|43:160|43:160|49:293,1,161.999995056153,4|0,0:3|1:0,0:0:0:0:
87,324,59837,2,0,P|147:333|227:314,1,107.999996704102,4|0,0:3|1:0,0:0:0:0:
263,229,60269,2,0,P|343:217|462:246,1,161.999995056153,4|0,0:3|1:0,0:0:0:0:
417,284,60701,2,0,P|399:214|419:135,1,107.999996704102,4|0,0:3|1:0,0:0:0:0:
421,61,61132,6,0,P|352:46|234:58,1,161.999995056153,4|0,0:3|1:0,0:0:0:0:
212,85,61564,1,4,0:3:0:0:
191,216,61780,2,0,P|115:265|16:227,1,161.999995056153,4|0,1:2|1:0,0:0:0:0:
42,197,62211,1,4,0:3:0:0:
42,197,62319,1,4,0:3:0:0:
42,197,62427,1,0,1:0:0:0:
77,83,62643,1,4,0:3:0:0:
195,174,62859,6,0,P|256:185|390:159,1,161.999995056153,4|0,0:3|1:0,0:0:0:0:
398,133,63290,1,4,0:3:0:0:
440,241,63506,2,0,P|397:297|333:316,1,107.999996704102,4|4,1:2|0:3,0:0:0:0:
303,308,63831,1,0,1:0:0:0:
187,282,64046,1,0,1:0:0:0:
187,282,64154,2,0,P|129:294|68:323,1,107.999996704102,4|0,0:3|1:0,0:0:0:0:
33,205,64585,6,0,P|30:144|153:98,1,161.999995056153,4|0,0:3|1:0,0:0:0:0:
163,97,65017,2,0,P|221:122|271:156,1,107.999996704102,4|0,0:3|1:0,0:0:0:0:
296,259,65449,1,4,0:3:0:0:
296,259,65558,1,0,1:0:0:0:
397,198,65773,1,0,1:3:0:0:
397,198,65880,2,0,P|408:102|405:68,1,107.999996704102,4|0,0:3|1:0,0:0:0:0:
234,30,66312,6,0,B|170:26|170:26|71:95,1,161.999995056153,4|0,1:2|1:0,0:0:0:0:
78,138,66743,1,4,0:3:0:0:
104,254,66960,1,0,1:0:0:0:
197,326,67175,2,0,P|282:311|312:237,1,161.999995056153,4|0,0:3|1:0,0:0:0:0:
312,248,67607,2,0,P|370:239|433:239,1,107.999996704102,4|0,0:3|1:0,0:0:0:0:
460,348,68039,6,0,P|506:314|525:200,2,161.999995056153,4|0|4,0:3|1:0|0:3,0:0:0:0:
336,293,68902,1,4,0:3:0:0:
336,293,69010,2,0,L|219:286,1,107.999996704102,0|0,1:0|1:0,0:0:0:0:
168,281,69334,1,4,0:3:0:0:
115,174,69549,1,0,1:0:0:0:
168,70,69765,6,0,P|245:63|337:107,1,161.999995056153,4|0,0:3|1:0,0:0:0:0:
343,150,70197,1,4,0:3:0:0:
444,88,70413,1,0,1:0:0:0:
454,206,70629,1,4,0:3:0:0:
454,206,70737,2,0,P|452:263|417:346,1,107.999996704102,0|0,1:0|1:0,0:0:0:0:
378,319,71060,1,4,0:3:0:0:
277,255,71276,1,0,1:0:0:0:
158,263,71492,6,0,P|66:309|19:357,2,161.999995056153,4|0|0,0:3|1:0|1:0,0:0:0:0:
116,151,72355,1,4,0:3:0:0:
116,151,72463,1,0,1:0:0:0:
168,44,72679,1,0,1:1:0:0:
168,44,72787,2,0,L|293:35,1,107.999996704102,4|0,0:3|1:0,0:0:0:0:
365,112,73219,6,0,P|378:196|311:266,1,161.999995056153,4|0,0:3|1:0,0:0:0:0:
275,255,73650,1,4,0:3:0:0:
155,176,73866,2,0,P|146:260|137:338,1,161.999995056153,4|0,1:2|1:0,0:0:0:0:
251,360,74407,1,0,1:0:0:0:
251,360,74514,2,0,P|328:354|381:341,1,107.999996704102,4|0,0:3|1:0,0:0:0:0:
455,279,74945,6,0,P|476:223|390:133,1,161.999995056153,4|0,0:3|1:0,0:0:0:0:
368,124,75377,1,4,0:3:0:0:
258,222,75593,2,0,P|172:212|70:203,1,161.999995056153,4|0,1:2|1:0,0:0:0:0:
42,100,76131,1,0,1:0:0:0:
42,100,76240,2,0,P|122:68|188:73,1,107.999996704102,4|0,0:3|1:0,0:0:0:0:
193,175,76672,6,0,P|242:201|356:161,1,161.999995056153,4|0,0:3|1:0,0:0:0:0:
361,120,77103,1,4,0:3:0:0:
416,250,77319,2,0,P|381:292|280:314,1,161.999995056153,4|0,1:2|1:0,0:0:0:0:
179,280,77859,1,0,1:0:0:0:
179,280,77967,1,4,0:3:0:0:
70,329,78183,1,0,1:0:0:0:
64,210,78398,6,4,L|55:41,2,161.999995056153,4|4|4,0:3|0:3|0:3,0:3:0:0:
151,288,79262,1,2,0:3:0:0:
151,288,80125,6,0,P|143:188|193:106,1,161.999995056153,4|0,1:2|3:0,0:0:0:0:
215,89,80557,1,0,1:0:0:0:
335,141,80773,2,0,P|338:254|333:384,1,215.999993408203,4|4,0:3|0:3,0:0:0:0:
437,283,81420,1,0,1:0:0:0:
275,326,81636,6,0,P|183:299|161:147,1,215.999993408203,4|4,1:2|0:3,0:0:0:0:
189,78,82283,1,0,1:0:0:0:
308,57,82499,2,0,P|380:78|417:210,1,215.999993408203,4|4,0:3|0:3,0:0:0:0:
334,280,83146,1,0,1:0:0:0:
220,240,83362,5,4,0:3:0:0:
220,240,83470,1,4,0:3:0:0:
220,240,83578,2,0,P|127:246|36:280,1,161.999995056153,4|0,1:2|3:3,0:0:0:0:
70,315,84009,1,0,1:0:0:0:
135,181,84226,2,0,P|147:87|128:27,1,107.999996704102,4|0,1:2|0:0,0:0:0:0:
255,21,84657,1,0,1:0:0:0:
311,124,84873,1,4,0:3:0:0:
286,231,85089,1,4,1:2:0:0:
256,192,85305,12,0,88758,0:0:0:0:
