osu file format v12

[General]
AudioFilename: stop.mp3
AudioLeadIn: 0
PreviewTime: -1
Countdown: 1
SampleSet: Normal
StackLeniency: 0.7
Mode: 0
LetterboxInBreaks: 1
WidescreenStoryboard: 0

[Editor]
DistanceSpacing: 0.8
BeatDivisor: 6
GridSize: 8

[Metadata]
Title:Stop
TitleUnicode:Stop
Artist:Lucie Bila
ArtistUnicode:Lucie Bíla
Creator:KubMakCZ
Version:V1
Source:YouTube + Mattony Slavík
Tags:Czech, Stop, Lucie Bíla, Bila, Lucie, KubMak
BeatmapID:331470
BeatmapSetID:131671

[Difficulty]
HPDrainRate:1
CircleSize:3
OverallDifficulty:1
ApproachRate:2
SliderMultiplier:1
SliderTickRate:1

[Events]
//Background and Video events
0,0,"Stop.JPG",0,0
//Break Periods
//Storyboard Layer 0 (Background)
//Storyboard Layer 1 (Fail)
//Storyboard Layer 2 (Pass)
//Storyboard Layer 3 (Foreground)
//Storyboard Sound Samples
//Background Colour Transformations
3,100,255,255,255

[TimingPoints]
0,434.751104992392,4,1,0,100,1,0

[Colours]
Combo1 : 0,0,0
Combo2 : 255,255,255

[HitObjects]
328,184,7535,6,0,L|152:184,3,166.666666666667
328,184,11303,6,0,L|152:184,3,166.666666666667
336,184,15143,6,0,L|160:184,3,166.666666666667
296,184,18911,6,0,L|120:184,3,166.666666666667
240,184,22462,5,0,0:0:0:0:
456,248,23259,2,0,L|96:248,1,350
56,216,24925,2,0,L|352:216,1,283.333333333333
472,192,26302,6,0,L|-48:192,1,516.666666666667
16,112,28838,2,0,B|64:160|64:160|112:112|112:112|160:160|160:160|208:112,1,266.666666666667
416,120,30722,6,0,L|96:232,2,333.333333333333
416,120,33838,2,0,B|416:304|152:288|136:40,1,466.666666666667
136,56,36301,2,0,P|152:224|312:272,1,350
256,192,39489,2,0,P|256:88|248:192,2,316.666666666667
256,88,43040,6,0,P|256:208|248:88,2,366.666666666667
256,232,46735,6,0,P|256:104|248:232,2,383.333333333333
256,88,50431,6,0,P|256:208|248:88,2,366.666666666667
240,184,54343,5,0,0:0:0:0:
456,248,55140,2,0,L|96:248,1,350
56,216,56806,2,0,L|352:216,1,283.333333333333
472,192,58183,6,0,L|-48:192,1,516.666666666667
16,112,60719,2,0,B|64:160|64:160|112:112|112:112|160:160|160:160|208:112,1,266.666666666667
416,120,62603,6,0,L|96:232,2,333.333333333333
416,120,65719,2,0,B|416:304|152:288|136:40,1,466.666666666667
136,56,68182,2,0,P|152:224|240:272,1,283.333333333333
456,248,70284,2,0,L|96:248,1,350
56,216,71950,2,0,L|352:216,1,283.333333333333
472,192,73327,6,0,L|-48:192,1,516.666666666667
16,112,75863,2,0,B|64:152|64:152|112:112|112:112|160:152|160:152|208:112,1,250
416,120,77747,6,0,L|96:232,2,333.333333333333
416,120,80863,2,0,B|416:304|152:288|136:40,1,466.666666666667
136,56,83254,2,0,P|152:224|368:264,1,416.666666666667
256,200,86153,2,0,P|256:88|248:200,2,333.333333333333
256,88,89704,6,0,P|256:208|248:88,2,366.666666666667
256,232,93399,6,0,P|256:104|248:232,2,383.333333333333
256,88,97384,6,0,P|256:208|248:88,2,366.666666666667
328,184,101297,6,0,L|152:184,3,166.666666666667
328,184,104992,6,0,L|152:184,3,166.666666666667
328,184,108832,6,0,L|152:184,3,166.666666666667
328,184,112528,6,0,L|152:184,3,166.666666666667
328,184,116440,6,0,L|152:184,3,166.666666666667
328,184,120136,6,0,L|152:184,3,166.666666666667
328,184,123904,6,0,L|152:184,3,166.666666666667
328,184,127599,6,0,L|152:184,3,166.666666666667
256,192,129990,12,0,131802,0:0:0:0:
240,184,132164,5,0,0:0:0:0:
456,248,132961,2,0,L|96:248,1,350
56,216,134627,2,0,L|352:216,1,283.333333333333
472,192,136004,6,0,L|-48:192,1,516.666666666667
16,112,138540,2,0,B|64:160|64:160|112:112|112:112|160:160|160:160|208:112,1,266.666666666667
416,120,140424,6,0,L|96:232,2,333.333333333333
416,120,143540,2,0,B|416:304|152:288|136:40,1,466.666666666667
136,56,146003,2,0,P|152:224|264:280,1,300
456,248,148105,6,0,L|96:248,1,350
56,216,149771,2,0,L|352:216,1,283.333333333333
472,192,151148,6,0,L|-48:192,1,516.666666666667
16,112,153684,2,0,B|64:160|64:160|112:112|112:112|160:160|160:160|208:112,1,266.666666666667
416,120,155568,6,0,L|96:232,2,333.333333333333
416,120,158684,2,0,B|416:304|152:288|136:40,1,466.666666666667
136,56,161147,2,0,P|152:224|240:272,1,283.333333333333
456,248,163176,6,0,L|128:248,1,316.666666666667
328,184,164698,6,0,L|152:184,1,166.666666666667
472,192,166219,6,0,L|-48:192,1,516.666666666667
328,184,168683,6,0,L|152:184,1,166.666666666667
256,184,169842,5,0,0:0:0:0:
416,120,170639,6,0,L|96:232,2,333.333333333333
416,152,173755,2,0,B|416:304|152:288|136:40,1,450
328,184,176219,6,0,L|152:184,1,166.666666666667
240,184,177305,5,0,0:0:0:0:
48,96,178103,2,0,B|112:296|112:296|224:272|224:272,2,316.666666666667
472,96,181218,2,0,B|408:296|408:296|256:256|256:256,2,366.666666666667
256,192,184841,1,0,0:0:0:0:
256,232,185493,6,0,P|256:104|248:232,1,383.333333333333
256,192,188392,12,0,191145,0:0:0:0:
