osu file format v5

[General]
AudioFilename: Lucas Grabeel - Go the Distance.mp3
AudioLeadIn: 0
PreviewTime: 103992
Countdown: 0
SampleSet: Soft
StackLeniency: 0.7
Mode: 0
LetterboxInBreaks: 1
SkinPreference:ouendan2
EditorBookmarks: 158705

[Metadata]
Title:Go the Distance
Artist:Lucas Grabeel
Creator:Behonkiss
Version:Normal
Source:
Tags:

[Difficulty]
HPDrainRate:5
CircleSize:4
OverallDifficulty:5
SliderMultiplier:1.4
SliderTickRate:1

[Events]
//Background and Video events
//Break Periods
2,66495,72353
2,137617,153878
//Storyboard Layer 0 (Background)
//Storyboard Layer 1 (Failing)
//Storyboard Layer 2 (Passing)
//Storyboard Layer 3 (Foreground)
//Storyboard Sound Samples
//Background Colour Transformations
3,100,163,162,255

[TimingPoints]
4367,483.81915,4,2,1,58,1

[HitObjects]
112,88,3883,1,0
112,88,4125,1,0
40,88,4367,2,2,B|40:152|72:168|136:168,1,140
240,176,5334,2,2,B|239:231|205:250|136:248,1,140
72,248,6060,1,2
400,88,7753,5,0
400,88,7995,1,0
472,88,8237,2,2,B|472:152|440:168|376:168,1,140
272,176,9204,2,2,B|273:231|307:250|376:248,1,140
440,251,9930,1,0
352,320,10414,1,0
280,320,10656,1,0
208,320,10898,1,2
256,160,11624,5,0
256,160,11866,1,0
328,160,12108,2,2,B|243:-52|152:168,2,280
400,160,14285,1,0
144,48,15494,5,0
144,120,15736,1,0
216,128,15978,2,0,C|308:196|210:232|297:276|208:336,1,420
104,328,17913,1,0
272,304,18639,1,0
272,304,18881,1,4
176,240,19365,5,0
104,240,19607,1,0
32,240,19849,2,2,C|71:168|264:168,1,280
432,192,21542,1,0
432,264,21784,2,2,C|264:264,1,140
224,264,22510,1,2
136,328,22994,5,0
48,328,23356,1,0
8,248,23719,2,2,B|4:63|204:55,1,280
336,56,25413,1,0
344,224,26138,1,0
344,224,26380,1,2
256,80,27106,5,0
256,152,27348,1,0
181,160,27590,2,2,B|257:388|333:152,1,280
408,304,29283,1,2
296,304,29767,1,0
296,304,30009,1,0
296,304,30251,1,0
40,184,31460,6,0,B|184:184,3,140
248,184,33154,1,0
440,72,34121,1,4
368,72,34363,1,4
408,288,35331,6,2,B|317:188|192:224,1,210
200,280,36299,2,2,B|321:255|408:376,1,210
448,136,37992,1,0
448,136,38234,1,4
232,80,39201,5,0
120,80,39685,1,0
48,88,39927,2,0,B|8:171|48:304,1,210
104,328,40895,1,2
216,328,41379,1,2
328,328,41862,1,0
328,216,42346,5,0
328,216,42588,1,0
440,208,43072,2,2,B|324:50|200:224,1,280
112,64,44765,1,0
112,64,45007,1,2
224,64,45491,1,2
336,64,45975,1,2
152,192,46943,5,0
264,192,47426,1,0
336,192,47668,2,4,B|396:98|456:215,2,140
152,64,49604,1,0
80,64,49846,1,0
8,64,50087,1,2
8,136,50329,1,2
72,224,50813,6,2,B|136:304|288:312,1,210
328,312,51781,2,2,B|452:232|456:64,1,280
288,48,53474,1,0
288,48,53716,1,4
256,152,54200,5,0
184,152,54442,1,0
104,152,54684,2,2,B|154:36|288:56,1,210
352,64,55652,2,2,B|476:144|480:312,1,280
312,312,57345,1,0
312,312,57587,1,4
200,312,58070,1,0
88,312,58554,6,0,B|104:200|128:144|192:176|192:336,1,280
256,96,60490,1,2
368,96,60973,1,6
256,192,61457,12,4,66295
416,192,73553,5,0
344,192,73795,1,0
344,120,74036,2,2,B|264:136|256:192|264:304,1,210
192,288,75004,2,2,B|200:224|192:136|120:96,1,210
48,72,76214,1,0
120,72,76456,1,0
192,72,76697,1,2
304,72,77181,5,0
368,120,77544,1,0
448,128,77907,2,2,B|432:200|376:232|256:240,1,210
288,160,78875,2,2,B|232:192|160:192|64:176,1,210
48,288,80084,1,0
120,288,80326,1,0
192,288,80568,1,2
352,344,81294,5,0
424,344,81536,1,0
496,344,81778,2,0,B|510:56|168:80,1,490
64,80,83955,1,0
64,192,84439,1,4
64,304,84922,1,4
128,152,85648,6,0,B|200:288|307:77|456:248,1,350
480,288,87100,1,0
480,288,87341,1,0
376,328,87825,1,0
304,328,88067,1,2
232,328,88309,1,2
136,264,88793,6,0,B|137:187|232:160,1,140
224,96,89519,2,2,B|355:102|393:191|248:256,2,280
152,96,91696,1,0
152,24,91938,1,0
224,24,92180,1,0
336,40,92663,5,0
416,72,93026,1,0
472,128,93389,2,2,B|448:192|512:240|448:336,1,210
384,328,94357,2,2,B|304:288|224:352|144:328,1,210,2|2
64,336,95566,1,0
64,336,95808,1,0
64,336,96050,1,0
80,224,96534,5,0
128,152,96897,1,0
168,80,97260,2,2,B|304:24|352:160,1,210
320,208,98227,2,2,B|440:272|512:176,1,210
496,72,99437,1,2
272,56,100405,5,0
184,56,100767,1,0
96,56,101130,2,0,B|-12:31|8:160,1,140
0,240,102098,1,0
96,296,102582,1,2
96,296,102824,1,2
256,0,104275,5,2
256,80,104638,1,2
256,160,105001,2,2,B|290:287|440:288,1,210
480,288,105969,2,2,B|470:176|312:136,1,210
344,32,107178,1,0
456,32,107662,1,0
456,144,108146,1,0
288,184,108871,5,0
216,272,109355,1,0
144,272,109597,2,0,B|30:240|40:88,1,210
40,40,110565,1,2
152,40,111049,1,2
376,24,112016,5,4
376,104,112379,1,4
376,184,112742,2,2,B|342:311|192:312,1,210
144,304,113710,2,2,B|154:192|312:152,1,210
200,80,114919,1,0
88,56,115403,1,0
88,224,116129,5,0
88,224,116371,1,0
88,224,116613,1,2
192,200,117096,1,2
192,272,117338,2,2,B|416:272,1,210
448,216,118306,1,2
448,104,118790,1,0
448,32,119032,1,0
376,32,119274,1,4
320,128,119757,6,0,B|248:104|160:104,1,140
128,56,120483,2,2,B|56:168|168:328,1,280
256,320,122176,2,2,B|446:316|448:128,1,280
448,88,123386,1,0
336,88,123870,1,0
336,160,124112,1,0
336,232,124354,2,2,B|242:426|144:216,2,280
240,88,127015,1,0
240,88,127257,1,0
240,200,127740,5,0
240,200,127982,1,0
240,128,128224,2,2,B|304:136|328:160|344:192|344:232,1,140
248,264,129192,2,2,B|248:344|352:360,1,140
416,280,130159,1,4
448,176,130643,1,4
256,192,131127,12,2,135481
88,184,135965,5,4
256,184,136691,1,4
424,184,137417,1,4
368,88,154350,5,0
256,88,154834,1,0
160,144,155318,6,2,C|128:64|96:152|13:171|112:192|64:280|144:208|216:282|184:192|270:172|152:152,1,980
192,264,159189,6,0,B|264:320|336:320,1,140
392,320,159914,2,0,B|474:235|424:104,1,210
352,128,160882,1,2
240,128,161366,1,2
256,352,162333,5,0
256,264,162696,1,0
184,216,163059,2,0,B|128:176|112:112|140:81|193:61|252:46|308:51|352:63|376:96|392:112|389:173|312:240,1,490
112,280,165720,1,0
112,280,165962,1,2
192,72,166930,5,0
88,112,167414,1,0
88,184,167655,2,2,B|136:290|192:168,2,140
64,296,169107,1,0
176,296,169591,1,4
176,296,169833,1,4
248,296,170075,6,0,B|340:305|408:256,1,140
456,256,170800,2,2,B|471:107|368:64|288:56,1,280
200,184,172494,1,0
88,184,172977,1,0
448,336,174671,5,2
360,264,175155,1,0
360,264,175397,1,0
208,184,176122,1,0
152,144,176364,1,2
56,80,176848,1,2
48,248,177574,5,0
160,256,178058,1,0
272,256,178541,2,2,B|362:44|448:272,1,280
224,320,180477,1,4
112,320,180960,1,4
32,232,181444,1,4
32,120,181928,1,4
256,192,182412,12,6,186283
