osu file format v5

[General]
AudioFilename: Lucas Grabeel - Go the Distance.mp3
AudioLeadIn: 0
PreviewTime: 103992
Countdown: 0
SampleSet: Soft
StackLeniency: 0.7
Mode: 0
LetterboxInBreaks: 1
SkinPreference:ouendan2

[Metadata]
Title:Go the Distance
Artist:Lucas Grabeel
Creator:Behonkiss
Version:Easy
Source:
Tags:

[Difficulty]
HPDrainRate:3
CircleSize:4
OverallDifficulty:3
SliderMultiplier:1.4
SliderTickRate:1

[Events]
//Background and Video events
//Break Periods
2,66470,72084
2,137617,153878
//Storyboard Layer 0 (Background)
//Storyboard Layer 1 (Failing)
//Storyboard Layer 2 (Passing)
//Storyboard Layer 3 (Foreground)
//Storyboard Sound Samples
//Background Colour Transformations
3,100,163,162,255

[TimingPoints]
4367,483.81915,4,2,1,62,1

[HitObjects]
64,88,3883,1,0
176,88,4367,2,2,B|361:88|360:256,2,280
448,296,7753,5,0
336,296,8237,2,2,B|152:297|152:128,2,280
160,224,11624,5,0
160,224,12108,1,8
160,64,13075,1,8
320,64,14043,1,2
456,64,15978,6,4,B|405:221|251:278|73:220|40:40,1,560
72,304,19849,5,8
232,304,20816,1,8
352,304,21542,1,2
440,80,23719,5,8
280,80,24687,1,8
160,80,25413,1,2
256,40,27590,5,8
256,200,28557,1,8
256,320,29283,1,2
488,40,31460,5,0
376,152,32428,1,2
320,208,32912,1,4
320,208,33154,1,4
216,48,35331,6,4,B|18:48|16:224,1,280
152,296,37024,1,0
432,296,38234,1,2
432,72,39201,6,0,B|226:-5|16:80,1,420
24,152,40895,1,8
24,256,41379,1,8
408,304,43072,6,2,B|481:188|392:96,1,210
344,112,44040,2,2,B|266:187|360:328,1,210
80,192,46943,5,0
248,192,47668,1,8
360,192,48152,1,8
472,192,48636,1,4
104,280,50813,6,0,B|211:124|328:288,2,280
200,136,53716,1,2
96,112,54684,6,0,B|206:-48|320:120,2,280
200,136,57587,1,2
352,304,58554,6,0,B|504:273|472:80,1,280
248,96,60490,1,8
136,96,60973,1,8
256,192,61457,12,4,66293
384,64,74036,6,0,B|88:23|72:280,1,420
72,336,75730,1,0
304,336,76697,1,2
464,288,77907,6,0,B|474:26|168:48,1,420
120,48,79600,1,0
256,224,80568,1,2
256,56,81294,5,0
144,56,81778,2,8,B|253:208|384:40,2,280
56,200,84439,1,2
144,320,85648,6,0,C|200:240|240:320|308:240|360:320|416:240,1,490
440,168,87825,1,8
440,168,88067,1,8
440,168,88309,1,4
176,72,89519,6,0,B|17:174|184:304,2,280
248,72,91696,1,8
248,72,91938,1,8
248,72,92180,1,2
336,88,93389,6,0,B|478:179|320:304,2,245
312,200,95566,1,8
312,200,95808,1,8
312,200,96050,1,2
224,272,96534,5,0
64,216,97260,2,0,B|28:76|176:40,1,210
160,128,98227,2,0,B|281:99|376:168,1,210
432,224,99437,1,2
48,304,101130,6,8,B|224:304,4,140
48,184,104275,5,4
48,16,105001,2,2,B|227:15|224:208,1,280
344,280,106694,1,2
456,280,107178,1,2
400,64,108871,6,0,B|379:191|216:184,1,210
64,312,110565,1,8
64,200,111049,1,8
104,88,112742,6,2,B|224:64|328:96,1,210
312,176,113710,2,2,B|192:144|80:168,1,210
184,240,114919,1,0
360,248,116613,5,0
360,80,117338,2,0,B|282:-14|214:202|112:80,1,280
40,296,119274,1,8
40,296,119515,1,4
264,304,120483,6,8,B|456:302|456:104,1,280
280,120,122176,1,8
56,120,123144,1,0
56,120,123386,1,2
248,304,124354,6,8,B|56:304|56:112,1,280
232,120,126047,1,8
456,120,127015,1,0
456,120,127257,1,2
328,192,128224,6,8,B|176:192,5,140
96,48,131369,5,0
208,48,131853,1,0
280,48,132095,2,2,B|607:32|392:296,1,420
360,184,134030,2,2,B|206:309|310:16|56:88,1,350
72,248,135965,5,4
240,248,136691,1,4
408,248,137417,1,4
40,312,155318,6,4,B|111:98|248:49|392:93|464:320,1,630
256,32,159189,5,0
104,104,159914,1,0
200,304,160882,1,2
312,304,161366,1,2
16,40,163059,6,4,B|-37:198|112:304,1,280
144,128,164753,1,8
256,128,165236,1,8
432,56,166930,5,0
368,208,167655,1,2
296,296,168139,1,2
184,296,168623,1,2
8,48,170075,5,4
168,104,170800,2,8,B|199:146|224:156|256:140|288:96,7,140
392,112,174671,5,0
328,264,175397,1,0
104,272,176364,1,2
104,160,176848,1,4
240,56,177574,5,0
256,168,178058,1,0
192,264,178541,6,10,B|254:346|328:240,7,140
256,192,182412,12,6,186283
