osu file format v14

[General]
AudioFilename: Pump It Up DEMONHEART CZ (mp3cut.net).mp3
AudioLeadIn: 0
PreviewTime: -1
Countdown: 0
SampleSet: None
StackLeniency: 0.7
Mode: 3
LetterboxInBreaks: 1
SpecialStyle: 0
WidescreenStoryboard: 0

[Editor]
Bookmarks: 29999
DistanceSpacing: 1.3
BeatDivisor: 4
GridSize: 4
TimelineZoom: 1

[Metadata]
Title:DemonHeart
TitleUnicode:DemonHeart
Artist:Luca Turilli
ArtistUnicode:Luca Turilli
Creator:-aria-chan
Version:lal 4k
Source:
Tags:
BeatmapID:658631
BeatmapSetID:292687

[Difficulty]
HPDrainRate:10
CircleSize:4
OverallDifficulty:8
ApproachRate:10
SliderMultiplier:1.4
SliderTickRate:1

[Events]
//Background and Video events
0,0,"demonheart.jpg",0,0
Video,0,"Resident Evil 3 Nemesis AMV Riot HD (online video cuttercom)[1].avi"
//Break Periods
//Storyboard Layer 0 (Background)
//Storyboard Layer 1 (Fail)
//Storyboard Layer 2 (Pass)
//Storyboard Layer 3 (Foreground)
//Storyboard Sound Samples

[TimingPoints]
0,333.333333333333,4,1,0,0,1,0

[HitObjects]
448,192,13749,5,0,0:0:0:0:
64,192,13749,1,0,0:0:0:0:
192,192,14083,1,0,0:0:0:0:
320,192,14083,1,0,0:0:0:0:
64,192,14083,1,0,0:0:0:0:
448,192,14083,1,0,0:0:0:0:
320,192,14749,1,0,0:0:0:0:
192,192,14749,1,0,0:0:0:0:
320,192,14916,1,0,0:0:0:0:
192,192,14916,1,0,0:0:0:0:
192,192,15083,1,0,0:0:0:0:
448,192,15083,1,0,0:0:0:0:
320,192,15083,1,0,0:0:0:0:
64,192,15083,1,0,0:0:0:0:
192,192,15416,1,0,0:0:0:0:
448,192,15416,1,0,0:0:0:0:
64,192,15416,1,0,0:0:0:0:
320,192,15416,1,0,0:0:0:0:
192,192,16083,1,0,0:0:0:0:
320,192,16083,1,0,0:0:0:0:
192,192,16249,1,0,0:0:0:0:
320,192,16249,1,0,0:0:0:0:
64,192,16416,1,0,0:0:0:0:
320,192,16416,1,0,0:0:0:0:
192,192,16416,1,0,0:0:0:0:
448,192,16416,1,0,0:0:0:0:
320,192,16749,1,0,0:0:0:0:
64,192,16749,1,0,0:0:0:0:
192,192,16749,1,0,0:0:0:0:
448,192,16749,1,0,0:0:0:0:
320,192,17416,1,0,0:0:0:0:
192,192,17416,1,0,0:0:0:0:
320,192,17583,1,0,0:0:0:0:
192,192,17583,1,0,0:0:0:0:
448,192,17749,1,0,0:0:0:0:
192,192,17749,1,0,0:0:0:0:
320,192,17749,1,0,0:0:0:0:
64,192,17749,1,0,0:0:0:0:
192,192,18083,1,0,0:0:0:0:
448,192,18083,1,0,0:0:0:0:
64,192,18083,1,0,0:0:0:0:
320,192,18083,1,0,0:0:0:0:
448,192,18333,1,0,0:0:0:0:
192,192,18499,1,0,0:0:0:0:
448,192,18583,1,0,0:0:0:0:
192,192,18666,1,0,0:0:0:0:
448,192,18749,1,0,0:0:0:0:
192,192,18833,1,0,0:0:0:0:
448,192,18916,1,0,0:0:0:0:
64,192,18999,1,0,0:0:0:0:
320,192,19083,1,0,0:0:0:0:
448,192,19166,1,0,0:0:0:0:
192,192,19249,1,0,0:0:0:0:
448,192,19333,1,0,0:0:0:0:
192,192,19416,1,0,0:0:0:0:
448,192,19499,1,0,0:0:0:0:
320,192,19583,1,0,0:0:0:0:
64,192,19666,1,0,0:0:0:0:
320,192,19749,1,0,0:0:0:0:
64,192,19833,1,0,0:0:0:0:
320,192,19916,1,0,0:0:0:0:
64,192,19999,1,0,0:0:0:0:
320,192,20083,1,0,0:0:0:0:
64,192,20166,1,0,0:0:0:0:
320,192,20249,1,0,0:0:0:0:
64,192,20333,1,0,0:0:0:0:
192,192,20416,1,0,0:0:0:0:
320,192,20499,1,0,0:0:0:0:
192,192,20583,1,0,0:0:0:0:
320,192,20666,1,0,0:0:0:0:
192,192,20749,1,0,0:0:0:0:
320,192,20833,1,0,0:0:0:0:
64,192,20916,1,0,0:0:0:0:
192,192,20999,1,0,0:0:0:0:
64,192,21083,1,0,0:0:0:0:
192,192,21166,1,0,0:0:0:0:
320,192,21249,1,0,0:0:0:0:
448,192,21333,1,0,0:0:0:0:
192,192,21416,1,0,0:0:0:0:
64,192,21499,1,0,0:0:0:0:
448,192,21583,1,0,0:0:0:0:
192,192,21666,1,0,0:0:0:0:
320,192,21749,1,0,0:0:0:0:
64,192,21833,1,0,0:0:0:0:
320,192,21916,1,0,0:0:0:0:
192,192,21999,1,0,0:0:0:0:
448,192,22083,1,0,0:0:0:0:
320,192,22166,1,0,0:0:0:0:
64,192,22249,1,0,0:0:0:0:
320,192,22333,1,0,0:0:0:0:
64,192,22416,1,0,0:0:0:0:
320,192,22499,1,0,0:0:0:0:
192,192,22583,1,0,0:0:0:0:
320,192,22666,1,0,0:0:0:0:
64,192,22749,1,0,0:0:0:0:
320,192,22833,1,0,0:0:0:0:
448,192,22916,1,0,0:0:0:0:
192,192,22999,1,0,0:0:0:0:
320,192,23083,1,0,0:0:0:0:
64,192,23166,1,0,0:0:0:0:
448,192,23249,1,0,0:0:0:0:
192,192,23333,1,0,0:0:0:0:
320,192,23416,1,0,0:0:0:0:
64,192,23499,1,0,0:0:0:0:
192,192,23583,1,0,0:0:0:0:
448,192,23666,1,0,0:0:0:0:
192,192,23749,1,0,0:0:0:0:
320,192,23833,1,0,0:0:0:0:
64,192,23916,1,0,0:0:0:0:
448,192,23999,1,0,0:0:0:0:
192,192,24083,1,0,0:0:0:0:
320,192,24166,1,0,0:0:0:0:
192,192,24249,1,0,0:0:0:0:
448,192,24333,1,0,0:0:0:0:
64,192,24416,1,0,0:0:0:0:
320,192,24499,1,0,0:0:0:0:
64,192,24583,1,0,0:0:0:0:
192,192,24666,1,0,0:0:0:0:
448,192,24749,1,0,0:0:0:0:
64,192,24833,1,0,0:0:0:0:
192,192,24916,1,0,0:0:0:0:
448,192,24999,1,0,0:0:0:0:
192,192,25083,1,0,0:0:0:0:
320,192,25166,1,0,0:0:0:0:
64,192,25249,1,0,0:0:0:0:
448,192,25333,1,0,0:0:0:0:
192,192,25416,1,0,0:0:0:0:
448,192,25499,1,0,0:0:0:0:
320,192,25583,1,0,0:0:0:0:
64,192,25666,1,0,0:0:0:0:
320,192,25749,1,0,0:0:0:0:
192,192,25833,1,0,0:0:0:0:
448,192,25916,1,0,0:0:0:0:
192,192,25999,1,0,0:0:0:0:
448,192,26083,1,0,0:0:0:0:
64,192,26083,1,0,0:0:0:0:
320,192,26166,1,0,0:0:0:0:
64,192,26249,1,0,0:0:0:0:
320,192,26333,1,0,0:0:0:0:
64,192,26416,1,0,0:0:0:0:
320,192,26499,1,0,0:0:0:0:
192,192,26583,1,0,0:0:0:0:
448,192,26666,1,0,0:0:0:0:
192,192,26749,1,0,0:0:0:0:
448,192,26833,1,0,0:0:0:0:
192,192,26916,1,0,0:0:0:0:
448,192,26999,1,0,0:0:0:0:
192,192,27083,1,0,0:0:0:0:
448,192,27166,1,0,0:0:0:0:
192,192,27249,1,0,0:0:0:0:
448,192,27333,1,0,0:0:0:0:
192,192,27416,1,0,0:0:0:0:
448,192,27499,1,0,0:0:0:0:
320,192,27583,1,0,0:0:0:0:
64,192,27666,1,0,0:0:0:0:
320,192,27749,1,0,0:0:0:0:
64,192,27833,1,0,0:0:0:0:
320,192,27916,1,0,0:0:0:0:
64,192,27999,1,0,0:0:0:0:
320,192,28083,1,0,0:0:0:0:
64,192,28166,1,0,0:0:0:0:
192,192,28249,1,0,0:0:0:0:
64,192,28333,1,0,0:0:0:0:
320,192,28333,1,0,0:0:0:0:
448,192,28416,1,0,0:0:0:0:
192,192,28499,1,0,0:0:0:0:
448,192,28583,1,0,0:0:0:0:
192,192,28666,1,0,0:0:0:0:
64,192,28749,1,0,0:0:0:0:
320,192,28833,1,0,0:0:0:0:
448,192,28916,1,0,0:0:0:0:
64,192,28999,1,0,0:0:0:0:
320,192,29083,1,0,0:0:0:0:
64,192,29166,1,0,0:0:0:0:
320,192,29249,1,0,0:0:0:0:
64,192,29333,1,0,0:0:0:0:
320,192,29416,1,0,0:0:0:0:
64,192,29499,1,0,0:0:0:0:
320,192,29583,1,0,0:0:0:0:
192,192,29749,1,0,0:0:0:0:
64,192,29916,1,0,0:0:0:0:
320,192,30083,1,0,0:0:0:0:
192,192,30083,1,0,0:0:0:0:
448,192,30416,1,0,0:0:0:0:
320,192,30416,1,0,0:0:0:0:
64,192,31083,1,0,0:0:0:0:
192,192,31083,1,0,0:0:0:0:
320,192,31083,1,0,0:0:0:0:
448,192,31083,1,0,0:0:0:0:
320,192,31749,1,0,0:0:0:0:
192,192,31749,1,0,0:0:0:0:
64,192,31749,1,0,0:0:0:0:
192,192,31916,1,0,0:0:0:0:
320,192,31916,1,0,0:0:0:0:
448,192,31916,1,0,0:0:0:0:
192,192,32083,1,0,0:0:0:0:
320,192,32083,1,0,0:0:0:0:
192,192,32249,1,0,0:0:0:0:
320,192,32249,1,0,0:0:0:0:
64,192,32416,1,0,0:0:0:0:
320,192,32583,1,0,0:0:0:0:
192,192,32666,1,0,0:0:0:0:
64,192,32749,1,0,0:0:0:0:
320,192,32833,1,0,0:0:0:0:
448,192,32916,1,0,0:0:0:0:
64,192,33083,1,0,0:0:0:0:
448,192,33166,1,0,0:0:0:0:
192,192,33249,1,0,0:0:0:0:
320,192,33333,1,0,0:0:0:0:
64,192,33416,1,0,0:0:0:0:
448,192,33583,1,0,0:0:0:0:
320,192,33666,1,0,0:0:0:0:
192,192,33749,1,0,0:0:0:0:
448,192,33833,1,0,0:0:0:0:
320,192,33916,1,0,0:0:0:0:
448,192,34083,1,0,0:0:0:0:
64,192,34166,1,0,0:0:0:0:
320,192,34249,1,0,0:0:0:0:
448,192,34333,1,0,0:0:0:0:
192,192,34416,1,0,0:0:0:0:
448,192,34499,1,0,0:0:0:0:
192,192,34583,1,0,0:0:0:0:
320,192,34666,1,0,0:0:0:0:
192,192,35083,1,0,0:0:0:0:
64,192,35083,1,0,0:0:0:0:
448,192,35249,1,0,0:0:0:0:
320,192,35249,1,0,0:0:0:0:
192,192,35416,1,0,0:0:0:0:
320,192,35416,1,0,0:0:0:0:
320,192,35583,1,0,0:0:0:0:
64,192,35583,1,0,0:0:0:0:
448,192,35749,1,0,0:0:0:0:
192,192,35749,1,0,0:0:0:0:
192,192,35916,1,0,0:0:0:0:
448,192,35916,1,0,0:0:0:0:
320,192,36083,1,0,0:0:0:0:
192,192,36083,1,0,0:0:0:0:
448,192,36083,1,0,0:0:0:0:
64,192,36083,1,0,0:0:0:0:
192,192,36916,1,0,0:0:0:0:
320,192,36916,1,0,0:0:0:0:
320,192,37083,1,0,0:0:0:0:
448,192,37083,1,0,0:0:0:0:
64,192,37249,1,0,0:0:0:0:
192,192,37249,1,0,0:0:0:0:
448,192,37416,1,0,0:0:0:0:
64,192,37416,1,0,0:0:0:0:
320,192,37416,1,0,0:0:0:0:
192,192,37416,1,0,0:0:0:0:
320,192,37749,1,0,0:0:0:0:
192,192,37916,1,0,0:0:0:0:
320,192,37999,1,0,0:0:0:0:
448,192,38083,1,0,0:0:0:0:
64,192,38166,1,0,0:0:0:0:
192,192,38416,1,0,0:0:0:0:
64,192,38499,1,0,0:0:0:0:
320,192,38583,1,0,0:0:0:0:
448,192,38666,1,0,0:0:0:0:
192,192,38749,1,0,0:0:0:0:
320,192,38916,1,0,0:0:0:0:
192,192,38999,1,0,0:0:0:0:
320,192,39083,1,0,0:0:0:0:
448,192,39166,1,0,0:0:0:0:
64,192,39249,1,0,0:0:0:0:
320,192,39416,1,0,0:0:0:0:
64,192,39499,1,0,0:0:0:0:
192,192,39583,1,0,0:0:0:0:
320,192,39666,1,0,0:0:0:0:
64,192,39749,1,0,0:0:0:0:
320,192,40083,1,0,0:0:0:0:
192,192,40416,1,0,0:0:0:0:
64,192,40416,1,0,0:0:0:0:
320,192,40583,1,0,0:0:0:0:
192,192,40583,1,0,0:0:0:0:
448,192,40749,1,0,0:0:0:0:
320,192,40749,1,0,0:0:0:0:
192,192,40916,1,0,0:0:0:0:
320,192,40916,1,0,0:0:0:0:
320,192,41083,1,0,0:0:0:0:
448,192,41083,1,0,0:0:0:0:
64,192,41249,1,0,0:0:0:0:
192,192,41249,1,0,0:0:0:0:
448,192,41416,1,0,0:0:0:0:
64,192,41416,1,0,0:0:0:0:
320,192,41416,1,0,0:0:0:0:
192,192,41416,1,0,0:0:0:0:
320,192,41749,1,0,0:0:0:0:
448,192,41749,1,0,0:0:0:0:
320,192,41916,1,0,0:0:0:0:
192,192,41916,1,0,0:0:0:0:
192,192,42083,1,0,0:0:0:0:
448,192,42083,1,0,0:0:0:0:
320,192,42249,1,0,0:0:0:0:
64,192,42249,1,0,0:0:0:0:
64,192,42416,1,0,0:0:0:0:
192,192,42416,1,0,0:0:0:0:
192,192,42583,1,0,0:0:0:0:
320,192,42583,1,0,0:0:0:0:
320,192,42749,1,0,0:0:0:0:
192,192,42749,1,0,0:0:0:0:
64,192,42749,1,0,0:0:0:0:
448,192,42749,1,0,0:0:0:0:
320,192,43083,1,0,0:0:0:0:
192,192,43249,1,0,0:0:0:0:
320,192,43333,1,0,0:0:0:0:
64,192,43416,1,0,0:0:0:0:
192,192,43416,1,0,0:0:0:0:
448,192,43583,1,0,0:0:0:0:
64,192,43666,1,0,0:0:0:0:
320,192,43749,1,0,0:0:0:0:
192,192,43749,1,0,0:0:0:0:
448,192,43916,1,0,0:0:0:0:
64,192,43999,1,0,0:0:0:0:
320,192,44083,1,0,0:0:0:0:
448,192,44083,1,0,0:0:0:0:
192,192,44249,1,0,0:0:0:0:
320,192,44333,1,0,0:0:0:0:
192,192,44416,1,0,0:0:0:0:
64,192,44416,1,0,0:0:0:0:
320,192,44583,1,0,0:0:0:0:
448,192,44666,1,0,0:0:0:0:
64,192,44749,1,0,0:0:0:0:
192,192,44749,1,0,0:0:0:0:
320,192,44916,1,0,0:0:0:0:
192,192,44999,1,0,0:0:0:0:
64,192,45083,1,0,0:0:0:0:
448,192,45083,1,0,0:0:0:0:
320,192,45249,1,0,0:0:0:0:
64,192,45333,1,0,0:0:0:0:
448,192,45416,1,0,0:0:0:0:
192,192,45416,1,0,0:0:0:0:
320,192,45583,1,0,0:0:0:0:
64,192,45666,1,0,0:0:0:0:
192,192,45749,128,0,47083:0:0:0:0:
320,192,47083,128,0,48166:0:0:0:0:
192,192,48249,1,0,0:0:0:0:
448,192,48333,1,0,0:0:0:0:
320,192,48416,1,0,0:0:0:0:
64,192,48416,1,0,0:0:0:0:
192,192,48583,1,0,0:0:0:0:
64,192,48666,1,0,0:0:0:0:
320,192,48749,1,0,0:0:0:0:
448,192,48749,1,0,0:0:0:0:
448,192,48916,1,0,0:0:0:0:
64,192,48999,1,0,0:0:0:0:
192,192,49083,1,0,0:0:0:0:
320,192,49083,1,0,0:0:0:0:
448,192,49249,1,0,0:0:0:0:
64,192,49333,1,0,0:0:0:0:
448,192,49416,1,0,0:0:0:0:
320,192,49416,1,0,0:0:0:0:
64,192,49583,1,0,0:0:0:0:
192,192,49666,1,0,0:0:0:0:
448,192,49749,1,0,0:0:0:0:
320,192,49749,1,0,0:0:0:0:
192,192,49916,1,0,0:0:0:0:
448,192,49999,1,0,0:0:0:0:
64,192,50083,1,0,0:0:0:0:
192,192,50083,1,0,0:0:0:0:
320,192,50249,1,0,0:0:0:0:
448,192,50333,1,0,0:0:0:0:
64,192,50416,1,0,0:0:0:0:
192,192,50416,1,0,0:0:0:0:
448,192,50583,1,0,0:0:0:0:
320,192,50666,1,0,0:0:0:0:
64,192,50749,1,0,0:0:0:0:
192,192,50749,1,0,0:0:0:0:
320,192,50916,1,0,0:0:0:0:
448,192,50999,1,0,0:0:0:0:
64,192,51083,128,0,52416:0:0:0:0:
192,192,52416,128,0,53416:0:0:0:0:
448,192,53583,1,0,0:0:0:0:
192,192,53666,1,0,0:0:0:0:
64,192,53749,1,0,0:0:0:0:
320,192,53749,1,0,0:0:0:0:
320,192,53916,1,0,0:0:0:0:
448,192,53999,1,0,0:0:0:0:
192,192,54083,1,0,0:0:0:0:
64,192,54083,1,0,0:0:0:0:
320,192,54249,1,0,0:0:0:0:
192,192,54333,1,0,0:0:0:0:
448,192,54416,1,0,0:0:0:0:
320,192,54416,1,0,0:0:0:0:
448,192,54583,1,0,0:0:0:0:
320,192,54666,1,0,0:0:0:0:
192,192,54749,1,0,0:0:0:0:
64,192,54749,1,0,0:0:0:0:
64,192,54916,1,0,0:0:0:0:
192,192,54999,1,0,0:0:0:0:
320,192,55083,1,0,0:0:0:0:
64,192,55083,1,0,0:0:0:0:
448,192,55249,1,0,0:0:0:0:
320,192,55333,1,0,0:0:0:0:
192,192,55416,1,0,0:0:0:0:
64,192,55416,1,0,0:0:0:0:
320,192,55583,1,0,0:0:0:0:
448,192,55666,1,0,0:0:0:0:
64,192,55749,1,0,0:0:0:0:
192,192,55749,1,0,0:0:0:0:
192,192,55916,1,0,0:0:0:0:
320,192,55999,1,0,0:0:0:0:
64,192,56083,1,0,0:0:0:0:
192,192,56083,1,0,0:0:0:0:
64,192,56249,1,0,0:0:0:0:
192,192,56333,1,0,0:0:0:0:
320,192,56416,128,0,57749:0:0:0:0:
192,192,57749,128,0,58916:0:0:0:0:
448,192,58916,1,0,0:0:0:0:
320,192,58999,1,0,0:0:0:0:
448,192,59083,1,0,0:0:0:0:
192,192,59249,1,0,0:0:0:0:
64,192,59333,1,0,0:0:0:0:
320,192,59416,1,0,0:0:0:0:
448,192,59416,1,0,0:0:0:0:
448,192,59583,1,0,0:0:0:0:
320,192,59666,1,0,0:0:0:0:
64,192,59749,1,0,0:0:0:0:
192,192,59749,1,0,0:0:0:0:
192,192,59916,1,0,0:0:0:0:
448,192,59999,1,0,0:0:0:0:
64,192,60083,1,0,0:0:0:0:
192,192,60083,1,0,0:0:0:0:
320,192,60249,1,0,0:0:0:0:
448,192,60333,1,0,0:0:0:0:
64,192,60416,1,0,0:0:0:0:
320,192,60416,1,0,0:0:0:0:
192,192,60583,1,0,0:0:0:0:
64,192,60666,1,0,0:0:0:0:
448,192,60749,1,0,0:0:0:0:
320,192,60749,1,0,0:0:0:0:
192,192,60916,1,0,0:0:0:0:
320,192,60999,1,0,0:0:0:0:
64,192,61083,1,0,0:0:0:0:
448,192,61083,1,0,0:0:0:0:
448,192,61249,1,0,0:0:0:0:
64,192,61333,1,0,0:0:0:0:
320,192,61416,1,0,0:0:0:0:
448,192,61416,1,0,0:0:0:0:
192,192,61583,1,0,0:0:0:0:
64,192,61666,1,0,0:0:0:0:
448,192,61749,128,0,63916:0:0:0:0:
320,192,63916,1,0,0:0:0:0:
192,192,63999,1,0,0:0:0:0:
64,192,64083,1,0,0:0:0:0:
192,192,64166,1,0,0:0:0:0:
320,192,64249,1,0,0:0:0:0:
448,192,64333,1,0,0:0:0:0:
192,192,64499,1,0,0:0:0:0:
448,192,64583,1,0,0:0:0:0:
192,192,64666,1,0,0:0:0:0:
448,192,64749,1,0,0:0:0:0:
192,192,64833,1,0,0:0:0:0:
448,192,64916,1,0,0:0:0:0:
192,192,64999,1,0,0:0:0:0:
448,192,65083,1,0,0:0:0:0:
320,192,65166,1,0,0:0:0:0:
192,192,65249,1,0,0:0:0:0:
64,192,65333,1,0,0:0:0:0:
320,192,65416,1,0,0:0:0:0:
448,192,65499,1,0,0:0:0:0:
192,192,65583,1,0,0:0:0:0:
320,192,65666,1,0,0:0:0:0:
64,192,65749,1,0,0:0:0:0:
192,192,65833,1,0,0:0:0:0:
320,192,65916,1,0,0:0:0:0:
448,192,65999,1,0,0:0:0:0:
192,192,66083,1,0,0:0:0:0:
448,192,66166,1,0,0:0:0:0:
192,192,66249,1,0,0:0:0:0:
448,192,66333,1,0,0:0:0:0:
192,192,66416,1,0,0:0:0:0:
448,192,66499,1,0,0:0:0:0:
192,192,66583,1,0,0:0:0:0:
64,192,66666,1,0,0:0:0:0:
320,192,66749,1,0,0:0:0:0:
448,192,66833,1,0,0:0:0:0:
192,192,66916,1,0,0:0:0:0:
448,192,66999,1,0,0:0:0:0:
192,192,67083,1,0,0:0:0:0:
448,192,67166,1,0,0:0:0:0:
192,192,67249,1,0,0:0:0:0:
448,192,67333,1,0,0:0:0:0:
64,192,67416,1,0,0:0:0:0:
320,192,67499,1,0,0:0:0:0:
64,192,67583,1,0,0:0:0:0:
192,192,67666,1,0,0:0:0:0:
448,192,67749,1,0,0:0:0:0:
320,192,67833,1,0,0:0:0:0:
64,192,67916,1,0,0:0:0:0:
320,192,67999,1,0,0:0:0:0:
64,192,68083,1,0,0:0:0:0:
448,192,68166,1,0,0:0:0:0:
192,192,68249,1,0,0:0:0:0:
448,192,68333,1,0,0:0:0:0:
192,192,68416,1,0,0:0:0:0:
448,192,68499,1,0,0:0:0:0:
192,192,68583,1,0,0:0:0:0:
448,192,68666,1,0,0:0:0:0:
192,192,68749,1,0,0:0:0:0:
448,192,68833,1,0,0:0:0:0:
320,192,68916,1,0,0:0:0:0:
64,192,68999,1,0,0:0:0:0:
192,192,69083,1,0,0:0:0:0:
448,192,69166,1,0,0:0:0:0:
192,192,69249,1,0,0:0:0:0:
64,192,69333,1,0,0:0:0:0:
320,192,69416,1,0,0:0:0:0:
448,192,69499,1,0,0:0:0:0:
192,192,69583,1,0,0:0:0:0:
320,192,69666,1,0,0:0:0:0:
64,192,69749,1,0,0:0:0:0:
448,192,69833,1,0,0:0:0:0:
192,192,69916,1,0,0:0:0:0:
320,192,69999,1,0,0:0:0:0:
64,192,70083,1,0,0:0:0:0:
320,192,70166,1,0,0:0:0:0:
448,192,70249,1,0,0:0:0:0:
192,192,70333,1,0,0:0:0:0:
448,192,70416,1,0,0:0:0:0:
192,192,70499,1,0,0:0:0:0:
448,192,70583,1,0,0:0:0:0:
192,192,70666,1,0,0:0:0:0:
448,192,70749,1,0,0:0:0:0:
192,192,70833,1,0,0:0:0:0:
448,192,70916,1,0,0:0:0:0:
320,192,70999,1,0,0:0:0:0:
64,192,71083,1,0,0:0:0:0:
192,192,71166,1,0,0:0:0:0:
320,192,71249,1,0,0:0:0:0:
448,192,71333,1,0,0:0:0:0:
192,192,71416,1,0,0:0:0:0:
64,192,71499,1,0,0:0:0:0:
320,192,71583,1,0,0:0:0:0:
448,192,71666,1,0,0:0:0:0:
192,192,71749,1,0,0:0:0:0:
448,192,71833,1,0,0:0:0:0:
192,192,71916,1,0,0:0:0:0:
448,192,71999,1,0,0:0:0:0:
192,192,72083,1,0,0:0:0:0:
448,192,72166,1,0,0:0:0:0:
64,192,72249,1,0,0:0:0:0:
320,192,72333,1,0,0:0:0:0:
64,192,72416,1,0,0:0:0:0:
320,192,72499,1,0,0:0:0:0:
64,192,72583,1,0,0:0:0:0:
320,192,72666,1,0,0:0:0:0:
64,192,72749,1,0,0:0:0:0:
320,192,72833,1,0,0:0:0:0:
64,192,72916,1,0,0:0:0:0:
320,192,72999,1,0,0:0:0:0:
448,192,73083,1,0,0:0:0:0:
192,192,73166,1,0,0:0:0:0:
320,192,73249,1,0,0:0:0:0:
448,192,73333,1,0,0:0:0:0:
64,192,73416,1,0,0:0:0:0:
320,192,73499,1,0,0:0:0:0:
192,192,73583,1,0,0:0:0:0:
448,192,73666,1,0,0:0:0:0:
64,192,73749,1,0,0:0:0:0:
320,192,73833,1,0,0:0:0:0:
64,192,73916,1,0,0:0:0:0:
192,192,73999,1,0,0:0:0:0:
320,192,74083,1,0,0:0:0:0:
448,192,74166,1,0,0:0:0:0:
192,192,74249,1,0,0:0:0:0:
64,192,74333,1,0,0:0:0:0:
192,192,74416,1,0,0:0:0:0:
320,192,74499,1,0,0:0:0:0:
448,192,74583,1,0,0:0:0:0:
320,192,74666,1,0,0:0:0:0:
192,192,74749,1,0,0:0:0:0:
320,192,74833,1,0,0:0:0:0:
448,192,74916,1,0,0:0:0:0:
64,192,75083,1,0,0:0:0:0:
320,192,75249,1,0,0:0:0:0:
448,192,75416,1,0,0:0:0:0:
192,192,75583,1,0,0:0:0:0:
320,192,75749,1,0,0:0:0:0:
64,192,75916,1,0,0:0:0:0:
448,192,76083,1,0,0:0:0:0:
192,192,76249,1,0,0:0:0:0:
320,192,76416,1,0,0:0:0:0:
448,192,76583,1,0,0:0:0:0:
64,192,76749,1,0,0:0:0:0:
320,192,76916,1,0,0:0:0:0:
192,192,77083,1,0,0:0:0:0:
448,192,77249,1,0,0:0:0:0:
192,192,77416,1,0,0:0:0:0:
64,192,77583,1,0,0:0:0:0:
320,192,77749,1,0,0:0:0:0:
448,192,77916,1,0,0:0:0:0:
64,192,78083,1,0,0:0:0:0:
320,192,78249,1,0,0:0:0:0:
64,192,78416,1,0,0:0:0:0:
448,192,78583,1,0,0:0:0:0:
192,192,78749,1,0,0:0:0:0:
64,192,78916,1,0,0:0:0:0:
320,192,79083,1,0,0:0:0:0:
64,192,79249,1,0,0:0:0:0:
448,192,79416,1,0,0:0:0:0:
320,192,79583,1,0,0:0:0:0:
192,192,79749,1,0,0:0:0:0:
64,192,79916,1,0,0:0:0:0:
320,192,80083,1,0,0:0:0:0:
192,192,80166,1,0,0:0:0:0:
320,192,80249,1,0,0:0:0:0:
448,192,80333,1,0,0:0:0:0:
320,192,80416,1,0,0:0:0:0:
192,192,80499,1,0,0:0:0:0:
320,192,80749,1,0,0:0:0:0:
448,192,80749,1,0,0:0:0:0:
192,192,81083,1,0,0:0:0:0:
320,192,81416,1,0,0:0:0:0:
448,192,81416,1,0,0:0:0:0:
192,192,81749,1,0,0:0:0:0:
320,192,82083,1,0,0:0:0:0:
448,192,82083,1,0,0:0:0:0:
192,192,82416,1,0,0:0:0:0:
320,192,82749,1,0,0:0:0:0:
448,192,82749,1,0,0:0:0:0:
64,192,83083,1,0,0:0:0:0:
320,192,83166,1,0,0:0:0:0:
64,192,83249,1,0,0:0:0:0:
320,192,83333,1,0,0:0:0:0:
64,192,83416,1,0,0:0:0:0:
320,192,83499,1,0,0:0:0:0:
64,192,83583,1,0,0:0:0:0:
320,192,83666,1,0,0:0:0:0:
64,192,83749,1,0,0:0:0:0:
320,192,83833,1,0,0:0:0:0:
64,192,83916,1,0,0:0:0:0:
320,192,83999,1,0,0:0:0:0:
64,192,84083,1,0,0:0:0:0:
320,192,84166,1,0,0:0:0:0:
64,192,84249,1,0,0:0:0:0:
320,192,84333,1,0,0:0:0:0:
64,192,84416,1,0,0:0:0:0:
320,192,84499,1,0,0:0:0:0:
64,192,84583,1,0,0:0:0:0:
320,192,84666,1,0,0:0:0:0:
64,192,84749,1,0,0:0:0:0:
320,192,84833,1,0,0:0:0:0:
64,192,84916,1,0,0:0:0:0:
320,192,84999,1,0,0:0:0:0:
64,192,85083,1,0,0:0:0:0:
320,192,85166,1,0,0:0:0:0:
64,192,85249,1,0,0:0:0:0:
320,192,85333,1,0,0:0:0:0:
64,192,85416,1,0,0:0:0:0:
320,192,85499,1,0,0:0:0:0:
64,192,85583,1,0,0:0:0:0:
320,192,85666,1,0,0:0:0:0:
64,192,85749,1,0,0:0:0:0:
320,192,85833,1,0,0:0:0:0:
192,192,86083,1,0,0:0:0:0:
64,192,86083,1,0,0:0:0:0:
448,192,86416,1,0,0:0:0:0:
192,192,86749,1,0,0:0:0:0:
64,192,86749,1,0,0:0:0:0:
448,192,87083,1,0,0:0:0:0:
192,192,87416,1,0,0:0:0:0:
64,192,87416,1,0,0:0:0:0:
448,192,87749,1,0,0:0:0:0:
192,192,88083,1,0,0:0:0:0:
64,192,88083,1,0,0:0:0:0:
448,192,88416,1,0,0:0:0:0:
192,192,88499,1,0,0:0:0:0:
448,192,88583,1,0,0:0:0:0:
192,192,88666,1,0,0:0:0:0:
448,192,88749,1,0,0:0:0:0:
192,192,88833,1,0,0:0:0:0:
448,192,88916,1,0,0:0:0:0:
192,192,88999,1,0,0:0:0:0:
448,192,89083,1,0,0:0:0:0:
192,192,89166,1,0,0:0:0:0:
448,192,89249,1,0,0:0:0:0:
192,192,89333,1,0,0:0:0:0:
448,192,89416,1,0,0:0:0:0:
192,192,89499,1,0,0:0:0:0:
448,192,89583,1,0,0:0:0:0:
192,192,89666,1,0,0:0:0:0:
448,192,89749,1,0,0:0:0:0:
192,192,89833,1,0,0:0:0:0:
448,192,89916,1,0,0:0:0:0:
192,192,89999,1,0,0:0:0:0:
448,192,90083,1,0,0:0:0:0:
192,192,90166,1,0,0:0:0:0:
448,192,90249,1,0,0:0:0:0:
192,192,90333,1,0,0:0:0:0:
448,192,90416,1,0,0:0:0:0:
192,192,90499,1,0,0:0:0:0:
448,192,90583,1,0,0:0:0:0:
192,192,90666,1,0,0:0:0:0:
448,192,90749,1,0,0:0:0:0:
192,192,90833,1,0,0:0:0:0:
448,192,90916,1,0,0:0:0:0:
192,192,90999,1,0,0:0:0:0:
64,192,90999,1,0,0:0:0:0:
192,192,91333,1,0,0:0:0:0:
320,192,91333,1,0,0:0:0:0:
320,192,91999,1,0,0:0:0:0:
192,192,91999,1,0,0:0:0:0:
192,192,92166,1,0,0:0:0:0:
320,192,92166,1,0,0:0:0:0:
64,192,92333,1,0,0:0:0:0:
320,192,92333,1,0,0:0:0:0:
192,192,92333,1,0,0:0:0:0:
448,192,92333,1,0,0:0:0:0:
64,192,92666,1,0,0:0:0:0:
192,192,92666,1,0,0:0:0:0:
320,192,92666,1,0,0:0:0:0:
448,192,92666,1,0,0:0:0:0:
320,192,93333,1,0,0:0:0:0:
192,192,93333,1,0,0:0:0:0:
192,192,93499,1,0,0:0:0:0:
320,192,93499,1,0,0:0:0:0:
192,192,93666,1,0,0:0:0:0:
320,192,93666,1,0,0:0:0:0:
448,192,93666,1,0,0:0:0:0:
64,192,93666,1,0,0:0:0:0:
64,192,93999,1,0,0:0:0:0:
192,192,93999,1,0,0:0:0:0:
320,192,93999,1,0,0:0:0:0:
448,192,93999,1,0,0:0:0:0:
192,192,94666,1,0,0:0:0:0:
320,192,94666,1,0,0:0:0:0:
192,192,94833,1,0,0:0:0:0:
320,192,94833,1,0,0:0:0:0:
192,192,94999,1,0,0:0:0:0:
320,192,94999,1,0,0:0:0:0:
448,192,94999,1,0,0:0:0:0:
64,192,94999,1,0,0:0:0:0:
448,192,95249,1,0,0:0:0:0:
192,192,95583,1,0,0:0:0:0:
448,192,95666,1,0,0:0:0:0:
192,192,95749,1,0,0:0:0:0:
448,192,95833,1,0,0:0:0:0:
64,192,95916,1,0,0:0:0:0:
320,192,95999,1,0,0:0:0:0:
64,192,96083,1,0,0:0:0:0:
448,192,96166,1,0,0:0:0:0:
64,192,96249,1,0,0:0:0:0:
192,192,96333,1,0,0:0:0:0:
448,192,96416,1,0,0:0:0:0:
192,192,96499,1,0,0:0:0:0:
320,192,96583,1,0,0:0:0:0:
448,192,96666,1,0,0:0:0:0:
320,192,96749,1,0,0:0:0:0:
192,192,96833,1,0,0:0:0:0:
448,192,96916,1,0,0:0:0:0:
64,192,96999,1,0,0:0:0:0:
320,192,97083,1,0,0:0:0:0:
448,192,97166,1,0,0:0:0:0:
192,192,97249,1,0,0:0:0:0:
64,192,97333,1,0,0:0:0:0:
320,192,97416,1,0,0:0:0:0:
64,192,97499,1,0,0:0:0:0:
320,192,97583,1,0,0:0:0:0:
64,192,97666,1,0,0:0:0:0:
320,192,97749,1,0,0:0:0:0:
64,192,97833,1,0,0:0:0:0:
448,192,97916,1,0,0:0:0:0:
192,192,97999,1,0,0:0:0:0:
320,192,98083,1,0,0:0:0:0:
64,192,98166,1,0,0:0:0:0:
320,192,98249,1,0,0:0:0:0:
448,192,98333,1,0,0:0:0:0:
192,192,98416,1,0,0:0:0:0:
64,192,98499,1,0,0:0:0:0:
448,192,98583,1,0,0:0:0:0:
192,192,98666,1,0,0:0:0:0:
448,192,98749,1,0,0:0:0:0:
64,192,98833,1,0,0:0:0:0:
320,192,98916,1,0,0:0:0:0:
64,192,98999,1,0,0:0:0:0:
192,192,99083,1,0,0:0:0:0:
448,192,99166,1,0,0:0:0:0:
320,192,99249,1,0,0:0:0:0:
64,192,99333,1,0,0:0:0:0:
448,192,99416,1,0,0:0:0:0:
192,192,99499,1,0,0:0:0:0:
448,192,99583,1,0,0:0:0:0:
64,192,99666,1,0,0:0:0:0:
320,192,99749,1,0,0:0:0:0:
64,192,99833,1,0,0:0:0:0:
320,192,99916,1,0,0:0:0:0:
64,192,99999,1,0,0:0:0:0:
320,192,100083,1,0,0:0:0:0:
64,192,100166,1,0,0:0:0:0:
320,192,100249,1,0,0:0:0:0:
64,192,100333,1,0,0:0:0:0:
320,192,100416,1,0,0:0:0:0:
64,192,100499,1,0,0:0:0:0:
320,192,100583,1,0,0:0:0:0:
192,192,100666,1,0,0:0:0:0:
448,192,100749,1,0,0:0:0:0:
192,192,100833,1,0,0:0:0:0:
448,192,100916,1,0,0:0:0:0:
192,192,100999,1,0,0:0:0:0:
448,192,101083,1,0,0:0:0:0:
192,192,101166,1,0,0:0:0:0:
448,192,101249,1,0,0:0:0:0:
320,192,101333,1,0,0:0:0:0:
192,192,101416,1,0,0:0:0:0:
448,192,101499,1,0,0:0:0:0:
320,192,101583,1,0,0:0:0:0:
64,192,101666,1,0,0:0:0:0:
320,192,101749,1,0,0:0:0:0:
64,192,101833,1,0,0:0:0:0:
448,192,101916,1,0,0:0:0:0:
320,192,101999,1,0,0:0:0:0:
64,192,102083,1,0,0:0:0:0:
192,192,102166,1,0,0:0:0:0:
448,192,102249,1,0,0:0:0:0:
320,192,102333,1,0,0:0:0:0:
64,192,102416,1,0,0:0:0:0:
192,192,102499,1,0,0:0:0:0:
320,192,102583,1,0,0:0:0:0:
448,192,102666,1,0,0:0:0:0:
192,192,102749,1,0,0:0:0:0:
64,192,102833,1,0,0:0:0:0:
320,192,102916,1,0,0:0:0:0:
448,192,102999,1,0,0:0:0:0:
320,192,103083,1,0,0:0:0:0:
64,192,103166,1,0,0:0:0:0:
320,192,103249,1,0,0:0:0:0:
448,192,103333,1,0,0:0:0:0:
192,192,103416,1,0,0:0:0:0:
64,192,103499,1,0,0:0:0:0:
320,192,103583,1,0,0:0:0:0:
448,192,103666,1,0,0:0:0:0:
64,192,103749,1,0,0:0:0:0:
320,192,103833,1,0,0:0:0:0:
448,192,103916,1,0,0:0:0:0:
192,192,103999,1,0,0:0:0:0:
64,192,104083,1,0,0:0:0:0:
448,192,104166,1,0,0:0:0:0:
192,192,104249,1,0,0:0:0:0:
320,192,104333,1,0,0:0:0:0:
64,192,104416,1,0,0:0:0:0:
320,192,104499,1,0,0:0:0:0:
448,192,104583,1,0,0:0:0:0:
192,192,104666,1,0,0:0:0:0:
448,192,104749,1,0,0:0:0:0:
64,192,104833,1,0,0:0:0:0:
320,192,104916,1,0,0:0:0:0:
64,192,104999,1,0,0:0:0:0:
192,192,105083,1,0,0:0:0:0:
448,192,105166,1,0,0:0:0:0:
192,192,105249,1,0,0:0:0:0:
64,192,105333,1,0,0:0:0:0:
320,192,105416,1,0,0:0:0:0:
448,192,105499,1,0,0:0:0:0:
64,192,105583,1,0,0:0:0:0:
448,192,105666,1,0,0:0:0:0:
192,192,105749,1,0,0:0:0:0:
448,192,105833,1,0,0:0:0:0:
320,192,105916,1,0,0:0:0:0:
64,192,105999,1,0,0:0:0:0:
448,192,106083,1,0,0:0:0:0:
192,192,106166,1,0,0:0:0:0:
320,192,106249,1,0,0:0:0:0:
64,192,106333,1,0,0:0:0:0:
448,192,106416,1,0,0:0:0:0:
320,192,106499,1,0,0:0:0:0:
192,192,106583,1,0,0:0:0:0:
320,192,106666,1,0,0:0:0:0:
64,192,106749,1,0,0:0:0:0:
448,192,106833,1,0,0:0:0:0:
192,192,106916,1,0,0:0:0:0:
448,192,106999,1,0,0:0:0:0:
64,192,107083,1,0,0:0:0:0:
320,192,107166,1,0,0:0:0:0:
64,192,107249,1,0,0:0:0:0:
320,192,107333,1,0,0:0:0:0:
64,192,107416,1,0,0:0:0:0:
320,192,107499,1,0,0:0:0:0:
64,192,107583,1,0,0:0:0:0:
320,192,107666,1,0,0:0:0:0:
64,192,107749,1,0,0:0:0:0:
320,192,107833,1,0,0:0:0:0:
64,192,107916,1,0,0:0:0:0:
320,192,107999,1,0,0:0:0:0:
64,192,108083,1,0,0:0:0:0:
320,192,108166,1,0,0:0:0:0:
192,192,108249,1,0,0:0:0:0:
448,192,108333,1,0,0:0:0:0:
192,192,108416,1,0,0:0:0:0:
448,192,108499,1,0,0:0:0:0:
192,192,108583,1,0,0:0:0:0:
448,192,108666,1,0,0:0:0:0:
192,192,108749,1,0,0:0:0:0:
448,192,108833,1,0,0:0:0:0:
192,192,108916,1,0,0:0:0:0:
448,192,108999,1,0,0:0:0:0:
192,192,109083,1,0,0:0:0:0:
448,192,109166,1,0,0:0:0:0:
192,192,109249,1,0,0:0:0:0:
448,192,109333,1,0,0:0:0:0:
192,192,109416,1,0,0:0:0:0:
448,192,109499,1,0,0:0:0:0:
64,192,109583,1,0,0:0:0:0:
448,192,109666,1,0,0:0:0:0:
320,192,109749,1,0,0:0:0:0:
64,192,109749,1,0,0:0:0:0:
192,192,109833,1,0,0:0:0:0:
64,192,109916,1,0,0:0:0:0:
320,192,109999,1,0,0:0:0:0:
448,192,110083,1,0,0:0:0:0:
192,192,110083,1,0,0:0:0:0:
320,192,110166,1,0,0:0:0:0:
192,192,110249,1,0,0:0:0:0:
64,192,110249,1,0,0:0:0:0:
448,192,110333,1,0,0:0:0:0:
64,192,110416,1,0,0:0:0:0:
320,192,110416,1,0,0:0:0:0:
192,192,110499,1,0,0:0:0:0:
448,192,110583,1,0,0:0:0:0:
320,192,110666,1,0,0:0:0:0:
192,192,110666,1,0,0:0:0:0:
64,192,110749,1,0,0:0:0:0:
448,192,110833,1,0,0:0:0:0:
64,192,110916,1,0,0:0:0:0:
448,192,110999,1,0,0:0:0:0:
64,192,111083,1,0,0:0:0:0:
320,192,111083,1,0,0:0:0:0:
192,192,111166,1,0,0:0:0:0:
448,192,111249,1,0,0:0:0:0:
320,192,111333,1,0,0:0:0:0:
192,192,111416,1,0,0:0:0:0:
448,192,111416,1,0,0:0:0:0:
64,192,111499,1,0,0:0:0:0:
320,192,111583,1,0,0:0:0:0:
192,192,111666,1,0,0:0:0:0:
448,192,111749,1,0,0:0:0:0:
64,192,111749,1,0,0:0:0:0:
192,192,111833,1,0,0:0:0:0:
64,192,111916,1,0,0:0:0:0:
320,192,111999,1,0,0:0:0:0:
448,192,112083,1,0,0:0:0:0:
192,192,112083,1,0,0:0:0:0:
64,192,112166,1,0,0:0:0:0:
192,192,112249,1,0,0:0:0:0:
320,192,112333,1,0,0:0:0:0:
448,192,112416,1,0,0:0:0:0:
192,192,112416,1,0,0:0:0:0:
320,192,112499,1,0,0:0:0:0:
64,192,112583,1,0,0:0:0:0:
192,192,112666,1,0,0:0:0:0:
448,192,112749,1,0,0:0:0:0:
320,192,112833,1,0,0:0:0:0:
192,192,112833,1,0,0:0:0:0:
64,192,112916,1,0,0:0:0:0:
320,192,112999,1,0,0:0:0:0:
448,192,113083,1,0,0:0:0:0:
192,192,113166,1,0,0:0:0:0:
64,192,113166,1,0,0:0:0:0:
448,192,113249,1,0,0:0:0:0:
64,192,113333,1,0,0:0:0:0:
192,192,113416,1,0,0:0:0:0:
448,192,113499,1,0,0:0:0:0:
320,192,113499,1,0,0:0:0:0:
192,192,113583,1,0,0:0:0:0:
64,192,113666,1,0,0:0:0:0:
192,192,113749,1,0,0:0:0:0:
448,192,113833,1,0,0:0:0:0:
320,192,113833,1,0,0:0:0:0:
64,192,113916,1,0,0:0:0:0:
192,192,113999,1,0,0:0:0:0:
448,192,113999,1,0,0:0:0:0:
320,192,114083,1,0,0:0:0:0:
192,192,114166,1,0,0:0:0:0:
320,192,114249,1,0,0:0:0:0:
448,192,114249,1,0,0:0:0:0:
64,192,114333,1,0,0:0:0:0:
448,192,114416,1,0,0:0:0:0:
192,192,114499,1,0,0:0:0:0:
64,192,114499,1,0,0:0:0:0:
320,192,114583,1,0,0:0:0:0:
448,192,114666,1,0,0:0:0:0:
64,192,114749,1,0,0:0:0:0:
192,192,114749,1,0,0:0:0:0:
448,192,114833,1,0,0:0:0:0:
64,192,114916,1,0,0:0:0:0:
192,192,114999,1,0,0:0:0:0:
320,192,114999,1,0,0:0:0:0:
448,192,115083,1,0,0:0:0:0:
192,192,115166,1,0,0:0:0:0:
64,192,115166,1,0,0:0:0:0:
320,192,115249,1,0,0:0:0:0:
64,192,115333,1,0,0:0:0:0:
320,192,115416,1,0,0:0:0:0:
448,192,115499,1,0,0:0:0:0:
192,192,115499,1,0,0:0:0:0:
64,192,115583,1,0,0:0:0:0:
320,192,115666,1,0,0:0:0:0:
448,192,115749,1,0,0:0:0:0:
192,192,115749,1,0,0:0:0:0:
64,192,115833,1,0,0:0:0:0:
320,192,115916,1,0,0:0:0:0:
448,192,115999,1,0,0:0:0:0:
64,192,116083,1,0,0:0:0:0:
320,192,116083,1,0,0:0:0:0:
192,192,116166,1,0,0:0:0:0:
448,192,116249,1,0,0:0:0:0:
64,192,116249,1,0,0:0:0:0:
320,192,116333,1,0,0:0:0:0:
64,192,116416,1,0,0:0:0:0:
320,192,116499,1,0,0:0:0:0:
64,192,116583,1,0,0:0:0:0:
448,192,116666,1,0,0:0:0:0:
192,192,116749,1,0,0:0:0:0:
448,192,116833,1,0,0:0:0:0:
192,192,116916,1,0,0:0:0:0:
448,192,116999,1,0,0:0:0:0:
192,192,117083,1,0,0:0:0:0:
448,192,117166,1,0,0:0:0:0:
192,192,117249,1,0,0:0:0:0:
448,192,117333,1,0,0:0:0:0:
192,192,117416,1,0,0:0:0:0:
448,192,117499,1,0,0:0:0:0:
192,192,117666,1,0,0:0:0:0:
64,192,117666,1,0,0:0:0:0:
448,192,117999,1,0,0:0:0:0:
320,192,117999,1,0,0:0:0:0:
192,192,118333,1,0,0:0:0:0:
64,192,118333,1,0,0:0:0:0:
320,192,118999,5,0,0:0:0:0:
192,192,118999,1,0,0:0:0:0:
64,192,118999,1,0,0:0:0:0:
448,192,118999,1,0,0:0:0:0:
