osu file format v9

[General]
AudioFilename: Da Jung Tian New Remix.mp3
AudioLeadIn: 1996
PreviewTime: 93005
Countdown: 1
SampleSet: Normal
StackLeniency: 0.5
Mode: 0
LetterboxInBreaks: 1

[Editor]
Bookmarks: 67410,80207,105802
DistanceSpacing: 0.8
BeatDivisor: 4
GridSize: 32

[Metadata]
Title:Da Zhong Tian New Remix
Artist:Lu Dan
Creator:mamosora
Version:Aki_Zombies
Source:
Tags:

[Difficulty]
HPDrainRate:7
CircleSize:4
OverallDifficulty:5
ApproachRate:9
SliderMultiplier:2.8
SliderTickRate:4

[Events]
//Background and Video events
0,0,"BG_1335.jpg"
//Break Periods
2,57812,66810
//Storyboard Layer 0 (Background)
//Storyboard Layer 1 (Fail)
//Storyboard Layer 2 (Pass)
//Storyboard Layer 3 (Foreground)
//Storyboard Sound Samples
//Background Colour Transformations
3,100,163,162,255

[TimingPoints]
3423,399.920015996801,4,1,0,80,1,0
29017,-66.6666666666667,4,1,0,80,0,1
45014,-50,4,1,0,80,0,1
47814,-66.6666666666667,4,1,0,80,0,1
54612,-66.6666666666667,4,1,0,60,0,0
67410,-50,4,1,0,60,0,0
67810,-100,4,1,0,60,0,0
80207,-100,4,1,0,80,0,1
80307,-100,4,1,0,80,0,0
81407,-100,4,1,0,80,0,1
81507,-100,4,1,0,80,0,0
83007,-100,4,1,0,80,0,1
83107,-100,4,1,0,80,0,0
84606,-100,4,1,0,80,0,1
84706,-100,4,1,0,80,0,0
86206,-100,4,1,0,80,0,1
86306,-100,4,1,0,80,0,0
91005,-100,4,1,0,80,0,1
92905,-100,4,1,0,80,0,0
93005,-100,4,1,0,80,0,1
105602,-100,4,1,0,80,0,0
105802,-66.6666666666667,4,1,0,80,0,1
108901,-66.6666666666667,4,1,0,80,0,0
109001,-50,4,1,0,80,0,1
115200,-50,4,1,0,80,0,0
115400,-50,4,1,0,80,0,1
115600,-50,4,1,0,80,0,0
115800,-50,4,1,0,80,0,1
116000,-50,4,1,0,80,0,0
116200,-50,4,1,0,80,0,1
116400,-50,4,1,0,80,0,0
116600,-50,4,1,0,80,0,1
116800,-50,4,1,0,80,0,0
117000,-50,4,1,0,80,0,1
117200,-50,4,1,0,80,0,0
117400,-50,4,1,0,80,0,1
117600,-50,4,1,0,80,0,0
117800,-50,4,1,0,80,0,1
118000,-50,4,1,0,80,0,0
118200,-50,4,1,0,80,0,1
118400,-50,4,1,0,80,0,0
118599,-50,4,1,0,80,0,1
118799,-50,4,1,0,80,0,0
118999,-50,4,1,0,80,0,1
119199,-50,4,1,0,80,0,0
119399,-50,4,1,0,80,0,1

[Colours]
Combo1 : 255,255,0
Combo2 : 0,0,255
Combo3 : 255,128,0
Combo4 : 255,255,255

[HitObjects]
256,192,223,12,4,3223
96,160,3423,6,2,B|160:256|224:256,1,140
288,256,3822,1,0
448,96,4422,2,0,B|320:96|288:64,1,140
192,288,5022,2,2,B|128:256,1,70
448,288,5422,6,0,B|384:288|320:224,1,140
64,96,6022,2,2,B|224:96,1,140
320,288,6622,6,0,B|256:256|160:256,1,140
64,224,7022,1,0
448,64,7622,6,2,B|480:128|448:224,1,140
192,224,8222,1,0
384,64,8621,1,0
160,96,9021,6,2,B|96:160|64:256,1,140
384,320,9421,1,0
288,64,9821,6,0,B|384:128|448:128,1,140
256,256,10221,1,0
128,96,10821,6,2,B|96:192|96:256,1,140
480,256,11421,6,2,B|416:224,1,70
192,256,11821,2,0,B|96:256|32:224,1,140
160,32,12421,1,0
352,224,12621,1,0
96,160,13021,6,2,B|256:128,1,140
448,320,13421,1,0
64,320,14020,2,0,B|64:256|128:192,1,140
416,64,14620,1,0
256,192,14820,12,0,16020
256,128,16220,6,0,B|192:160|128:256,1,140
256,128,16620,2,0,B|320:160|384:256,1,140,8|0
64,288,17020,6,0,B|128:224|192:160,1,140
64,288,17420,2,0,B|128:352|224:352,1,140,14|0
448,224,17820,6,0,B|384:224|288:160,1,140
448,224,18220,2,0,B|384:224|320:288,1,140,8|0
96,64,18619,6,0,B|192:64|256:96,1,140
96,64,19019,2,0,B|96:128|32:192,1,140,14|0
320,320,19419,6,0,B|256:352|160:352,1,140
320,320,19819,2,0,B|416:352|480:352,1,140,8|0
224,64,20219,6,0,B|288:96|320:64|320:64|320:96|320:96|352:96,1,140
224,64,20619,2,8,B|288:160|320:128|320:128|320:160|320:160|320:192,1,140,14|0
128,224,21019,6,0,B|64:288|0:256,1,140
128,256,21419,2,0,B|64:320|0:288,1,140,8|0
448,96,21819,5,0
448,96,22019,1,8
384,224,22219,5,6
384,224,22419,1,8
224,288,22619,6,0,B|160:320|64:320,1,140
224,288,23019,2,0,B|288:224|352:224,1,140
96,64,23419,5,0
96,96,23518,1,0
96,128,23618,2,0,B|128:224|256:224,1,140
320,64,24018,2,0,B|352:128|448:160,1,140
128,320,24418,6,0,B|64:256|64:192,1,140
384,320,24818,2,0,B|448:256|448:192,1,140
128,64,25218,5,0
128,64,25418,1,0
448,160,25618,5,0
192,160,25818,1,0
128,224,26018,1,0
384,224,26218,1,0
352,64,26418,5,0
128,64,26618,1,0
128,288,26818,1,0
352,288,27018,1,0
320,64,27218,5,0
128,96,27418,1,0
160,288,27618,1,0
352,256,27818,1,0
288,96,28018,5,0
128,128,28218,1,0
192,288,28418,1,0
352,224,28617,1,0
32,96,29017,6,0,B|128:160|224:224,2,209.999993741512
448,96,29617,6,2,B|384:160|256:224,4,209.999993741512
64,160,30617,1,0
64,160,30817,5,0
448,160,31017,1,0
256,32,31217,5,0
128,352,31417,1,0
256,192,31617,5,2
384,352,31817,1,2
64,224,32217,5,0
192,192,32417,1,0
320,224,32617,1,0
448,192,32817,1,0
448,96,33017,5,0
320,128,33217,1,0
192,96,33416,1,0
160,96,33516,1,0
128,96,33615,1,0
96,96,33716,1,0
64,96,33816,1,0
64,128,33916,6,0,B|64:192,19,52.4999984353781
160,288,35016,2,2,B|256:288|384:256,1,209.999993741512
128,96,35416,5,0
384,160,35616,1,0
288,32,35816,1,0
128,192,36016,6,2,B|256:256|416:256,4,209.999993741512
416,32,37016,5,0
448,32,37216,1,0
416,224,37416,5,0
384,224,37616,1,0
192,320,37816,5,0
192,352,38016,1,0
192,32,38216,5,14
64,128,38615,5,2
64,160,38715,1,2
64,192,38815,1,2
64,224,38915,1,2
256,64,39215,6,2,B|352:96|480:96,1,209.999993741512
256,192,39615,2,2,B|192:256|64:288,1,209.999993741512
448,224,40215,5,0
384,288,40415,1,0
320,352,40615,1,14
64,224,40815,1,0
128,288,41015,1,0
192,352,41215,1,0
448,160,41415,5,14
384,96,41615,1,0
320,32,41815,1,2
288,32,41915,1,2
256,32,42015,1,2
224,32,42115,1,2
32,160,42415,6,0,B|128:192|256:256,1,209.999993741512
480,320,42815,2,0,B|416:256|416:256|288:224,1,209.999993741512
256,128,43415,5,0
160,256,43614,1,0
352,256,43814,1,14
160,128,44014,5,0
352,128,44214,1,0
256,256,44414,1,0
128,32,44614,2,14,B|64:160|96:288,1,209.999993741512
448,64,45014,6,0,B|448:96|448:96|416:96|416:96|416:64|416:64|384:64|384:64|384:96|384:96|352:96|352:96|352:64|352:64|320:64|320:64|320:96|320:96|288:96|288:96|288:64|288:64|256:64|256:64|256:96|256:96|96:96,1,560
64,256,45814,2,2,B|64:224|64:224|96:256|96:256|96:224|96:224|128:256|128:256|128:224|128:224|160:256|160:256|160:224|160:224|192:256|192:256|192:224|192:224|224:256|224:256|224:224|224:224|256:256|256:256|256:224|256:224|288:256|288:256|288:224|288:224|320:256|320:256|320:224|320:224|352:256|352:256|352:256|352:256|352:256|352:256|352:256|352:256|352:256,1,560
480,288,46614,6,0,B|480:320|480:320|448:320|448:320|448:288|448:288|416:288|416:288|416:320|416:320|384:320|384:320|384:288|384:288|352:288|352:288|352:320|352:320|320:320|320:320|320:288|320:288|288:288|288:288|288:320|288:320|128:320,1,560
160,128,47414,2,2,B|160:96|160:96|192:128|192:128|192:96|192:96|224:128|224:128|224:96|224:96|256:128|256:128|256:96|256:96|288:128|288:128|288:96|288:96|320:128|320:128|320:96|320:96|352:128|352:128|352:96|352:96|384:128|384:128|384:96|384:96|416:128|416:128|416:96|416:96|448:128|448:128|448:128|448:128|448:128|448:128|448:128|448:128|448:128,1,560
128,64,48214,5,0
64,224,48414,1,0
224,224,48613,1,0
384,128,48813,5,0
384,128,49013,1,0
384,128,49213,1,0
352,256,49413,5,0
256,320,49613,1,0
160,256,49813,1,0
96,160,50013,1,0
160,64,50213,1,0
256,96,50413,1,0
352,64,50613,1,0
416,160,50813,1,2
256,32,51413,5,0
128,352,51613,1,0
448,160,51813,1,0
64,160,52013,1,0
384,352,52213,1,0
256,64,52413,5,0
160,320,52613,1,0
416,160,52813,1,0
96,160,53013,1,0
352,320,53213,1,0
256,96,53413,5,0
192,288,53612,1,0
384,160,53812,1,0
128,160,54012,1,0
320,288,54212,1,14
384,96,54612,6,0,B|256:96,3,104.999996870756
256,192,55112,12,0,56012
96,64,56212,5,0
96,128,56312,1,0
96,192,56412,1,0
96,256,56512,1,0
256,192,56712,12,0,57612
192,96,67410,6,0,B|352:96,3,140
128,224,67910,2,0,B|320:288|416:224,1,280
256,192,68609,12,0,70309
160,64,70609,6,0,B|160:160,3,70
416,96,71109,2,0,B|384:192|320:256|224:288|192:288,1,280
256,192,71809,12,0,73508
128,64,73808,5,0
192,64,73908,1,0
256,64,74008,1,0
320,64,74108,1,0
128,192,74308,2,0,B|192:256|192:256|224:288|224:288|256:256|256:256|288:224|288:224|320:192|320:192|352:160,1,280
256,192,75008,12,0,76808
128,224,77008,6,0,B|128:128,1,70
160,224,77208,2,0,B|160:128,1,70
256,288,77508,2,0,B|352:288|352:288|448:192|448:64,1,280
256,192,78108,12,14,80207
256,32,80407,5,0
160,128,80607,1,0
352,128,80807,1,0
256,352,81007,5,0
160,256,81207,1,0
352,256,81407,1,6
256,224,81607,1,0
128,64,81807,5,0
384,64,82007,1,0
384,320,82207,1,0
128,320,82407,1,0
160,96,82607,5,0
160,288,82807,1,0
352,288,83007,1,6
352,96,83207,1,0
256,96,83407,6,0,B|224:192|224:192|224:288,1,140,8|0
256,96,83806,2,0,B|288:192|288:192|288:256,1,140,0|0
96,224,84206,1,8
160,288,84406,1,0
224,352,84606,1,6
288,288,84806,1,0
448,160,85006,5,8
384,224,85206,1,0
320,160,85406,1,0
64,160,85606,1,0
128,224,85806,1,8
192,160,86006,1,0
256,32,86206,5,6
256,352,86406,5,0
352,320,86606,1,8
448,288,86806,1,0
256,352,87006,5,0
160,320,87206,1,0
64,288,87406,1,8
256,288,87606,5,0
160,256,87806,1,0
64,224,88006,1,0
256,224,88206,5,8
160,192,88406,1,0
64,160,88606,1,0
256,160,88805,5,0
160,128,89005,1,8
64,96,89205,1,0
256,96,89405,5,0
160,64,89605,1,0
64,32,89805,1,8
256,96,90005,5,0
352,64,90205,1,0
448,32,90405,1,0
256,160,90605,5,8
352,128,90805,1,0
448,96,91005,1,14
256,192,91205,12,0,92805
128,128,93005,5,0
224,64,93205,1,8
224,96,93305,1,8
224,128,93405,1,8
160,256,93604,1,0
224,320,93804,1,8
288,256,94004,1,0
352,320,94204,1,8
256,192,94404,12,0,96004
416,64,96204,5,0
320,160,96404,1,8
256,160,96504,1,8
192,160,96604,1,8
160,288,96804,1,0
352,288,97004,1,8
256,64,97204,1,0
256,352,97404,1,8
256,192,97604,12,0,99203
160,64,99403,5,0
96,224,99603,1,8
128,256,99703,1,8
160,288,99803,1,8
416,288,100003,1,0
320,224,100203,1,8
416,128,100403,1,0
320,64,100603,1,8
256,192,100803,12,0,102403
160,128,102603,5,0
320,288,102803,1,8
352,224,102903,1,8
384,160,103003,1,8
96,320,103203,1,0
128,320,103403,1,8
256,96,103602,1,0
224,96,103802,1,8
256,192,104002,12,0,105602
224,32,105802,5,8
64,160,106002,1,8
64,128,106102,1,8
64,96,106202,1,8
192,288,106402,5,0
192,256,106502,1,0
192,224,106602,1,0
320,160,106802,5,8
320,128,106902,1,8
320,96,107002,1,8
448,224,107202,5,0
448,256,107302,1,0
448,288,107402,1,0
352,320,107602,5,8
320,320,107702,1,8
288,320,107802,1,8
96,320,108002,5,0
96,288,108102,1,0
96,256,108202,1,0
128,96,108402,5,8
224,96,108501,1,8
320,96,108601,1,8
160,32,109001,6,2,B|448:32|576:32,2,280
320,256,109801,2,2,B|256:352|256:352|160:256|160:256|128:224,2,280
96,96,110601,5,0
160,192,110801,2,8,B|320:192,2,140
416,128,111201,5,0
416,160,111301,1,0
416,192,111401,1,0
160,320,111601,5,8
128,288,111701,1,8
96,256,111801,1,8
352,320,112001,5,0
384,288,112101,1,0
416,256,112201,1,0
256,32,112401,6,8,B|256:224,2,140
192,256,112801,5,0
320,256,113001,1,0
256,128,113201,1,0
256,320,113401,1,14
192,32,113800,5,2
32,192,114000,1,2
192,352,114200,1,2
320,32,114600,1,2
480,192,114800,1,2
320,352,115000,1,2
256,192,115400,12,14,118799
