osu file format v5

[General]
AudioFilename: Guitar Freaks []Mix - Midnight Special.mp3
AudioLeadIn: 1765
PreviewTime: -1
Countdown: 1
SampleSet: Normal
StackLeniency: 0.6
Mode: 0
LetterboxInBreaks: 1
EditorBookmarks: 9199,19749,30298,40848,52716,55436,63265,65985

[Metadata]
Title:MIDNIGHT SPECIAL
Artist:Love machineguns
Creator:nullset
Version:Normal
Source:Guitar Freaks
Tags:Konami Bemani guitar freaks drummania

[Difficulty]
HPDrainRate:6
CircleSize:4
OverallDifficulty:6
SliderMultiplier:1.4
SliderTickRate:2

[Events]
//Background and Video events
//Break Periods
2,7091,8149
//Storyboard Layer 0 (Background)
//Storyboard Layer 1 (Failing)
//Storyboard Layer 2 (Passing)
//Storyboard Layer 3 (Foreground)
//Storyboard Sound Samples
//Background Colour Transformations
3,100,163,162,255

[TimingPoints]
9200,329.67032967033,4,1,0,60,1

[HitObjects]
152,80,298,2,0,B|392:80,3,210
360,216,2276,1,0
362,304,2606,6,0,B|152:304,3,210
160,128,4584,1,0
48,72,5243,6,0,B|40:216|88:248|136:296|176:320|264:328|336:320|376:296|416:256|432:208|448:168|472:144|456:56,1,700
102,58,9199,5,0
66,118,9364,1,0
138,118,9529,1,0
104,184,9694,2,0,B|200:184,1,70,0|2
256,48,10683,5,0
248,152,11013,2,2,B|192:176|184:224,1,70
256,232,11342,2,2,B|312:208|320:160,1,70
410,58,11837,5,0
446,118,12002,1,0
374,118,12167,1,0
408,184,12332,2,0,B|312:184,1,70,0|2
256,336,13320,5,0
248,232,13650,2,2,B|192:208|184:160,1,70
256,152,13979,2,2,B|312:176|320:224,1,70
472,184,14474,6,0,B|472:136|440:104,2,70
400,184,14969,2,0,B|328:184,1,70,0|2
256,48,15958,1,0
256,152,16287,1,0
292,212,16452,1,2
220,212,16617,1,2
256,272,16782,1,2
40,184,17112,6,0,B|40:136|72:104,2,70
112,184,17607,2,0,B|184:184,1,70,0|2
256,48,18430,1,4
256,120,18595,1,0
256,192,18760,1,0
256,264,18925,1,0
256,336,19090,1,4
440,216,20079,6,0,B|440:120|400:48|336:32,1,210
360,144,20903,1,0
72,216,21397,2,0,B|72:120|112:48|176:32,1,210
152,144,22221,1,0
256,32,22716,6,0,B|256:176,1,140
224,240,23375,2,0,B|328:240,1,70
176,136,23870,5,0
176,136,24035,1,0
176,136,24200,1,0
336,136,24529,1,0
336,136,24694,1,0
336,136,24859,1,0
72,168,25353,6,0,B|72:264|112:336|176:352,1,210
152,240,26177,1,0
440,168,26671,2,0,B|440:264|400:336|336:352,1,210
360,240,27495,1,0
256,352,27990,6,0,B|256:208,1,140
288,144,28649,2,0,B|184:144,1,70
326,239,29144,5,0
326,239,29309,1,0
326,239,29474,1,0
256,176,29639,1,0
256,288,29887,1,0
184,232,30134,1,0
192,336,30298,6,0,B|56:336|48:216,1,210
256,192,31287,1,0
320,48,31617,2,0,B|456:48|464:168,1,210,0|0
320,352,32606,6,0,B|256:392|176:352,1,140
256,192,33430,1,0
192,32,33925,2,0,B|256:-8|336:32,1,140
256,192,34749,1,0
176,32,35243,6,0,B|96:104|80:160|72:256|136:320|184:344,1,350
336,32,36562,2,0,B|424:88|432:160|432:256|376:320|320:352,1,350
256,192,37881,12,4,40518
64,56,41013,5,0
96,128,41178,1,0
136,64,41342,1,0
168,136,41507,1,0
208,72,41672,1,0
240,144,41837,1,0
280,80,42002,1,0
312,152,42167,1,0
184,328,42496,6,0,B|352:328,1,140
328,192,43156,1,0
184,192,43485,1,0
184,56,43815,2,0,B|352:56,1,140
328,192,44475,1,0
184,192,44804,1,0
96,48,45134,6,0,B|32:184|96:344,1,280
184,328,46123,1,0
328,328,46452,1,0
328,192,46782,1,0
184,192,47112,1,0
184,56,47771,6,0,B|352:56,1,140
328,192,48431,1,0
184,192,48760,1,0
184,328,49090,2,0,B|352:328,1,140
328,192,49750,1,0
184,192,50079,1,0
416,336,50409,6,0,B|480:200|416:40,1,280
328,64,51398,1,0
184,64,51727,1,0
184,192,52057,1,0
328,192,52387,1,0
88,152,52964,5,0
88,224,53128,1,0
88,296,53293,1,0
184,296,53623,2,2,B|256:328|328:296,1,140
424,232,54282,5,0
424,160,54446,1,0
424,88,54611,1,0
328,88,54941,2,2,B|256:56|184:88,1,140
56,192,55559,5,0
56,192,55724,1,0
56,192,55888,2,0,B|208:192,2,140
456,192,56837,5,0
456,192,57002,1,0
456,192,57166,2,0,B|304:192,2,140
456,56,58073,6,0,B|360:56,1,70
386,56,58403,1,0
312,104,58732,1,0
256,40,59062,1,0
88,48,59392,5,0
144,96,59557,1,0
72,120,59721,1,0
176,224,60051,1,0
256,192,60381,2,4,B|160:272|216:312|392:312|352:232|368:144|344:72|320:104|240:128|296:56|96:128|127:197|144:240,2,560
256,120,63348,5,0
176,48,63678,1,2
128,200,64007,1,0
128,200,64172,1,0
128,200,64336,1,2
256,208,64667,1,0
256,328,64997,1,2
256,208,65326,1,0
256,56,65656,1,0
256,120,65985,5,0
336,48,66316,1,2
384,200,66645,1,0
384,200,66810,1,0
384,200,66974,1,2
256,208,67305,1,0
256,328,67635,1,2
256,208,67964,1,0
336,88,68293,6,0,B|416:48|472:136,2,140,0|0|2
328,192,69282,1,0
256,192,69447,1,0
184,192,69612,1,2
176,296,69941,2,0,B|96:336|40:248,2,140,2|2|2
160,72,70930,5,2
352,72,71260,1,2
256,280,71590,1,6
256,192,72249,12,4,76700
