osu file format v14

[General]
AudioFilename: angel eyes.mp3
AudioLeadIn: 0
PreviewTime: 37130
Countdown: 0
SampleSet: Soft
StackLeniency: 0.7
Mode: 0
LetterboxInBreaks: 1
EpilepsyWarning: 1
WidescreenStoryboard: 1

[Editor]
DistanceSpacing: 1.2
BeatDivisor: 4
GridSize: 4
TimelineZoom: 0.8

[Metadata]
Title:Angel Eyes
TitleUnicode:Angel Eyes
Artist:Love and Theft
ArtistUnicode:Love and Theft
Creator:Gray Veyron
Version:Hard
Source:
Tags:duo stephen barker liles eric gunderson hot country platinum
BeatmapID:627113
BeatmapSetID:274179

[Difficulty]
HPDrainRate:6
CircleSize:4.5
OverallDifficulty:6
ApproachRate:7
SliderMultiplier:1.6
SliderTickRate:1

[Events]
//Background and Video events
0,0,"BG3.png",0,0
//Break Periods
2,60107,67896
2,126774,136785
//Storyboard Layer 0 (Background)
//Storyboard Layer 1 (Fail)
//Storyboard Layer 2 (Pass)
//Storyboard Layer 3 (Foreground)
//Storyboard Sound Samples

[TimingPoints]
2130,555.555555555556,4,2,0,50,1,0
37685,-100,4,2,0,75,0,1
51018,-100,4,2,0,50,0,0
57963,-100,4,2,0,25,0,0
59907,-100,4,2,0,50,0,0
86574,-100,4,2,0,75,0,1
99907,-100,4,2,0,50,0,0
137685,-100,4,2,2,50,0,0
146574,-100,4,2,0,80,0,1
155370,-100,4,2,0,80,0,0
155463,-100,4,2,0,80,0,1
164259,-100,4,2,0,80,0,0
164352,-100,4,2,0,80,0,1
168796,-100,4,2,0,50,0,0
180185,-100,4,2,0,80,0,1
180324,-100,4,2,0,50,0,0

[Colours]
Combo1 : 181,74,90
Combo2 : 56,146,83
Combo3 : 159,113,116
Combo4 : 175,177,90

[HitObjects]
432,144,19907,6,0,P|388:156|360:188,1,80,4|0,0:0|0:0,0:0:0:0:
336,256,20463,1,2,3:0:0:0:
260,228,20741,1,0,0:0:0:0:
260,228,21018,2,0,P|220:232|189:256,1,80
140,356,21574,2,0,P|180:352|211:328,1,80,2|0,3:0|0:0,0:0:0:0:
260,228,22130,5,0,0:0:0:0:
300,160,22407,1,0,0:0:0:0:
260,92,22685,1,2,3:0:0:0:
220,160,22963,1,0,0:0:0:0:
260,228,23241,2,0,L|340:248,1,80
220,160,23796,2,0,L|142:140,1,80,2|0,3:0|0:0,0:0:0:0:
32,112,24352,5,0,0:0:0:0:
72,180,24630,1,0,0:0:0:0:
52,256,24907,2,0,P|108:280|156:288,1,80,2|0,3:0|0:0,0:0:0:0:
262,326,25463,2,0,P|223:336|184:340,1,80,0|0,0:0|0:0,0:0:0:0:
308,260,26018,1,2,3:0:0:0:
380,224,26296,1,0,0:0:0:0:
460,240,26574,6,0,P|456:192|436:164,1,80
360,152,27130,2,0,P|360:196|384:228,1,80,2|0,3:0|0:0,0:0:0:0:
439,166,27685,2,0,P|435:118|415:90,1,80,0|2,0:0|3:0,0:0:0:0:
340,72,28241,1,2,3:0:0:0:
284,128,28518,1,0,0:0:0:0:
172,128,28796,6,0,B|144:116|116:128|116:128|88:156,1,80
100,224,29352,2,0,B|115:239|115:239|143:251|171:239,1,80,2|0,3:0|0:0,0:0:0:0:
228,184,29907,1,0,0:0:0:0:
300,224,30185,1,0,0:0:0:0:
336,296,30463,2,0,P|364:324|404:336,1,80,2|0,3:0|0:0,0:0:0:0:
336,296,31018,5,0,0:0:0:0:
336,296,31296,2,0,L|336:212,1,80,0|2,0:0|3:0,0:0:0:0:
364,188,31713,2,0,L|364:108,1,80
364,68,32130,2,0,P|320:68|288:84,1,80
156,155,32685,2,0,P|196:156|232:140,1,80,2|0,3:0|0:0,0:0:0:0:
56,108,33241,5,0,0:0:0:0:
132,80,33518,1,0,0:0:0:0:
156,156,33796,1,2,3:0:0:0:
80,184,34074,1,0,0:0:0:0:
156,156,34352,2,0,P|160:207|139:245,1,80
56,108,34907,2,0,P|51:56|72:18,1,80,2|0,3:0|0:0,0:0:0:0:
156,156,35463,6,0,L|252:168,1,80,0|2,0:0|3:0,0:0:0:0:
284,104,36018,2,0,P|312:144|312:184,1,80,2|0,3:0|0:0,0:0:0:0:
268,240,36574,1,0,0:0:0:0:
308,308,36852,1,0,0:0:0:0:
360,248,37130,1,4,0:0:0:0:
368,252,37407,1,0,0:0:0:0:
376,256,37685,6,0,B|412:272|412:272|452:256,1,80,4|0,0:0|0:0,0:0:0:0:
472,212,38102,1,0,0:0:0:0:
448,168,38241,2,0,B|410:152|410:152|374:168,1,80,8|0,0:0|0:0,0:0:0:0:
312,92,38796,2,0,L|268:160,1,80
260,316,39352,2,0,L|304:248,1,80,8|0,0:0|0:0,0:0:0:0:
312,92,39907,5,0,0:0:0:0:
312,92,40185,2,0,P|268:84|228:96,1,80,0|8,0:0|0:0,0:0:0:0:
200,184,40741,1,0,0:0:0:0:
116,136,41018,2,0,B|76:140|48:176|48:176|76:216|116:220,1,160,0|8,0:0|0:0,0:0:0:0:
200,184,41852,1,0,0:0:0:0:
284,232,42130,6,0,B|316:256|316:256|328:296,1,80
340,340,42546,1,0,0:0:0:0:
388,332,42685,2,0,L|472:312,1,80,8|0,0:0|0:0,0:0:0:0:
408,236,43241,2,0,L|428:152,1,80,0|0,0:0|0:0,0:0:0:0:
356,40,43796,2,0,L|338:118,1,80,8|0,0:0|0:0,0:0:0:0:
408,236,44352,5,0,0:0:0:0:
408,236,44630,2,0,P|396:272|348:296,1,80,0|8,0:0|0:0,0:0:0:0:
276,248,45185,1,0,0:0:0:0:
204,308,45463,2,0,B|172:328|172:328|160:304|160:304|106:326|68:302,1,160,0|12,0:0|0:0,0:0:0:0:
68,302,46574,6,0,P|39:248|44:211,1,80,4|0,0:0|0:0,0:0:0:0:
56,184,46991,1,0,0:0:0:0:
92,152,47130,2,0,P|130:143|168:154,1,80,8|0,0:0|0:0,0:0:0:0:
268,280,47685,1,0,0:0:0:0:
264,120,47963,1,0,0:0:0:0:
172,252,48241,1,8,0:0:0:0:
320,196,48518,1,0,0:0:0:0:
364,112,48796,5,0,0:0:0:0:
364,112,49074,2,0,P|400:140|412:172,1,80,0|8,0:0|0:0,0:0:0:0:
320,196,49630,1,0,0:0:0:0:
264,116,49907,2,0,P|268:70|289:43,1,80,0|0,0:0|0:0,0:0:0:0:
159,43,50463,2,0,P|181:76|184:116,1,80,8|8,3:0|3:0,0:0:0:0:
72,112,51018,5,4,0:0:0:0:
88,192,51296,2,0,L|96:232,1,40
104,272,51574,2,0,P|144:264|188:272,1,80,8|0,3:0|0:0,0:0:0:0:
248,316,52130,2,0,P|278:289|320:274,1,80,0|0,0:0|0:0,0:0:0:0:
454,267,52685,2,0,P|425:293|388:308,1,80,8|0,3:0|0:0,0:0:0:0:
248,316,53241,6,0,B|278:289|278:289|320:274,1,80,0|0,0:0|0:0,0:0:0:0:
454,267,53796,2,0,B|425:293|425:293|388:308,1,80,8|0,3:0|0:0,0:0:0:0:
380,228,54352,2,0,L|448:168,1,80
496,116,54907,1,8,3:0:0:0:
436,64,55185,1,2,3:0:0:0:
380,120,55463,5,0,0:0:0:0:
300,128,55741,2,0,L|248:140,1,40
220,144,56018,2,0,B|192:148|192:148|152:152|128:120,1,80,8|0,3:0|0:0,0:0:0:0:
84,80,56574,2,0,P|64:116|68:168,1,80
92,228,57130,2,0,P|123:253|175:259,1,80,8|2,3:0|3:0,0:0:0:0:
272,248,57685,5,2,3:0:0:0:
328,196,57963,1,0,0:0:0:0:
348,272,58241,1,0,0:0:0:0:
404,216,58518,1,0,0:0:0:0:
404,216,58796,2,0,B|412:160|372:112|312:120|312:120|296:112,1,160,0|4,0:0|3:0,0:0:0:0:
256,216,59630,1,0,0:0:0:0:
204,120,59907,1,4,0:0:0:0:
428,120,68796,5,4,0:0:0:0:
372,176,69074,1,0,0:0:0:0:
296,200,69352,2,0,L|208:216,1,80,2|0,3:0|0:0,0:0:0:0:
73,182,69907,2,0,L|152:168,1,80,0|0,0:0|0:0,0:0:0:0:
286,237,70463,2,0,L|198:222,1,80,2|0,3:0|0:0,0:0:0:0:
83,144,71018,6,0,L|161:158,1,80,0|0,0:0|0:0,0:0:0:0:
216,216,71574,1,2,3:0:0:0:
296,216,71852,1,0,0:0:0:0:
348,156,72130,2,0,B|426:142|426:142|407:180|434:220,1,160,0|2,0:0|3:0,0:0:0:0:
433,218,73241,5,0,0:0:0:0:
388,284,73518,2,0,L|344:316,1,40
320,328,73796,2,0,B|280:316|280:316|236:332,1,80,2|0,3:0|0:0,0:0:0:0:
168,352,74352,2,0,B|156:304|192:268|192:268|168:240|120:252,1,160,0|2,0:0|3:0,0:0:0:0:
48,256,75185,1,0,0:0:0:0:
84,168,75463,6,0,P|116:136|156:124,1,80
184,144,75880,2,0,L|264:144,1,80
300,124,76296,2,0,P|337:138|364:167,1,80
400,240,76852,1,0,0:0:0:0:
476,208,77130,1,2,3:0:0:0:
440,135,77407,1,0,0:0:0:0:
400,240,77685,6,0,P|380:272|336:296,1,80
268,268,78241,2,0,L|184:300,1,80,2|0,3:0|0:0,0:0:0:0:
160,224,78796,2,0,L|76:192,1,80,0|0,0:0|0:0,0:0:0:0:
64,116,79352,1,2,3:0:0:0:
124,60,79630,1,0,0:0:0:0:
192,128,79907,6,0,P|244:120|288:100,1,80
304,92,80324,1,0,0:0:0:0:
340,72,80463,2,0,P|377:58|417:54,1,80,2|0,3:0|0:0,0:0:0:0:
440,132,81018,2,0,P|453:169|457:209,1,80,0|0,3:0|0:0,0:0:0:0:
380,236,81574,2,0,P|342:249|302:253,1,80,2|0,3:0|0:0,0:0:0:0:
212,224,82130,5,0,0:0:0:0:
132,208,82407,2,0,P|96:228|72:272,2,80,0|2|0,0:0|3:0|0:0,0:0:0:0:
184,148,83241,2,0,B|196:120|196:120|192:104|192:104|204:72,1,80
284,76,83796,2,0,B|295:106|295:106|291:122|291:122|303:150,1,80,2|0,3:0|0:0,0:0:0:0:
320,188,84213,1,8,3:0:0:0:
336,224,84352,5,8,3:0:0:0:
416,220,84630,2,0,P|408:268|376:296,1,80,8|2,3:0|3:0,0:0:0:0:
348,304,85046,2,0,P|308:303|276:281,1,80
256,244,85463,1,8,3:0:0:0:
228,168,85741,1,8,3:0:0:0:
176,228,86018,1,4,0:0:0:0:
168,232,86296,1,0,0:0:0:0:
160,236,86574,6,0,P|104:256|80:256,1,80,4|0,0:0|0:0,0:0:0:0:
48,224,86991,1,0,0:0:0:0:
60,176,87130,2,0,P|116:156|140:156,1,80,8|0,0:0|0:0,0:0:0:0:
188,76,87685,2,0,L|276:112,1,80
356,80,88241,2,0,L|444:116,1,80,8|0,0:0|0:0,0:0:0:0:
484,192,88796,5,0,0:0:0:0:
384,196,89074,1,0,0:0:0:0:
436,276,89352,1,8,0:0:0:0:
336,280,89630,1,0,0:0:0:0:
288,196,89907,2,0,B|240:224|240:276|240:276|204:264|172:284,1,160,0|8,0:0|0:0,0:0:0:0:
212,372,90741,1,0,0:0:0:0:
92,328,91018,5,4,0:0:0:0:
52,240,91296,1,0,0:0:0:0:
52,240,91435,1,0,0:0:0:0:
52,240,91574,2,0,B|52:196|52:196|72:160,1,80,8|0,0:0|0:0,0:0:0:0:
164,140,92130,2,0,B|164:184|164:184|144:220,1,80,0|0,0:0|0:0,0:0:0:0:
70,164,92685,2,0,B|70:120|70:120|90:84,1,80,8|0,0:0|0:0,0:0:0:0:
168,40,93241,5,0,0:0:0:0:
248,92,93518,1,0,0:0:0:0:
332,136,93796,2,0,P|368:152|424:148,1,80,8|0,0:0|0:0,0:0:0:0:
388,60,94352,1,0,0:0:0:0:
352,216,94630,2,0,L|332:304,1,80,8|4,3:0|0:0,0:0:0:0:
334,294,95463,6,0,P|300:324|252:324,1,80,4|0,0:0|0:0,0:0:0:0:
224,304,95880,1,0,0:0:0:0:
184,328,96018,2,0,P|145:321|116:294,1,80,8|0,0:0|0:0,0:0:0:0:
143,111,96574,1,0,0:0:0:0:
56,72,96852,1,0,0:0:0:0:
103,201,97130,1,8,0:0:0:0:
231,151,97408,1,0,0:0:0:0:
231,151,97685,6,0,P|267:133|307:133,1,80
403,121,98241,2,0,P|400:161|380:195,1,80,8|0,0:0|0:0,0:0:0:0:
343,285,98796,2,0,P|309:262|289:228,1,80,0|8,0:0|3:0,0:0:0:0:
231,151,99352,1,8,3:0:0:0:
144,112,99630,1,8,3:0:0:0:
48,116,99907,5,4,0:0:0:0:
100,176,100185,2,0,P|108:196|108:220,1,40
88,248,100463,2,0,P|136:244|176:256,1,80,8|0,3:0|0:0,0:0:0:0:
232,300,101018,2,0,P|270:308|310:303,1,80
372,252,101574,2,0,P|410:243|450:248,1,80,8|0,3:0|0:0,0:0:0:0:
440,168,102130,6,0,P|408:240|416:320,2,160,0|8|0,0:0|3:0|0:0,0:0:0:0:
496,108,103518,1,0,0:0:0:0:
416,100,103796,1,8,3:0:0:0:
360,160,104074,1,2,3:0:0:0:
304,100,104352,5,0,0:0:0:0:
224,112,104630,2,0,P|208:120|184:124,1,40
148,120,104907,2,0,L|124:204,1,80,8|0,3:0|0:0,0:0:0:0:
44,192,105463,2,0,L|32:280,1,80,0|0,0:0|0:0,0:0:0:0:
24,352,106018,2,0,P|68:344|100:316,1,80,8|0,3:0|0:0,0:0:0:0:
128,248,106574,6,0,P|160:264|208:264,1,80,0|8,0:0|3:0,0:0:0:0:
268,216,107130,1,8,3:0:0:0:
344,236,107407,1,0,0:0:0:0:
383,107,107685,2,0,P|348:91|308:90,1,80,8|0,3:0|0:0,0:0:0:0:
244,140,108241,1,8,3:0:0:0:
268,216,108518,1,8,3:0:0:0:
180,180,108796,6,0,P|112:192|20:180,1,160,4|2,0:0|3:0,0:0:0:0:
152,84,109907,2,0,P|220:72|312:84,1,160,0|2,0:0|3:0,0:0:0:0:
380,120,110741,1,0,0:0:0:0:
448,164,111018,6,0,B|460:204|460:204|448:248,1,80
374,348,111574,2,0,B|364:312|364:312|376:272,1,80,2|0,3:0|0:0,0:0:0:0:
444,312,112130,2,0,B|400:320|400:320|332:308|332:308|280:316,1,160,0|4,0:0|0:0,0:0:0:0:
144,240,113241,6,0,L|224:228,1,80,4|0,0:0|0:0,0:0:0:0:
248,152,113796,2,0,P|280:176|328:180,1,80,2|0,3:0|0:0,0:0:0:0:
324,260,114352,2,0,P|285:269|256:296,2,80,0|0|2,0:0|0:0|3:0,0:0:0:0:
392,216,115185,1,0,0:0:0:0:
460,176,115463,6,0,P|428:144|388:136,1,80
328,92,116018,2,0,P|290:80|263:51,1,80,2|0,3:0|0:0,0:0:0:0:
184,32,116574,1,0,0:0:0:0:
208,108,116852,1,8,3:0:0:0:
188,184,117130,1,8,3:0:0:0:
124,232,117407,1,8,3:0:0:0:
264,164,117685,6,0,B|320:196|320:196|356:292,1,160,4|2,0:0|3:0,0:0:0:0:
200,240,118796,2,0,B|144:208|144:208|108:112,1,160,0|2,0:0|3:0,0:0:0:0:
96,40,119630,1,0,0:0:0:0:
172,68,119907,6,0,L|204:152,1,80
268,188,120463,2,0,L|300:272,1,80,2|0,3:0|0:0,0:0:0:0:
248,328,121018,2,0,P|324:340|376:280,1,160,0|4,0:0|0:0,0:0:0:0:
324,132,122130,6,0,P|288:112|236:116,1,80,4|0,0:0|0:0,0:0:0:0:
188,164,122685,2,0,P|152:184|100:180,1,80,2|0,3:0|0:0,0:0:0:0:
132,108,123241,2,0,P|168:200|168:280,1,160,0|2,0:0|3:0,0:0:0:0:
208,328,124074,1,8,3:0:0:0:
128,324,124352,5,8,3:0:0:0:
208,192,124630,1,8,3:0:0:0:
252,260,124908,1,8,3:0:0:0:
84,260,125186,1,8,3:0:0:0:
128,192,125463,1,8,3:0:0:0:
168,124,125741,1,8,3:0:0:0:
252,260,126018,1,8,3:0:0:0:
292,192,126296,1,8,3:0:0:0:
292,192,126435,1,0,0:0:0:0:
292,192,126574,5,4,0:0:0:0:
428,128,137685,5,8,0:0:0:0:
352,156,137963,1,0,0:0:0:0:
352,156,138102,1,0,0:0:0:0:
352,156,138241,2,0,P|312:160|260:156,1,80,8|0,0:0|0:0,0:0:0:0:
224,76,138796,2,0,P|264:72|316:76,1,80,8|0,0:0|0:0,0:0:0:0:
352,156,139352,2,0,P|312:160|260:156,1,80,8|0,0:0|0:0,0:0:0:0:
428,128,139907,5,8,0:0:0:0:
468,196,140185,1,0,0:0:0:0:
444,272,140463,2,0,P|420:308|364:328,1,80,8|0,0:0|0:0,0:0:0:0:
368,248,141018,2,0,B|336:256|304:280|308:340|308:340|264:328,1,160,8|8,0:0|0:0,0:0:0:0:
192,304,141852,1,0,0:0:0:0:
248,248,142130,5,8,0:0:0:0:
284,176,142407,1,0,0:0:0:0:
284,176,142546,1,0,0:0:0:0:
284,176,142685,2,0,B|244:168|244:168|204:180,1,80,8|0,0:0|0:0,0:0:0:0:
128,196,143241,2,0,B|129:156|129:156|151:122,1,80,8|0,0:0|0:0,0:0:0:0:
144,272,143796,2,0,L|52:316,1,80,8|0,0:0|0:0,0:0:0:0:
72,307,144352,5,4,3:0:0:0:
72,307,145741,1,8,3:0:0:0:
96,180,146018,1,4,0:0:0:0:
193,264,146296,1,0,0:0:0:0:
96,180,146574,6,0,P|160:156|188:156,1,80,4|0,2:1|0:0,0:0:0:0:
212,156,146991,1,0,0:0:0:0:
252,156,147130,2,0,P|291:162|326:180,1,80,8|0,0:0|0:0,0:0:0:0:
424,332,147685,1,0,0:0:0:0:
392,240,147963,1,0,0:0:0:0:
264,332,148241,1,8,0:0:0:0:
296,240,148518,1,0,0:0:0:0:
200,256,148796,6,0,P|160:264|112:260,1,80
111,164,149352,2,0,P|73:150|40:129,1,80,8|0,0:0|0:0,0:0:0:0:
180,120,149907,2,0,B|204:100|252:88|252:88|300:100|328:120,1,160,0|8,0:0|0:0,0:0:0:0:
392,188,150741,1,0,0:0:0:0:
488,184,151018,6,0,P|484:224|456:260,1,80,4|0,0:0|0:0,0:0:0:0:
428,280,151435,1,0,0:0:0:0:
388,288,151574,2,0,L|303:301,1,80,8|0,0:0|0:0,0:0:0:0:
148,260,152130,2,0,L|228:248,1,80,0|0,0:0|0:0,0:0:0:0:
352,152,152685,2,0,L|273:165,1,80,8|0,0:0|0:0,0:0:0:0:
233,169,153102,1,8,3:0:0:0:
193,173,153241,5,8,3:0:0:0:
64,120,153518,1,8,3:0:0:0:
104,208,153796,1,8,3:0:0:0:
156,88,154074,1,8,3:0:0:0:
188,64,154213,1,8,3:0:0:0:
208,28,154352,1,8,3:0:0:0:
244,48,154491,1,8,3:0:0:0:
284,52,154630,1,8,3:0:0:0:
380,40,154907,2,0,P|396:80|388:120,1,80,4|0,0:0|0:0,0:0:0:0:
337,267,155463,6,0,P|321:231|329:187,1,80,4|0,2:1|0:0,0:0:0:0:
327,192,155880,1,0,0:0:0:0:
327,192,156018,2,0,P|291:208|252:202,1,80,8|0,0:0|0:0,0:0:0:0:
160,168,156574,1,0,0:0:0:0:
48,176,156852,1,0,0:0:0:0:
156,200,157130,1,8,0:0:0:0:
56,148,157407,1,0,0:0:0:0:
124,80,157685,5,0,0:0:0:0:
216,56,157963,2,0,L|268:120,1,80,0|8,0:0|0:0,0:0:0:0:
332,188,158518,1,0,0:0:0:0:
428,168,158796,2,0,B|412:208|440:244|440:244|392:244|368:288,1,160,0|8,0:0|0:0,0:0:0:0:
324,360,159630,1,0,0:0:0:0:
236,320,159907,6,0,P|204:292|164:284,1,80,4|0,0:0|0:0,0:0:0:0:
128,292,160324,1,0,0:0:0:0:
96,316,160463,2,0,L|52:232,1,80,8|0,0:0|0:0,0:0:0:0:
82,121,161018,2,0,L|120:192,1,80,0|0,0:0|0:0,0:0:0:0:
237,246,161574,2,0,L|200:176,1,80,8|0,0:0|0:0,0:0:0:0:
156,88,162130,5,0,0:0:0:0:
252,72,162407,2,0,B|288:56|288:56|328:72,1,80,0|8,0:0|0:0,0:0:0:0:
380,152,162963,2,0,B|342:167|342:167|306:151,1,80,0|0,0:0|0:0,0:0:0:0:
456,116,163518,1,8,3:0:0:0:
376,232,163796,1,8,3:0:0:0:
448,196,164074,1,8,3:0:0:0:
296,224,164352,6,0,L|220:256,1,80,4|0,2:1|0:0,0:0:0:0:
184,248,164768,1,0,0:0:0:0:
144,240,164907,2,0,L|68:272,1,80,8|0,0:0|0:0,0:0:0:0:
12,192,165463,2,0,L|85:160,1,80,0|0,0:0|0:0,0:0:0:0:
245,143,166018,2,0,P|206:143|172:124,1,80,8|0,0:0|0:0,0:0:0:0:
232,48,166574,5,0,0:0:0:0:
308,108,166852,2,0,P|328:71|323:23,2,80,0|8|0,0:0|0:0|0:0,0:0:0:0:
320,204,167685,1,0,0:0:0:0:
384,320,167963,1,8,3:0:0:0:
392,240,168241,1,8,3:0:0:0:
304,336,168518,1,8,3:0:0:0:
264,264,168796,6,0,B|224:276|224:276|188:308,1,80,4|0,0:0|0:0,0:0:0:0:
164,328,169213,1,0,0:0:0:0:
132,352,169352,2,0,B|96:365|96:365|54:363,1,80,8|0,3:0|0:0,0:0:0:0:
84,288,169907,2,0,P|108:252|108:196,1,80
100,136,170463,2,0,P|139:140|171:162,1,80,8|0,3:0|0:0,0:0:0:0:
112,216,171018,6,0,P|136:164|160:60,2,160,0|8|0,0:0|3:0|0:0,0:0:0:0:
56,272,172407,1,0,0:0:0:0:
132,296,172685,2,0,L|216:320,1,80,8|2,3:0|3:0,0:0:0:0:
288,336,173241,6,0,P|328:336|368:316,1,80
388,288,173657,1,0,0:0:0:0:
376,252,173796,2,0,P|376:212|400:168,1,80,8|0,3:0|0:0,0:0:0:0:
468,152,174352,2,0,P|468:192|452:232,1,80
392,176,174907,2,0,P|392:136|408:96,1,80,8|2,3:0|3:0,0:0:0:0:
440,24,175463,6,0,P|392:20|344:44,1,80,8|0,3:0|0:0,0:0:0:0:
324,100,176018,2,0,L|248:128,1,80,8|0,3:0|0:0,0:0:0:0:
176,156,176574,2,0,P|172:224|104:280,1,160,8|8,3:0|3:0,0:0:0:0:
24,280,177407,1,0,0:0:0:0:
64,212,177685,6,0,P|100:192|100:156,1,80,8|8,3:0|3:0,0:0:0:0:
60,88,178241,1,8,3:0:0:0:
140,84,178518,1,8,3:0:0:0:
176,156,178796,1,8,3:0:0:0:
244,196,179074,1,0,0:0:0:0:
244,196,179213,1,8,3:0:0:0:
244,196,179352,2,0,L|320:232,1,80,8|2,3:0|3:0,0:0:0:0:
256,192,180185,12,0,184352,0:0:0:0:
352,154,184907,6,0,P|366:115|365:75,1,80,8|0,3:0|0:0,0:0:0:0:
291,104,185463,2,0,P|250:110|215:131,1,80,0|0,0:0|0:0,0:0:0:0:
277,182,186018,2,0,P|302:213|338:233,1,80,8|0,3:0|0:0,0:0:0:0:
336,232,186574,5,0,0:0:0:0:
296,109,186852,1,8,3:0:0:0:
173,148,187130,1,8,3:0:0:0:
213,271,187407,1,8,3:0:0:0:
256,192,187685,1,4,0:0:0:0:
